Reply to topic
DL-List and Torrent activity [Update пиров]
Size:  312 MB   |    Registered:  4 years 10 months   |    Completed:  0 times
Seeders:  506  [  0 KB/s  ]   Leechers:  48  [  0 KB/s  ]  
 
     
 
 
Author Message

RelizMAN ®

11

Post 04-Nov-2015 14:40

[Quote]

Wychazel - White Wolf Spirit 2
Жанр: New Age
Год издания: 2015
Аудиокодек: FLAC (*.flac)
Тип рипа: image+.cue
Битрейт аудио: 875 kbps
Продолжительность: 00:49:39
Источник (релизер): rsfsr7
Наличие сканов в содержимом раздачи: нет
Трек-лист:
01. Wolf Spirit Invocation
02. Riding The Storm
03. The Shaman's Gift
04. River Song

Лог создания рипа

Exact Audio Copy V0.99 prebeta 5 from 4. May 2009
Отчёт EAC об извлечении, выполненном 3. ноября 2015, 12:48
Wychazel / White Wolf Spirit 2 (2015) FLAC by rsfsr7 Obninsk
Дисковод: AXV CD/DVD-ROM Adapter: 1 ID: 0
Режим чтения : ДостоверностьИспользование точного потока : ДаОтключение кэша аудио : ДаИспользование указателей C2 : Нет
Коррекция смещения при чтении : 0Способность читать области Lead-in и Lead-out : НетЗаполнение пропущенных сэмплов тишиной : ДаУдаление блоков с тишиной в начале и конце : НетПри вычислениях CRC использовались нулевые сэмплы : НетИнтерфейс : Встроенный Win32-интерфейс для Win NT/2000
Выходной формат : Пользовательский кодировщикВыбранный битрейт : 768 kBit/sКачество : ВысокийДобавление ID3-тэга : НетУтилита сжатия : C:\Program Files\Exact Audio Copy\FLAC\FLAC.EXEДополнительные параметры : -6 -V -T "ARTIST=%a" -T "TITLE=%t" -T "ALBUM=%g" -T "DATE=%y" -T "TRACKNUMBER=%n" -T "GENRE=%m" -T "COMMENT=%e" %s -o %d
TOC извлечённого CD
Трек | Старт | Длительность | Начальный сектор | Конечный сектор --------------------------------------------------------------------- 1 | 0:00.00 | 18:11.62 | 0 | 81886 2 | 18:11.62 | 10:34.49 | 81887 | 129485 3 | 28:46.36 | 10:12.27 | 129486 | 175412 4 | 38:58.63 | 10:39.21 | 175413 | 223358
Характеристики диапазона извлечения и сообщения об ошибках
Выбранный диапазон
Имя файла C:\Wychazel - White Wolf Spirit 2 (2015) FLAC by rsfsr7 Obninsk.wav
Пиковый уровень 100.0 % Качество диапазона 100.0 % CRC теста B80B1EFF CRC копии B80B1EFF Копирование... OK
Ошибок не произошло
Конец отчёта

Содержание индексной карты (.CUE)

REM GENRE "New Age"REM DATE 2015REM DISCID 2A0BA204REM COMMENT "ExactAudioCopy v0.99pb5"PERFORMER "Wychazel"TITLE "White Wolf Spirit 2 (2015) FLAC by rsfsr7 Obninsk "FILE "Wychazel - White Wolf Spirit 2 (2015) FLAC by rsfsr7 Obninsk.flac" WAVE TRACK 01 AUDIO TITLE "Wolf Spirit Invocation" PERFORMER "Wychazel" FLAGS DCP INDEX 01 00:00:00 TRACK 02 AUDIO TITLE "Riding The Storm" PERFORMER "Wychazel" FLAGS DCP INDEX 01 18:11:62 TRACK 03 AUDIO TITLE "The Shaman's Gift" PERFORMER "Wychazel" FLAGS DCP INDEX 01 28:46:36 TRACK 04 AUDIO TITLE "River Song" PERFORMER "Wychazel" FLAGS DCP INDEX 01 38:58:63

Лог проверки качества

-----------------------
DON'T MODIFY THIS FILE
-----------------------
PERFORMER: auCDtect Task Manager, ver. 1.5.1RC4 build 1.5.1.5Copyright (c) 2008-2010 y-soft. All rights reservedhttp://y-soft.org
ANALYZER: auCDtect: CD records authenticity detector, version 0.8.2Copyright (c) 2004 Oleg Berngardt. All rights reserved.Copyright (c) 2004 Alexander Djourik. All rights reserved.
FILE: Wychazel - White Wolf Spirit 2 (2015) FLAC by rsfsr7 Obninsk.flac Size: 325986638 Hash: 96600996615AD0D4D1C85663D239BDC1 Accuracy: -m0 Conclusion: CDDA 100% Signature: 4C498BFA41C7BF7BD381BDEDF77FD48FD23A11C4

Скриншот спектра частот

[doutdess.site].t87697.torrent
Torrent: Registered [ 2015-11-04 14:40 ] · CA4675A76AA4875D6778DB38F3669EB974DF2332

13 KB

Status: checked
Completed: 0 times
Size: 312 MB
(New Age) Wychazel - White Wolf Spirit 2 (2015) FLAC (image+.cue), lossless скачать торрент бесплатно и без регистрации

[Profile] [PM]
Forum Topic Author Size
NewAge & Meditative lossless (New Age) Al Gromer Khan & Emin Corrado - Tantra Electronica - 2004, FLAC (tracks+.cue), lossless RelizMAN 284 MB
NewAge & Meditative lossless (New Age) Al Gromer Khan - Negus - The Royal Principle - 2008, FLAC (tracks+.cue), lossless RelizMAN 227 MB
NewAge & Meditative lossless (New Age) Amethystium - 2005 - "Transversa" [APE (image + .cue)], lossless RelizMAN 437 MB
NewAge & Meditative lossy (New Age) Ani Williams - Goddess In The Field of Light - 2019, MP3 (tracks), 320 kbps Vi$itReal 161 MB
NewAge & Meditative lossless (New Age) Anima - Temple of the Stars - 2010, FLAC (tracks+.cue), lossless RelizMAN 376 MB
NewAge & Meditative lossless (New Age) Anne Linnet - Relax, No. 1 - 2003, FLAC (tracks+.cue), lossless RelizMAN 312 MB
NewAge & Meditative lossless (New Age) Anthony Miles - Music For Children - 1995, APE (image+.cue) lossless RelizMAN 212 MB
NewAge & Meditative lossless (New Age) Anuragi - Highway Back Home (1990), Morning & Evening Meditation (1992), APE (image + .cue), lossless RelizMAN 331 MB
Display posts:    

Current time is: 20-Sep 13:16

All times are UTC + 3



You cannot post new topics in this forum
You cannot reply to topics in this forum
You cannot edit your posts in this forum
You cannot delete your posts in this forum
You cannot vote in polls in this forum
You cannot attach files in this forum
You can download files in this forum