Reply to topic
DL-List and Torrent activity [Update пиров]
Size:  782 MB   |    Registered:  4 years 10 months   |    Completed:  0 times
Seeders:  609  [  0 KB/s  ]   Leechers:  13  [  0 KB/s  ]  
 
     
 
 
Author Message

Vi$itReal ®

12

Post 01-Nov-2015 16:15

[Quote]

VA/Mille Papaveri Rossi Le canzoni di Fabrizio De André
Жанр: Folk
Год издания: 1993
Аудиокодек: FLAC (*.flac)
Тип рипа: tracks+.cue
Битрейт аудио: lossless
Продолжительность: CD1 00:70:59 / CD2 00: 71:30
Источник (релизер): internet
Наличие сканов в содержимом раздачи: да
Треклист:
CD 1
1. Judith Malina - Le Nuvole
2. Roberto Bartali - Se Ti Tagliassero a Pezzetti
3. Sniper - Inverno
4. Paolo Capodacqua - Un Malato di Cuore
5. Bonifica Emiliana Veneta - Amico Fragile
6. Andrea Parodi e Bocephus Kink - Suzanne
7. Frontiera - Nella mia Ora di Libertà
8. Stefano Giacobbe - La Ballata dell'eroe
9. Kurkuma - La Guerra di Piero
10. Ensemble Laborintus - Canzone del Maggio
11. Marmaja - Creuza de Ma
12. Gatto Ciliegia Feat S Giaccone - Ho Visto Nina Volare
13. Paolo Capodacqua - Morire per delle Idee
14. The Walkabouts - Disamistade
15. Stefano M Ricatti Ensemble - Il Pescatore
16. Eire Nua - Geordie
17. Franco Fabbri - Hotel Supramonte
18. Lalli - Ave Maria
CD 2
1. Lino Straulino - Verrano a chiederti del nostro amore
2. Compagnia Angeli De Non Dove - Fila la Lana
3. Judas 2 - A Pittima
4. Spoon River Band - Girotondo
5. Giorgio Cordini - La Ballata dell'Eroe
6. Gang - Giovanna D Arco
7. La Rosa Tatuata - Rimini
8. Arbegarbe - Maria Nella Bottega di un Falegname
9. Estorio Drolo - Il Suonatore Jones
10. Alberto Cesa e Cantovivo - Canzone del Maggio
11. Stefano Santangelo - Il Pescatore
12. Mercanti di Liquore - Bocca di Rosa
13. Mideando String Orchestra - Un Giudice
14. Alessio Lega - Canto Del Servo Pastore
15. FLK - Khorakane Prima Parte
16. Alexia Group - Khorakane Seconda Parte
17. Bevano Est - Sidun
18. Segio Pugnalin E Marco Giaccaria - Jamin a
19. Fratelli Di Soledad - Fiume Sand Creek

Лог создания рипа

CD1
Exact Audio Copy V1.1 from 23. June 2015
EAC extraction logfile from 12. October 2015, 14:01
Various Artists / Mille Papaveri Rossi 1 CD
Used drive : HL-DT-STDVDRAM GA50N Adapter: 1 ID: 0
Read mode : SecureUtilize accurate stream : YesDefeat audio cache : YesMake use of C2 pointers : No
Read offset correction : 6Overread into Lead-In and Lead-Out : NoFill up missing offset samples with silence : YesDelete leading and trailing silent blocks : NoNull samples used in CRC calculations : YesUsed interface : Native Win32 interface for Win NT & 2000Gap handling : Left out
Used output format : User Defined EncoderSelected bitrate : 768 kBit/sQuality : HighAdd ID3 tag : NoCommand line compressor : C:\Program Files (x86)\Exact Audio Copy\FLAC\FLAC.EXEAdditional command line options : -6 -V -T "ARTIST=%artist%" -T "TITLE=%title%" -T "ALBUM=%albumtitle%" -T "DATE=%year%" -T "TRACKNUMBER=%tracknr%" -T "GENRE=%genre%" -T "COMMENT=%comment%" -T "BAND=%albuminterpret%" -T "ALBUMARTIST=%albuminterpret%" -T "COMPOSER=%composer%" %haslyrics%--tag-from-file=LYRICS="%lyricsfile%"%haslyrics% -T "DISCNUMBER=%cdnumber%" -T "TOTALDISCS=%totalcds%" -T "TOTALTRACKS=%numtracks%" %hascover%--picture="%coverfile%"%hascover% %source% -o %dest%
TOC of the extracted CD
Track | Start | Length | Start sector | End sector --------------------------------------------------------- 1 | 0:00.00 | 2:11.00 | 0 | 9824 2 | 2:11.00 | 5:07.00 | 9825 | 32849 3 | 7:18.00 | 4:04.00 | 32850 | 51149 4 | 11:22.00 | 4:25.00 | 51150 | 71024 5 | 15:47.00 | 5:48.00 | 71025 | 97124 6 | 21:35.00 | 4:09.00 | 97125 | 115799 7 | 25:44.00 | 2:35.00 | 115800 | 127424 8 | 28:19.00 | 3:55.00 | 127425 | 145049 9 | 32:14.00 | 2:58.00 | 145050 | 158399 10 | 35:12.00 | 5:35.00 | 158400 | 183524 11 | 40:47.00 | 4:50.00 | 183525 | 205274 12 | 45:37.00 | 3:16.00 | 205275 | 219974 13 | 48:53.00 | 3:59.00 | 219975 | 237899 14 | 52:52.00 | 6:39.00 | 237900 | 267824 15 | 59:31.00 | 2:01.00 | 267825 | 276899 16 | 61:32.00 | 2:34.00 | 276900 | 288449 17 | 64:06.00 | 5:17.00 | 288450 | 312224 18 | 69:23.00 | 1:53.00 | 312225 | 320699
Track 1
Filename E:\MY EAC[.FLAC]\Mille papaveri Rossi Le Canzoni di Fabrizio De Andre\CD 1\1 Le Nuvole Judith Malina.flac
Pre-gap length 0:00:02.00
Peak level 98.8 % Extraction speed 1.1 X Track quality 100.0 % Test CRC 96BB6993 Copy CRC 96BB6993 Track not fully ripped for AccurateRip lookup Copy OK
Track 2
Filename E:\MY EAC[.FLAC]\Mille papaveri Rossi Le Canzoni di Fabrizio De Andre\CD 1\2 Creuza de Ma Marmaja.flac
Pre-gap length 0:00:01.00
Peak level 98.8 % Extraction speed 1.4 X Track quality 100.0 % Test CRC 4EE34479 Copy CRC 4EE34479 Track not fully ripped for AccurateRip lookup Copy OK
Track 3
Filename E:\MY EAC[.FLAC]\Mille papaveri Rossi Le Canzoni di Fabrizio De Andre\CD 1\3 Ho Visto Nina Volare Gatto Ciliegia Feat S Giaccone.flac
Pre-gap length 0:00:01.00
Peak level 95.4 % Extraction speed 1.3 X Track quality 99.9 % Test CRC 92392B3D Copy CRC 92392B3D Track not fully ripped for AccurateRip lookup Copy OK
Track 4
Filename E:\MY EAC[.FLAC]\Mille papaveri Rossi Le Canzoni di Fabrizio De Andre\CD 1\4 Morire per delle Idee Paolo Capodacqua.flac
Pre-gap length 0:00:01.00
Peak level 98.6 % Extraction speed 1.6 X Track quality 100.0 % Test CRC 85BF83CA Copy CRC 85BF83CA Track not fully ripped for AccurateRip lookup Copy OK
Track 5
Filename E:\MY EAC[.FLAC]\Mille papaveri Rossi Le Canzoni di Fabrizio De Andre\CD 1\5 Disamistade The Walkabouts.flac
Pre-gap length 0:00:01.00
Peak level 98.8 % Extraction speed 1.8 X Track quality 100.0 % Test CRC C264250C Copy CRC C264250C Track not fully ripped for AccurateRip lookup Copy OK
Track 6
Filename E:\MY EAC[.FLAC]\Mille papaveri Rossi Le Canzoni di Fabrizio De Andre\CD 1\6 Il Pescatore Stefano M Ricatti Ensemble.flac
Pre-gap length 0:00:01.00
Peak level 98.8 % Extraction speed 1.6 X Track quality 99.9 % Test CRC F6904325 Copy CRC F6904325 Track not fully ripped for AccurateRip lookup Copy OK
Track 7
Filename E:\MY EAC[.FLAC]\Mille papaveri Rossi Le Canzoni di Fabrizio De Andre\CD 1\7 Geordie Eire Nua.flac
Pre-gap length 0:00:01.00
Peak level 92.5 % Extraction speed 1.5 X Track quality 99.9 % Test CRC 6A294F05 Copy CRC 6A294F05 Track not fully ripped for AccurateRip lookup Copy OK
Track 8
Filename E:\MY EAC[.FLAC]\Mille papaveri Rossi Le Canzoni di Fabrizio De Andre\CD 1\8 Hotel Supramonte Franco Fabbri.flac
Pre-gap length 0:00:01.00
Peak level 98.8 % Extraction speed 1.9 X Track quality 100.0 % Test CRC 45D53925 Copy CRC 45D53925 Track not fully ripped for AccurateRip lookup Copy OK
Track 9
Filename E:\MY EAC[.FLAC]\Mille papaveri Rossi Le Canzoni di Fabrizio De Andre\CD 1\9 Ave Maria Lalli.flac
Pre-gap length 0:00:01.00
Peak level 98.7 % Extraction speed 1.9 X Track quality 100.0 % Test CRC 73B15F18 Copy CRC 73B15F18 Track not fully ripped for AccurateRip lookup Copy OK
Track 10
Filename E:\MY EAC[.FLAC]\Mille papaveri Rossi Le Canzoni di Fabrizio De Andre\CD 1\10 Se Ti Tagliassero a Pezzetti Roberto Bartali.flac
Pre-gap length 0:00:01.00
Peak level 98.4 % Extraction speed 2.0 X Track quality 99.9 % Test CRC 03501BA2 Copy CRC 03501BA2 Track not fully ripped for AccurateRip lookup Copy OK
Track 11
Filename E:\MY EAC[.FLAC]\Mille papaveri Rossi Le Canzoni di Fabrizio De Andre\CD 1\11 Inverno Sniper.flac
Pre-gap length 0:00:01.00
Peak level 98.5 % Extraction speed 2.3 X Track quality 100.0 % Test CRC 6753425E Copy CRC 6753425E Track not fully ripped for AccurateRip lookup Copy OK
Track 12
Filename E:\MY EAC[.FLAC]\Mille papaveri Rossi Le Canzoni di Fabrizio De Andre\CD 1\12 Un Malato di Cuore Paolo Capodacqua.flac
Pre-gap length 0:00:01.00
Peak level 98.8 % Extraction speed 2.2 X Track quality 100.0 % Test CRC F01B5D4A Copy CRC F01B5D4A Track not fully ripped for AccurateRip lookup Copy OK
Track 13
Filename E:\MY EAC[.FLAC]\Mille papaveri Rossi Le Canzoni di Fabrizio De Andre\CD 1\13 Amico Fragile Bonifica Emiliana Veneta.flac
Pre-gap length 0:00:01.00
Peak level 66.2 % Extraction speed 2.3 X Track quality 100.0 % Test CRC 7DC04EE9 Copy CRC 7DC04EE9 Track not fully ripped for AccurateRip lookup Copy OK
Track 14
Filename E:\MY EAC[.FLAC]\Mille papaveri Rossi Le Canzoni di Fabrizio De Andre\CD 1\14 Suzanne Andrea Parodi e Bocephus Kink.flac
Pre-gap length 0:00:01.00
Peak level 98.2 % Extraction speed 2.5 X Track quality 100.0 % Test CRC 1FE2B794 Copy CRC 1FE2B794 Track not fully ripped for AccurateRip lookup Copy OK
Track 15
Filename E:\MY EAC[.FLAC]\Mille papaveri Rossi Le Canzoni di Fabrizio De Andre\CD 1\15 Nella mia Ora di Libertà Frontiera.flac
Pre-gap length 0:00:01.00
Peak level 74.1 % Extraction speed 2.2 X Track quality 100.0 % Test CRC 9B097AE4 Copy CRC 9B097AE4 Track not fully ripped for AccurateRip lookup Copy OK
Track 16
Filename E:\MY EAC[.FLAC]\Mille papaveri Rossi Le Canzoni di Fabrizio De Andre\CD 1\16 La Ballata dell'eroe Stefano Giacobbe.flac
Pre-gap length 0:00:01.00
Peak level 98.2 % Extraction speed 2.3 X Track quality 100.0 % Test CRC A7CED66A Copy CRC A7CED66A Track not fully ripped for AccurateRip lookup Copy OK
Track 17
Filename E:\MY EAC[.FLAC]\Mille papaveri Rossi Le Canzoni di Fabrizio De Andre\CD 1\17 La Guerra di Piero Kurkuma.flac
Pre-gap length 0:00:01.00
Peak level 98.8 % Extraction speed 2.6 X Track quality 100.0 % Test CRC 8E4427C1 Copy CRC 8E4427C1 Track not fully ripped for AccurateRip lookup Copy OK
Track 18
Filename E:\MY EAC[.FLAC]\Mille papaveri Rossi Le Canzoni di Fabrizio De Andre\CD 1\18 Canzone del Maggio Ensemble Laborintus.flac
Pre-gap length 0:00:01.00
Peak level 98.8 % Extraction speed 2.3 X Track quality 100.0 % Test CRC 0F025CF8 Copy CRC 0F025CF8 Track not present in AccurateRip database Copy OK
1 track(s) not present in the AccurateRip database17 track(s) not fully ripped for AccurateRip lookup
No tracks could be verified as accurate
No errors occurred
End of status report
==== Log checksum 324D1D2D01C8EEDEDD44F59D220BA7FA2BA958F4E820F9DA524315AA28B0E00F ====CD2
Exact Audio Copy V1.1 from 23. June 2015
EAC extraction logfile from 12. October 2015, 15:47
Various Artists / Mille Papaveri Rossi CD 2
Used drive : HL-DT-STDVDRAM GA50N Adapter: 1 ID: 0
Read mode : SecureUtilize accurate stream : YesDefeat audio cache : YesMake use of C2 pointers : No
Read offset correction : 6Overread into Lead-In and Lead-Out : NoFill up missing offset samples with silence : YesDelete leading and trailing silent blocks : NoNull samples used in CRC calculations : YesUsed interface : Native Win32 interface for Win NT & 2000Gap handling : Left out
Used output format : User Defined EncoderSelected bitrate : 768 kBit/sQuality : HighAdd ID3 tag : NoCommand line compressor : C:\Program Files (x86)\Exact Audio Copy\FLAC\FLAC.EXEAdditional command line options : -6 -V -T "ARTIST=%artist%" -T "TITLE=%title%" -T "ALBUM=%albumtitle%" -T "DATE=%year%" -T "TRACKNUMBER=%tracknr%" -T "GENRE=%genre%" -T "COMMENT=%comment%" -T "BAND=%albuminterpret%" -T "ALBUMARTIST=%albuminterpret%" -T "COMPOSER=%composer%" %haslyrics%--tag-from-file=LYRICS="%lyricsfile%"%haslyrics% -T "DISCNUMBER=%cdnumber%" -T "TOTALDISCS=%totalcds%" -T "TOTALTRACKS=%numtracks%" %hascover%--picture="%coverfile%"%hascover% %source% -o %dest%
TOC of the extracted CD
Track | Start | Length | Start sector | End sector --------------------------------------------------------- 1 | 0:00.00 | 4:11.00 | 0 | 18824 2 | 4:11.00 | 3:35.00 | 18825 | 34949 3 | 7:46.00 | 3:42.00 | 34950 | 51599 4 | 11:28.00 | 2:47.00 | 51600 | 64124 5 | 14:15.00 | 3:42.00 | 64125 | 80774 6 | 17:57.00 | 4:07.00 | 80775 | 99299 7 | 22:04.00 | 4:59.00 | 99300 | 121724 8 | 27:03.00 | 2:51.00 | 121725 | 134549 9 | 29:54.00 | 4:31.00 | 134550 | 154874 10 | 34:25.00 | 3:16.00 | 154875 | 169574 11 | 37:41.00 | 3:05.00 | 169575 | 183449 12 | 40:46.00 | 4:09.00 | 183450 | 202124 13 | 44:55.00 | 3:32.00 | 202125 | 218024 14 | 48:27.00 | 5:26.00 | 218025 | 242474 15 | 53:53.00 | 4:21.00 | 242475 | 262049 16 | 58:14.00 | 3:58.00 | 262050 | 279899 17 | 62:12.00 | 3:50.00 | 279900 | 297149 18 | 66:02.00 | 3:27.00 | 297150 | 312674 19 | 69:29.00 | 2:18.00 | 312675 | 323024
Track 1
Filename E:\MY EAC[.FLAC]\Mille papaveri Rossi Le Canzoni di Fabrizio De Andre\CD 2\1 Verrano a chiederti del nostro amore Lino Straulino.flac
Pre-gap length 0:00:02.00
Peak level 98.8 % Extraction speed 1.1 X Track quality 99.9 % Test CRC 5B39C25A Copy CRC 5B39C25A Track not fully ripped for AccurateRip lookup Copy OK
Track 2
Filename E:\MY EAC[.FLAC]\Mille papaveri Rossi Le Canzoni di Fabrizio De Andre\CD 2\2 Bocca di Rosa Mercanti di Liquore.flac
Pre-gap length 0:00:01.00
Peak level 98.0 % Extraction speed 1.3 X Track quality 100.0 % Test CRC 83446C4E Copy CRC 83446C4E Track not fully ripped for AccurateRip lookup Copy OK
Track 3
Filename E:\MY EAC[.FLAC]\Mille papaveri Rossi Le Canzoni di Fabrizio De Andre\CD 2\3 Un Giudice Mideando String Orchestra.flac
Pre-gap length 0:00:01.00
Peak level 98.8 % Extraction speed 1.5 X Track quality 100.0 % Test CRC B55FF103 Copy CRC B55FF103 Track not fully ripped for AccurateRip lookup Copy OK
Track 4
Filename E:\MY EAC[.FLAC]\Mille papaveri Rossi Le Canzoni di Fabrizio De Andre\CD 2\4 Canto Del Servo Pastore Alessio Lega.flac
Pre-gap length 0:00:01.00
Peak level 98.5 % Extraction speed 1.3 X Track quality 99.9 % Test CRC 0348D263 Copy CRC 0348D263 Track not fully ripped for AccurateRip lookup Copy OK
Track 5
Filename E:\MY EAC[.FLAC]\Mille papaveri Rossi Le Canzoni di Fabrizio De Andre\CD 2\5 Khorakane Prima Parte FLK.flac
Pre-gap length 0:00:01.00
Peak level 98.6 % Extraction speed 1.6 X Track quality 100.0 % Test CRC A4E6E2A3 Copy CRC A4E6E2A3 Track not present in AccurateRip database Copy OK
Track 6
Filename E:\MY EAC[.FLAC]\Mille papaveri Rossi Le Canzoni di Fabrizio De Andre\CD 2\6 Khorakane Seconda Parte Alexia Group.flac
Peak level 98.8 % Extraction speed 1.5 X Track quality 99.9 % Test CRC 6250F73A Copy CRC 6250F73A Track not fully ripped for AccurateRip lookup Copy OK
Track 7
Filename E:\MY EAC[.FLAC]\Mille papaveri Rossi Le Canzoni di Fabrizio De Andre\CD 2\7 Sidun Bevano Est.flac
Pre-gap length 0:00:01.00
Peak level 98.3 % Extraction speed 1.9 X Track quality 100.0 % Test CRC 4406FE94 Copy CRC 4406FE94 Track not fully ripped for AccurateRip lookup Copy OK
Track 8
Filename E:\MY EAC[.FLAC]\Mille papaveri Rossi Le Canzoni di Fabrizio De Andre\CD 2\8 Jamin a Segio Pugnalin E Marco Giaccaria.flac
Pre-gap length 0:00:01.00
Peak level 98.8 % Extraction speed 1.5 X Track quality 99.9 % Test CRC 4E65029A Copy CRC 4E65029A Track not fully ripped for AccurateRip lookup Copy OK
Track 9
Filename E:\MY EAC[.FLAC]\Mille papaveri Rossi Le Canzoni di Fabrizio De Andre\CD 2\9 Fiume Sand Creek Fratelli Di Soledad.flac
Pre-gap length 0:00:01.00
Peak level 98.8 % Extraction speed 2.0 X Track quality 100.0 % Test CRC AB5D8DFC Copy CRC AB5D8DFC Track not fully ripped for AccurateRip lookup Copy OK
Track 10
Filename E:\MY EAC[.FLAC]\Mille papaveri Rossi Le Canzoni di Fabrizio De Andre\CD 2\10 Fila la Lana Compagnia Angeli De Non Dove.flac
Pre-gap length 0:00:01.00
Peak level 98.2 % Extraction speed 2.0 X Track quality 100.0 % Test CRC 93D423F8 Copy CRC 93D423F8 Track not fully ripped for AccurateRip lookup Copy OK
Track 11
Filename E:\MY EAC[.FLAC]\Mille papaveri Rossi Le Canzoni di Fabrizio De Andre\CD 2\11 A Pittima Judas 2.flac
Pre-gap length 0:00:01.00
Peak level 68.5 % Extraction speed 2.1 X Track quality 100.0 % Test CRC A9ADBDCC Copy CRC A9ADBDCC Track not fully ripped for AccurateRip lookup Copy OK
Track 12
Filename E:\MY EAC[.FLAC]\Mille papaveri Rossi Le Canzoni di Fabrizio De Andre\CD 2\12 Girotondo Spoon River Band.flac
Pre-gap length 0:00:01.00
Peak level 98.8 % Extraction speed 2.0 X Track quality 99.9 % Test CRC 6FDC0ECA Copy CRC 6FDC0ECA Track not fully ripped for AccurateRip lookup Copy OK
Track 13
Filename E:\MY EAC[.FLAC]\Mille papaveri Rossi Le Canzoni di Fabrizio De Andre\CD 2\13 La Ballata dell'Eroe Giorgio Cordini.flac
Pre-gap length 0:00:01.00
Peak level 98.8 % Extraction speed 2.2 X Track quality 100.0 % Test CRC 5285CA86 Copy CRC 5285CA86 Track not fully ripped for AccurateRip lookup Copy OK
Track 14
Filename E:\MY EAC[.FLAC]\Mille papaveri Rossi Le Canzoni di Fabrizio De Andre\CD 2\14 Giovanna D Arco Gang.flac
Pre-gap length 0:00:01.00
Peak level 81.2 % Extraction speed 2.2 X Track quality 99.9 % Test CRC 941FAB35 Copy CRC 941FAB35 Track not fully ripped for AccurateRip lookup Copy OK
Track 15
Filename E:\MY EAC[.FLAC]\Mille papaveri Rossi Le Canzoni di Fabrizio De Andre\CD 2\15 Rimini La Rosa Tatuata.flac
Pre-gap length 0:00:01.00
Peak level 98.8 % Extraction speed 2.4 X Track quality 100.0 % Test CRC 28B214DE Copy CRC 28B214DE Track not fully ripped for AccurateRip lookup Copy OK
Track 16
Filename E:\MY EAC[.FLAC]\Mille papaveri Rossi Le Canzoni di Fabrizio De Andre\CD 2\16 Maria Nella Bottega di un Falegname Arbegarbe.flac
Pre-gap length 0:00:01.00
Peak level 98.8 % Extraction speed 2.4 X Track quality 100.0 % Test CRC E84006B7 Copy CRC E84006B7 Track not fully ripped for AccurateRip lookup Copy OK
Track 17
Filename E:\MY EAC[.FLAC]\Mille papaveri Rossi Le Canzoni di Fabrizio De Andre\CD 2\17 Il Suonatore Jones Estorio Drolo.flac
Pre-gap length 0:00:01.00
Peak level 98.8 % Extraction speed 2.5 X Track quality 100.0 % Test CRC 05B05DCF Copy CRC 05B05DCF Track not fully ripped for AccurateRip lookup Copy OK
Track 18
Filename E:\MY EAC[.FLAC]\Mille papaveri Rossi Le Canzoni di Fabrizio De Andre\CD 2\18 Canzone del Maggio Alberto Cesa e Cantovivo.flac
Pre-gap length 0:00:01.00
Peak level 67.5 % Extraction speed 2.6 X Track quality 100.0 % Test CRC 70A6056D Copy CRC 70A6056D Track not fully ripped for AccurateRip lookup Copy OK
Track 19
Filename E:\MY EAC[.FLAC]\Mille papaveri Rossi Le Canzoni di Fabrizio De Andre\CD 2\19 Il Pescatore Stefano Santangelo.flac
Pre-gap length 0:00:01.00
Peak level 96.8 % Extraction speed 2.4 X Track quality 100.0 % Test CRC 3EFDF006 Copy CRC 3EFDF006 Track not present in AccurateRip database Copy OK
2 track(s) not present in the AccurateRip database17 track(s) not fully ripped for AccurateRip lookup
No tracks could be verified as accurate
No errors occurred
End of status report
==== Log checksum 4D658A4CFBCD8B58D57E311ECC42FC763D6F2B5E59C4E34DC1A1920C3CCE0029 ====

Содержание индексной карты (.CUE)

CD1 REM GENRE FolkREM DATE 2003REM DISCID 1A10B412REM COMMENT "ExactAudioCopy v1.1"PERFORMER "Various Artists"TITLE "Mille Papaveri Rossi 1 CD"FILE "1 Le Nuvole Judith Malina.wav" WAVE TRACK 01 AUDIO TITLE "Le Nuvole" PERFORMER "Judith Malina" FLAGS DCP INDEX 01 00:00:00 TRACK 02 AUDIO TITLE "Creuza de Ma" PERFORMER "Marmaja" FLAGS DCP INDEX 00 02:10:00FILE "2 Creuza de Ma Marmaja.wav" WAVE INDEX 01 00:00:00 TRACK 03 AUDIO TITLE "Ho Visto Nina Volare" PERFORMER "Gatto Ciliegia Feat S Giaccone" FLAGS DCP INDEX 00 05:06:00FILE "3 Ho Visto Nina Volare Gatto Ciliegia Feat S Giaccone.wav" WAVE INDEX 01 00:00:00 TRACK 04 AUDIO TITLE "Morire per delle Idee" PERFORMER "Paolo Capodacqua" FLAGS DCP INDEX 00 04:03:00FILE "4 Morire per delle Idee Paolo Capodacqua.wav" WAVE INDEX 01 00:00:00 TRACK 05 AUDIO TITLE "Disamistade" PERFORMER "The Walkabouts" FLAGS DCP INDEX 00 04:24:00FILE "5 Disamistade The Walkabouts.wav" WAVE INDEX 01 00:00:00 TRACK 06 AUDIO TITLE "Il Pescatore" PERFORMER "Stefano M Ricatti Ensemble" FLAGS DCP INDEX 00 05:47:00FILE "6 Il Pescatore Stefano M Ricatti Ensemble.wav" WAVE INDEX 01 00:00:00 TRACK 07 AUDIO TITLE "Geordie" PERFORMER "Eire Nua" FLAGS DCP INDEX 00 04:08:00FILE "7 Geordie Eire Nua.wav" WAVE INDEX 01 00:00:00 TRACK 08 AUDIO TITLE "Hotel Supramonte" PERFORMER "Franco Fabbri" FLAGS DCP INDEX 00 02:34:00FILE "8 Hotel Supramonte Franco Fabbri.wav" WAVE INDEX 01 00:00:00 TRACK 09 AUDIO TITLE "Ave Maria" PERFORMER "Lalli" FLAGS DCP INDEX 00 03:54:00FILE "9 Ave Maria Lalli.wav" WAVE INDEX 01 00:00:00 TRACK 10 AUDIO TITLE "Se Ti Tagliassero a Pezzetti" PERFORMER "Roberto Bartali" FLAGS DCP INDEX 00 02:57:00FILE "10 Se Ti Tagliassero a Pezzetti Roberto Bartali.wav" WAVE INDEX 01 00:00:00 TRACK 11 AUDIO TITLE "Inverno" PERFORMER "Sniper" FLAGS DCP INDEX 00 05:34:00FILE "11 Inverno Sniper.wav" WAVE INDEX 01 00:00:00 TRACK 12 AUDIO TITLE "Un Malato di Cuore" PERFORMER "Paolo Capodacqua" FLAGS DCP INDEX 00 04:49:00FILE "12 Un Malato di Cuore Paolo Capodacqua.wav" WAVE INDEX 01 00:00:00 TRACK 13 AUDIO TITLE "Amico Fragile" PERFORMER "Bonifica Emiliana Veneta" FLAGS DCP INDEX 00 03:15:00FILE "13 Amico Fragile Bonifica Emiliana Veneta.wav" WAVE INDEX 01 00:00:00 TRACK 14 AUDIO TITLE "Suzanne" PERFORMER "Andrea Parodi e Bocephus Kink" FLAGS DCP INDEX 00 03:58:00FILE "14 Suzanne Andrea Parodi e Bocephus Kink.wav" WAVE INDEX 01 00:00:00 TRACK 15 AUDIO TITLE "Nella mia Ora di Libertа" PERFORMER "Frontiera" FLAGS DCP INDEX 00 06:38:00FILE "15 Nella mia Ora di Libertа Frontiera.wav" WAVE INDEX 01 00:00:00 TRACK 16 AUDIO TITLE "La Ballata dell'eroe" PERFORMER "Stefano Giacobbe" FLAGS DCP INDEX 00 02:00:00FILE "16 La Ballata dell'eroe Stefano Giacobbe.wav" WAVE INDEX 01 00:00:00 TRACK 17 AUDIO TITLE "La Guerra di Piero" PERFORMER "Kurkuma" FLAGS DCP INDEX 00 02:33:00FILE "17 La Guerra di Piero Kurkuma.wav" WAVE INDEX 01 00:00:00 TRACK 18 AUDIO TITLE "Canzone del Maggio" PERFORMER "Ensemble Laborintus" FLAGS DCP INDEX 00 05:16:00FILE "18 Canzone del Maggio Ensemble Laborintus.wav" WAVE INDEX 01 00:00:00CD2 REM GENRE folkREM DISCID 3510D313REM COMMENT "ExactAudioCopy v1.1"PERFORMER "Various Artists"TITLE "Mille Papaveri Rossi CD 2"FILE "1 Verrano a chiederti del nostro amore Lino Straulino.wav" WAVE TRACK 01 AUDIO TITLE "Verrano a chiederti del nostro amore" PERFORMER "Lino Straulino" FLAGS DCP INDEX 01 00:00:00 TRACK 02 AUDIO TITLE "Bocca di Rosa" PERFORMER "Mercanti di Liquore" FLAGS DCP INDEX 00 04:10:00FILE "2 Bocca di Rosa Mercanti di Liquore.wav" WAVE INDEX 01 00:00:00 TRACK 03 AUDIO TITLE "Un Giudice" PERFORMER "Mideando String Orchestra" FLAGS DCP INDEX 00 03:34:00FILE "3 Un Giudice Mideando String Orchestra.wav" WAVE INDEX 01 00:00:00 TRACK 04 AUDIO TITLE "Canto Del Servo Pastore" PERFORMER "Alessio Lega" FLAGS DCP INDEX 00 03:41:00FILE "4 Canto Del Servo Pastore Alessio Lega.wav" WAVE INDEX 01 00:00:00 TRACK 05 AUDIO TITLE " Khorakane Prima Parte" PERFORMER "FLK" FLAGS DCP INDEX 00 02:46:00FILE "5 Khorakane Prima Parte FLK.wav" WAVE INDEX 01 00:00:00FILE "6 Khorakane Seconda Parte Alexia Group.wav" WAVE TRACK 06 AUDIO TITLE "Khorakane Seconda Parte" PERFORMER "Alexia Group" FLAGS DCP INDEX 01 00:00:00 TRACK 07 AUDIO TITLE "Sidun" PERFORMER "Bevano Est" FLAGS DCP INDEX 00 04:06:00FILE "7 Sidun Bevano Est.wav" WAVE INDEX 01 00:00:00 TRACK 08 AUDIO TITLE "Jamin a" PERFORMER "Segio Pugnalin E Marco Giaccaria" FLAGS DCP INDEX 00 04:58:00FILE "8 Jamin a Segio Pugnalin E Marco Giaccaria.wav" WAVE INDEX 01 00:00:00 TRACK 09 AUDIO TITLE "Fiume Sand Creek" PERFORMER "Fratelli Di Soledad" FLAGS DCP INDEX 00 02:50:00FILE "9 Fiume Sand Creek Fratelli Di Soledad.wav" WAVE INDEX 01 00:00:00 TRACK 10 AUDIO TITLE "Fila la Lana" PERFORMER "Compagnia Angeli De Non Dove" FLAGS DCP INDEX 00 04:30:00FILE "10 Fila la Lana Compagnia Angeli De Non Dove.wav" WAVE INDEX 01 00:00:00 TRACK 11 AUDIO TITLE "A Pittima" PERFORMER "Judas 2" FLAGS DCP INDEX 00 03:15:00FILE "11 A Pittima Judas 2.wav" WAVE INDEX 01 00:00:00 TRACK 12 AUDIO TITLE "Girotondo" PERFORMER "Spoon River Band" FLAGS DCP INDEX 00 03:04:00FILE "12 Girotondo Spoon River Band.wav" WAVE INDEX 01 00:00:00 TRACK 13 AUDIO TITLE "La Ballata dell'Eroe" PERFORMER "Giorgio Cordini" FLAGS DCP INDEX 00 04:08:00FILE "13 La Ballata dell'Eroe Giorgio Cordini.wav" WAVE INDEX 01 00:00:00 TRACK 14 AUDIO TITLE "Giovanna D Arco" PERFORMER "Gang" FLAGS DCP INDEX 00 03:31:00FILE "14 Giovanna D Arco Gang.wav" WAVE INDEX 01 00:00:00 TRACK 15 AUDIO TITLE "Rimini" PERFORMER "La Rosa Tatuata" FLAGS DCP INDEX 00 05:25:00FILE "15 Rimini La Rosa Tatuata.wav" WAVE INDEX 01 00:00:00 TRACK 16 AUDIO TITLE "Maria Nella Bottega di un Falegname" PERFORMER "Arbegarbe" FLAGS DCP INDEX 00 04:20:00FILE "16 Maria Nella Bottega di un Falegname Arbegarbe.wav" WAVE INDEX 01 00:00:00 TRACK 17 AUDIO TITLE "Il Suonatore Jones" PERFORMER "Estorio Drolo" FLAGS DCP INDEX 00 03:57:00FILE "17 Il Suonatore Jones Estorio Drolo.wav" WAVE INDEX 01 00:00:00 TRACK 18 AUDIO TITLE "Canzone del Maggio" PERFORMER "Alberto Cesa e Cantovivo" FLAGS DCP INDEX 00 03:49:00FILE "18 Canzone del Maggio Alberto Cesa e Cantovivo.wav" WAVE INDEX 01 00:00:00 TRACK 19 AUDIO TITLE "Il Pescatore" PERFORMER "Stefano Santangelo" FLAGS DCP INDEX 00 03:26:00FILE "19 Il Pescatore Stefano Santangelo.wav" WAVE INDEX 01 00:00:00
[doutdess.site].t87137.torrent
Torrent: Registered [ 2015-11-01 16:15 ] · D32F0F550CCB1174C66E26E8D9E0F91E8FF955CE

20 KB

Status: checked
Completed: 0 times
Size: 782 MB
(Folk) VA - Mille Papaveri Rossi Le canzoni di Fabrizio De André - 1993, FLAC (tracks+.cue), lossless скачать торрент бесплатно и без регистрации

[Profile] [PM]
Forum Topic Author Size
Country, Bluegrass lossy (Folk) VA - A Tribute To Woody Guthrie - 1989, MP3, 320 kbps Vi$itReal 165 MB
Country, Bluegrass lossy (Folk) VA - American Fiddle Tunes - 2000, MP3, 320 kbps Vi$itReal 94 MB
Этническая музыка Северной и Южной Америки lossy (Folk) VA - Before The Tango - Argentina\'s Folk Tradition 1905 - 1936 - 1998, MP3, 320 kbps RelizMAN 175 MB
Западноевропейский фолк lossy (Folk) VA - Classic Celtic Music From Smithsonian Folkways - 2013, MP3, 320 kbps RelizMAN 140 MB
Западноевропейский фолк lossy (Folk) VA - France: Une Anthologie Des Musiques Traditionnelles - 2009 (10CD), MP3, 320 kbps RelizMAN 1.76 GB
Западноевропейский фолк lossy (Folk) VA - Italian Treasury (The Alan Lomax Collection)(11 CD)(Rounder) - 1999 - 2005 (MP3, 320 kbps) RelizMAN 1.57 GB
Западноевропейский фолк lossy (Folk) VA - Last Thing On My Mind - Holyground - The Works - Volume One - 2000, MP3, 320 kbps RelizMAN 165 MB
Этническая музыка Кавказа и Закавказья lossy и lossless (Folk) VA - Levon Minassian and Friends - The Doudouk - Beyond Borders - 2003, FLAC (image+.cue) lossless Vi$itReal 255 MB
Display posts:    

Current time is: 21-Sep 13:34

All times are UTC + 3



You cannot post new topics in this forum
You cannot reply to topics in this forum
You cannot edit your posts in this forum
You cannot delete your posts in this forum
You cannot vote in polls in this forum
You cannot attach files in this forum
You can download files in this forum