Reply to topic
DL-List and Torrent activity [Update пиров]
Size:  420 MB   |    Registered:  4 years 10 months   |    Completed:  0 times
Seeders:  115  [  0 KB/s  ]   Leechers:  33  [  0 KB/s  ]  
 
     
 
 
Author Message

RelizMAN ®

11

Post 05-Nov-2015 01:25

[Quote]

Udayalur K. Kalyanarama Bhagavathar - Dakshina Bharatha
Жанр: Sampradaya Bhajans
Носитель: CD
Страна-производитель диска (релиза): India
Год издания: 2008
Издатель (лейбл): Amutham Music
Аудиокодек: FLAC (*.flac)
Тип рипа: image+.cue
Битрейт аудио: lossless
Продолжительность: 01:10:29
Источник (релизер): собственный рип
Наличие сканов в содержимом раздачи: да
Треклист:
01. Thodayamangalam
02. Bajare Manasa - Kapi
03. Gurumoorthy - Sankarabaranam
04. Athade - Danyasi

Лог создания рипа

Exact Audio Copy V1.1 from 23. June 2015
Отчёт EAC об извлечении, выполненном 5. ноября 2015, 0:26
Udayalur K. Kalyanarama Bhagavathar / Dakshina Bharatha
Дисковод: MATSHITADVD-RAM UJ8B0 Adapter: 1 ID: 0
Режим чтения : Скоростной
Коррекция смещения при чтении : 0Способность читать области Lead-in и Lead-out : НетЗаполнение пропущенных сэмплов тишиной : ДаУдаление блоков с тишиной в начале и конце : НетПри вычислениях CRC использовались нулевые сэмплы : ДаИнтерфейс : Встроенный Win32-интерфейс для Win NT/2000
Выходной формат : Пользовательский кодировщикВыбранный битрейт : 896 kBit/sКачество : ВысокийДобавление ID3-тега : НетУтилита сжатия : C:\flac.exeДополнительные параметры : -V -8 -T "Date=%year%" -T "Genre=%genre%" %source%
TOC извлечённого CD
Трек | Старт | Длительность | Начальный сектор | Конечный сектор --------------------------------------------------------------------- 1 | 0:00.00 | 27:48.70 | 0 | 125169 2 | 27:48.70 | 13:37.46 | 125170 | 186490 3 | 41:26.41 | 18:59.07 | 186491 | 271922 4 | 60:25.48 | 10:04.07 | 271923 | 317229
Характеристики диапазона извлечения и сообщения об ошибках
Выбранный диапазон
Имя файла C:\Udayalur K. Kalyanarama Bhagavathar - Dakshina Bharatha.wav
Пиковый уровень 99.5 % Скорость извлечения 14.6 X CRC теста 6A2DD748 CRC копии 6A2DD748 Копирование... OK
Ошибок не произошло
Конец отчёта
==== Контрольная сумма отчёта A94F5E4233C834F9F00BA9AA2DAE5251FA625B6295111FE8CBE5732D5DA00A93 ====

Содержание индексной карты (.CUE)

REM GENRE "Sampradaya Bhajans"REM DATE 2008REM DISCID 38108504REM COMMENT "ExactAudioCopy v1.1"PERFORMER "Udayalur K. Kalyanarama Bhagavathar"TITLE "Dakshina Bharatha "FILE "Udayalur K. Kalyanarama Bhagavathar - Dakshina Bharatha.flac" WAVE TRACK 01 AUDIO TITLE "Thodayamangalam" PERFORMER "Udayalur K. Kalyanarama Bhagavathar" FLAGS DCP INDEX 01 00:00:00 TRACK 02 AUDIO TITLE "Bajare Manasa - Kapi" PERFORMER "Udayalur K. Kalyanarama Bhagavathar" FLAGS DCP INDEX 01 27:48:70 TRACK 03 AUDIO TITLE "Gurumoorthy - Sankarabaranam" PERFORMER "Udayalur K. Kalyanarama Bhagavathar" FLAGS DCP INDEX 00 41:25:15 INDEX 01 41:26:41 TRACK 04 AUDIO TITLE "Athade - Danyasi" PERFORMER "Udayalur K. Kalyanarama Bhagavathar" FLAGS DCP INDEX 00 60:23:45 INDEX 01 60:25:48
[doutdess.site].t87802.torrent
Torrent: Registered [ 2015-11-05 01:25 ] · FE5A753C352D8622D7638759EDA5B4F3A5B365E3

17 KB

Status: checked
Completed: 0 times
Size: 420 MB
(Sampradaya Bhajans) Udayalur K. Kalyanarama Bhagavathar - Dakshina Bharatha - 2008, FLAC (image+.cue), lossless скачать торрент бесплатно и без регистрации

[Profile] [PM]
Forum Topic Author Size
Этническая музыка Индии lossless (Sampradaya Bhajans) Swamy Haridhos Giri - Jayadeva\'s Ashtapadi - Geetha Govindham - 2005, FLAC (image+.cue), lossless RelizMAN 615 MB
Этническая музыка Индии lossless (Sampradaya Bhajans, Namasankeerthanam, Tamil) Udayalur K. Kalyanarama Bhagavathar - Sri Rama-Krishna Bhajans - 2008, FLAC (image+.cue), lossless RelizMAN 386 MB
Display posts:    

Current time is: 27-Sep 19:07

All times are UTC + 3



You cannot post new topics in this forum
You cannot reply to topics in this forum
You cannot edit your posts in this forum
You cannot delete your posts in this forum
You cannot vote in polls in this forum
You cannot attach files in this forum
You can download files in this forum