Reply to topic
DL-List and Torrent activity [Update пиров]
Size:  428 MB   |    Registered:  4 years 10 months   |    Completed:  2 times
Seeders:  474  [  0 KB/s  ]   Leechers:  4  [  0 KB/s  ]  
 
     
 
 
Author Message

RelizMAN ®

11

Post 06-Nov-2015 23:55

[Quote]

T.M. Krishna - Isaiyamutham Dhurga
Жанр: Carnatic, Tamil
Носитель: CD
Страна-производитель диска (релиза): India
Год издания: 2004
Издатель (лейбл): Amutham Music
Аудиокодек: FLAC (*.flac)
Тип рипа: image+.cue
Битрейт аудио: lossless
Продолжительность: 01:14:07
Источник (релизер): собственный рип
Наличие сканов в содержимом раздачи: да
Треклист:
1.VARANA MUKHA (Hamsadhwani)
2.MANASARAMATHI (Saramathi)
3.MURUGA (Saveri)
4.THAMASAMA (Kunthalavarali)
5.KANINDHARUL (Kalyani)
6.NAVASITHTHI (Kharaharapriya)
7.KATPOORAM MARUMO (Kamas)
8.THIRUPPUGAZH (Senchurutti)
9.PAGAIVANUKKARULVAI (Ragamalikai)
10.SANTHI NILAVA VENDUM (Thilang)

Лог создания рипа

Exact Audio Copy V1.1 from 23. June 2015
Отчёт EAC об извлечении, выполненном 6. ноября 2015, 22:45
T.M. Krishna / Isaiyamutham Dhurga
Дисковод: MATSHITADVD-RAM UJ8B0 Adapter: 1 ID: 0
Режим чтения : ДостоверностьИспользование точного потока : ДаОтключение кэша аудио : ДаИспользование указателей C2 : Нет
Коррекция смещения при чтении : 0Способность читать области Lead-in и Lead-out : НетЗаполнение пропущенных сэмплов тишиной : ДаУдаление блоков с тишиной в начале и конце : НетПри вычислениях CRC использовались нулевые сэмплы : ДаИнтерфейс : Встроенный Win32-интерфейс для Win NT/2000
Выходной формат : Пользовательский кодировщикВыбранный битрейт : 896 kBit/sКачество : ВысокийДобавление ID3-тега : НетУтилита сжатия : C:\flac.exeДополнительные параметры : -V -8 -T "Date=%year%" -T "Genre=%genre%" %source%
TOC извлечённого CD
Трек | Старт | Длительность | Начальный сектор | Конечный сектор --------------------------------------------------------------------- 1 | 0:00.00 | 6:20.62 | 0 | 28561 2 | 6:20.62 | 4:10.15 | 28562 | 47326 3 | 10:31.02 | 11:18.05 | 47327 | 98181 4 | 21:49.07 | 3:29.40 | 98182 | 113896 5 | 25:18.47 | 24:56.13 | 113897 | 226109 6 | 50:14.60 | 6:18.12 | 226110 | 254471 7 | 56:32.72 | 4:57.33 | 254472 | 276779 8 | 61:30.30 | 3:09.47 | 276780 | 291001 9 | 64:40.02 | 4:06.45 | 291002 | 309496 10 | 68:46.47 | 5:21.18 | 309497 | 333589
Характеристики диапазона извлечения и сообщения об ошибках
Выбранный диапазон
Имя файла C:\T.M. Krishna - Isaiyamutham Dhurga.wav
Пиковый уровень 100.0 % Скорость извлечения 1.3 X Качество диапазона 100.0 % CRC теста A5F4E508 CRC копии A5F4E508 Копирование... OK
Ошибок не произошло
Конец отчёта
==== Контрольная сумма отчёта 5585B0F44084497AC3A23FE1E310E1408CD48B8BBCBC530E10EDA101EBA5F64E ====

Содержание индексной карты (.CUE)

REM DISCID 7E115F0AREM COMMENT "ExactAudioCopy v1.1"PERFORMER "T.M. Krishna"TITLE "Isaiyamutham Dhurga"FILE "T.M. Krishna - Isaiyamutham Dhurga.flac" WAVE TRACK 01 AUDIO TITLE "Track01" PERFORMER "T.M. Krishna" INDEX 01 00:00:00 TRACK 02 AUDIO TITLE "Track02" PERFORMER "T.M. Krishna" INDEX 00 06:20:61 INDEX 01 06:20:62 TRACK 03 AUDIO TITLE "Track03" PERFORMER "T.M. Krishna" INDEX 00 10:29:14 INDEX 01 10:31:02 TRACK 04 AUDIO TITLE "Track04" PERFORMER "T.M. Krishna" INDEX 00 21:46:40 INDEX 01 21:49:07 TRACK 05 AUDIO TITLE "Track05" PERFORMER "T.M. Krishna" INDEX 00 25:17:19 INDEX 01 25:18:47 TRACK 06 AUDIO TITLE "Track06" PERFORMER "T.M. Krishna" INDEX 00 50:12:17 INDEX 01 50:14:60 TRACK 07 AUDIO TITLE "Track07" PERFORMER "T.M. Krishna" INDEX 00 56:30:30 INDEX 01 56:32:72 TRACK 08 AUDIO TITLE "Track08" PERFORMER "T.M. Krishna" INDEX 00 61:27:61 INDEX 01 61:30:30 TRACK 09 AUDIO TITLE "Track09" PERFORMER "T.M. Krishna" INDEX 00 64:37:38 INDEX 01 64:40:02 TRACK 10 AUDIO TITLE "Track10" PERFORMER "T.M. Krishna" INDEX 00 68:44:36 INDEX 01 68:46:47
[doutdess.site].t88148.torrent
Torrent: Registered [ 2015-11-06 23:55 ] · EE6D247F0FD33AC84EA051DFC92434E481EF7CC4

18 KB

Status: checked
Completed: 2 times
Size: 428 MB
(Carnatic, Tamil) T.M. Krishna - Isaiyamutham Dhurga - 2004, FLAC (image+.cue), lossless скачать торрент бесплатно и без регистрации

[Profile] [PM]
Forum Topic Author Size
Этническая музыка Индии lossy (Carnatic, Devotional Sanskrit) M.L. Vasanthakumari - Soundarya Lahari - 2000, MP3, 320 kbps Vi$itReal 167 MB
Этническая музыка Индии lossy (Carnatic, Devotional Sanskrit/Tamil) MS Subbulakshmi - Tirupati Lord Balaji (The Complete Collection) - Vol.1-7 - 2010, MP3, 320 kbps Vi$itReal 668 MB
Этническая музыка Индии lossless (Carnatic, Mandolin, Indian Classical) [WEB] Mandolin U. Shrinivas with D. Shreedhar - Classical Icons - U. Srinivas - 2017, FLAC (tracks), lossless RelizMAN 410 MB
Этническая музыка Индии lossless (Carnatic, Tami, Telugu) Priya Sisters - Nayaki - 2007, FLAC (image+.cue), lossless RelizMAN 336 MB
Этническая музыка Индии lossless (Carnatic, Tamil) Aruna Sairam - Arunambujam (Krithis of Ambujam Krishna) - 2007, FLAC (image+.cue), lossless RelizMAN 797 MB
Этническая музыка Индии lossless (Carnatic, Tamil) Aruna Sairam - Unnai Allal - 2007, FLAC (image+.cue), lossless RelizMAN 659 MB
Этническая музыка Индии lossless (Carnatic, Tamil) M.L. Vasanthakumari - Vasantha Vani - 2004, FLAC (image+.cue), lossless RelizMAN 199 MB
Этническая музыка Индии lossless (Carnatic, Tamil) Nithyasree Mahadevan - Ranjani Mala - 2003, FLAC (image+.cue), lossless RelizMAN 387 MB
Display posts:    

Current time is: 27-Sep 19:13

All times are UTC + 3



You cannot post new topics in this forum
You cannot reply to topics in this forum
You cannot edit your posts in this forum
You cannot delete your posts in this forum
You cannot vote in polls in this forum
You cannot attach files in this forum
You can download files in this forum