Reply to topic
DL-List and Torrent activity [Update пиров]
Size:  6.09 GB   |    Registered:  4 years 10 months   |    Completed:  0 times
Seeders:  343  [  0 KB/s  ]   Leechers:  30  [  0 KB/s  ]  
 
     
 
 
Author Message

Vi$itReal ®

12

Post 03-Nov-2015 18:10

[Quote]


Жанр: Symphonic/Gothic/Power Metal
Год выпуска: 1997-2015
Аудио кодек: FLAC
Тип рипа: image+.cue
Формат записи: 16/44
Формат раздачи: 16/44
Продолжительность: 12:44:37
Источник оцифровки:
Автор обработки: (Большущее спасибо!!!)
Обработка: Устранение клиппинга, восстановление динамического диапазона.-

1997 - Enter [Avalon, MICY-1029]

Продолжительность: 51 мин 26 сек
01. Restless
02. Enter
03. Pearls Of Light
04. Deep Within
05. Gatekeeper
06. Grace
07. Blooded
08. Candles
09. Restless (Classical Version) (Bonus Track)

Спектр, АЧХ, Уровень записи, Динамический диапазон


АЧХ красного цвета - оригинальная АЧХ до обработки
АЧХ зеленого цвета - после обработки-foobar2000 1.3.7 / Замер динамического диапазона (DR) 1.1.1Дата отчёта: 2015-10-22 12:17:52
--------------------------------------------------------------------------------Анализ: Within Temptation / Enter--------------------------------------------------------------------------------
DR Пики RMS Продолжительность трека--------------------------------------------------------------------------------DR11 -0.31 дБ -14.00 дБ 6:08 1-RestlessDR11 -0.30 дБ -12.76 дБ 7:15 2-EnterDR10 -0.30 дБ -13.05 дБ 5:15 3-Pearls Of LightDR10 -0.31 дБ -11.59 дБ 4:30 4-Deep WithinDR10 -0.30 дБ -12.61 дБ 6:43 5-GatekeeperDR10 -0.30 дБ -11.98 дБ 5:10 6-GraceDR10 -0.31 дБ -12.10 дБ 3:38 7-BloodedDR10 -0.30 дБ -12.66 дБ 7:10 8-CandlesDR12 -0.81 дБ -16.64 дБ 5:39 9-Restless (Classical version) (Bonus track)--------------------------------------------------------------------------------
Количество треков: 9Реальные значения DR: DR10
Частота: 44100 ГцКаналов: 2Разрядность: 16Битрейт: 888 кбит/сКодек: FLAC

2000 - Mother Earth [DSFA Records, DSFA 1022]

Продолжительность: 58 мин 38 сек
1.Mother Earth
2.Ice Queen
3.Our Farewell
4.Caged
5.The Promise
6.Never-ending story
7.Deceiver of Fools
8.Intro
9.Dark Wings
10.Perfect Harmony
11.World of Make Believe (bonus)

Спектр, АЧХ, Уровень записи, Динамический диапазон


АЧХ красного цвета - оригинальная АЧХ до обработки
АЧХ зеленого цвета - после обработки-foobar2000 1.3.7 / Замер динамического диапазона (DR) 1.1.1Дата отчёта: 2015-10-09 22:08:32
--------------------------------------------------------------------------------Анализ: Within Temptation / Mother Earth--------------------------------------------------------------------------------
DR Пики RMS Продолжительность трека--------------------------------------------------------------------------------DR10 -0.29 дБ -13.48 дБ 5:29 1-Mother EarthDR10 -2.51 дБ -15.50 дБ 5:21 2-Ice QueenDR11 -4.11 дБ -19.56 дБ 5:19 3-Our FarewellDR10 -0.84 дБ -13.94 дБ 5:47 4-CagedDR10 -2.51 дБ -15.51 дБ 8:00 5-The PromiseDR11 -2.97 дБ -19.36 дБ 4:02 6-Never-Ending StoryDR11 -1.04 дБ -15.04 дБ 7:35 7-Deceiver Of FoolsDR10 -4.77 дБ -17.93 дБ 1:06 8-IntroDR10 -1.22 дБ -14.46 дБ 4:15 9-Dark WingsDR11 -0.77 дБ -17.90 дБ 6:59 10-In Perfect HarmonyDR11 -0.30 дБ -13.84 дБ 4:46 11-World Of Make Believe (Bonus track)--------------------------------------------------------------------------------
Количество треков: 11Реальные значения DR: DR10
Частота: 44100 ГцКаналов: 2Разрядность: 16Битрейт: 815 кбит/сКодек: FLAC

2004 - The Silent Force [GUN Records, RRCY-29107]

Продолжительность: 55 мин 42 сек + 8 мин 14 сек
01. Intro
02. See Who I Am
03. Jillian (I'd Give My Heart)
04. Stand My Ground
05. Pale
06. Forsaken
07. Angels
08. Memories
09. Aquarius
10. It's The Fear
11. Somewhere
12. Destroyed (Bonus Track)
13. Jane Doe (Bonus Track)
14. A Dangerous Mind (Bonus Track)
15. The Swan Song (Bonus Track)

Спектр, АЧХ, Уровень записи, Динамический диапазон


АЧХ красного цвета - оригинальная АЧХ до обработки
АЧХ зеленого цвета - после обработки-foobar2000 1.3.7 / Замер динамического диапазона (DR) 1.1.1Дата отчёта: 2015-10-22 12:31:11
--------------------------------------------------------------------------------Анализ: Within Temptation / The Silent Force--------------------------------------------------------------------------------
DR Пики RMS Продолжительность трека--------------------------------------------------------------------------------DR9 -3.64 дБ -17.13 дБ 1:58 1-IntroDR12 -0.57 дБ -14.70 дБ 4:52 2-See Who I AmDR11 -0.62 дБ -15.93 дБ 4:47 3-Jillian (I'd Give My Heart)DR11 -0.29 дБ -14.21 дБ 4:27 4-Stand My GroundDR12 -1.08 дБ -15.79 дБ 4:28 5-PaleDR11 -0.98 дБ -14.04 дБ 4:52 6-ForsakenDR12 -0.38 дБ -14.88 дБ 3:59 7-AngelsDR10 -1.72 дБ -16.92 дБ 3:51 8-MemoriesDR11 -0.39 дБ -13.78 дБ 4:45 9-AquariusDR12 -0.57 дБ -14.50 дБ 4:06 10-It's The FearDR9 -3.85 дБ -16.78 дБ 4:15 11-SomewhereDR11 -2.44 дБ -15.21 дБ 4:52 12-Destroyed (Bonus track)DR10 -4.48 дБ -17.54 дБ 4:30 13-Jane Doe (Bonus track)DR11 -0.30 дБ -13.76 дБ 4:17 14-A Dangerous Mind (Bonus track)DR9 -0.31 дБ -12.75 дБ 3:58 15-The Swan Song (Bonus track)--------------------------------------------------------------------------------
Количество треков: 15Реальные значения DR: DR11
Частота: 44100 ГцКаналов: 2Разрядность: 16Битрейт: 867 кбит/сКодек: FLAC

2007 - The Heart Of Everything [GUN Records, 88697192862]

Продолжительность: 1 час 13 мин 49 сек
1 The Howling
2 What Have You Done
3 Frozen
4 Our Solemn Hour
5 The Heart Of Everything
6 Hand Of Sorrow
7 The Cross
8 Final Destination
9 All I Need
10 The Truth Beneath The Rose
11 Forgiven
12 What Have You Done - Rock mix (Bonus Track)
13 What Have You Done - Acoustic (Bonus Track)
14 Ice Queen - Acoustic (Bonus Track)
15 Stand My Ground - Acoustic (Bonus Track)

Спектр, АЧХ, Уровень записи, Динамический диапазон


АЧХ красного цвета - оригинальная АЧХ до обработки
АЧХ зеленого цвета - после обработки-foobar2000 1.3.7 / Замер динамического диапазона (DR) 1.1.1Дата отчёта: 2015-10-08 22:58:15
--------------------------------------------------------------------------------Анализ: Within Temptation / The Heart Of Everything--------------------------------------------------------------------------------
DR Пики RMS Продолжительность трека--------------------------------------------------------------------------------DR11 -1.49 дБ -14.57 дБ 5:35 1-The HowlingDR11 -0.30 дБ -12.54 дБ 5:15 2-What Have You Done (Feat. Keith Caputo)DR12 -0.50 дБ -15.02 дБ 4:28 3-FrozenDR12 -0.31 дБ -13.82 дБ 4:19 4-Our Solemn HourDR12 -1.31 дБ -15.65 дБ 5:37 5-The Heart Of EverythingDR11 -0.31 дБ -14.45 дБ 5:37 6-Hand Of SorrowDR11 -1.07 дБ -14.46 дБ 4:53 7-The CrossDR12 -0.31 дБ -14.02 дБ 4:44 8-Final DestinationDR12 -0.31 дБ -15.77 дБ 4:53 9-All I NeedDR12 -0.31 дБ -15.02 дБ 7:05 10-The Truth Beneath The RoseDR12 -4.34 дБ -21.17 дБ 4:55 11-ForgivenDR12 -0.58 дБ -14.37 дБ 3:57 12-What Have You Done (Feat. Keith Caputo) (Rock mix)DR10 -5.49 дБ -17.98 дБ 4:11 13-What Have You Done (Acoustic)DR10 -6.14 дБ -18.22 дБ 4:32 14-Ice Queen (Acoustic)DR10 -6.68 дБ -19.68 дБ 3:49 15-Stand My Ground (Acoustic)--------------------------------------------------------------------------------
Количество треков: 15Реальные значения DR: DR11
Частота: 44100 ГцКаналов: 2Разрядность: 16Битрейт: 838 кбит/сКодек: FLAC

2011 - The Unforgiving [Roadrunner Records, RRCY-29233/4]

Продолжительность: 1 час 2 мин 20 сек + 4 мин 29 сек
1. Why Not Me
2. Shot In The Dark
3. In The Middle Of The Night
4. Faster
5. Fire And Ice
6. Iron
7. Where Is The Edge?
8. Sinead
9. Lost
10. Murder
11. A Demon’s Fate
12. Stairway To The Skies
13. I Don't Wanna (Bonus Track)
14. Empty Eyes (Bonus Track)
15. The Last Dance (Bonus track)

Спектр, АЧХ, Уровень записи, Динамический диапазон


АЧХ красного цвета - оригинальная АЧХ до обработки
АЧХ зеленого цвета - после обработки-foobar2000 1.3.7 / Замер динамического диапазона (DR) 1.1.1Дата отчёта: 2015-10-22 12:51:54
--------------------------------------------------------------------------------Анализ: Within Temptation / The Unforgiving--------------------------------------------------------------------------------
DR Пики RMS Продолжительность трека--------------------------------------------------------------------------------DR10 -6.56 дБ -21.67 дБ 0:34 1-Why Not MeDR12 -0.82 дБ -14.23 дБ 5:02 2-Shot In The DarkDR11 -0.37 дБ -14.02 дБ 5:12 3-In The Middle Of The NightDR11 -0.42 дБ -13.14 дБ 4:24 4-FasterDR11 -1.78 дБ -16.78 дБ 3:58 5-Fire And IceDR12 -0.50 дБ -12.94 дБ 5:41 6-IronDR12 -0.66 дБ -14.30 дБ 3:59 7-Where Is The EdgeDR12 -0.43 дБ -14.38 дБ 4:24 8-SinéadDR12 -1.00 дБ -14.83 дБ 5:14 9-LostDR12 -0.64 дБ -14.10 дБ 4:16 10-MurderDR12 -0.29 дБ -13.57 дБ 5:30 11-A Demon's FateDR10 -3.74 дБ -15.53 дБ 5:32 12-Stairway To The SkiesDR10 -0.86 дБ -12.95 дБ 5:06 13-I Don't Wanna (Bonus track)DR10 -1.71 дБ -13.59 дБ 3:47 14-Empty Eyes (Bonus track)DR11 -0.30 дБ -15.21 дБ 4:29 15-The Last Dance (Bonus track)--------------------------------------------------------------------------------
Количество треков: 15Реальные значения DR: DR11
Частота: 44100 ГцКаналов: 2Разрядность: 16Битрейт: 788 кбит/сКодек: FLAC

2014 - Hydra [Victor, VIZP-121]

Продолжительность: 1 час 34 мин 12 сек
CD1:
1. Let Us Burn
2. Dangerous
3. And We Run
4. Paradise (What About Us?)
5. Edge Of The World
6. Silver Moonlight
7. Covered By Roses
8. Dog Days
9. Tell Me Why
10. Whole World Is Watching
CD2:
1. Radioactive
2. Summertime Sadness
3. Let Her Go
4. Dirty Dancer
5. Grenade
6. The Power Of Love
7. And We Run (Evolution Track)
8. Silver Moonlight (Evolution Track)
9. Covered By Roses (Evolution Track)
10. Tell Me Why (Evolution Track)

Спектр, АЧХ, Уровень записи, Динамический диапазон CD1

123[/URL]
АЧХ красного цвета - оригинальная АЧХ до обработки
АЧХ зеленого цвета - после обработки-foobar2000 1.3.7 / Замер динамического диапазона (DR) 1.1.1Дата отчёта: 2015-10-22 12:58:42
--------------------------------------------------------------------------------Анализ: Within Temptation / Hydra--------------------------------------------------------------------------------
DR Пики RMS Продолжительность трека--------------------------------------------------------------------------------DR11 -0.31 дБ -13.33 дБ 5:31 1-Let Us BurnDR11 -0.91 дБ -13.86 дБ 4:53 2-DangerousDR10 -0.63 дБ -13.71 дБ 3:50 3-And We RunDR12 -0.30 дБ -12.92 дБ 5:20 4-Paradise (What About Us?)DR10 -0.84 дБ -15.43 дБ 4:55 5-Edge Of The WorldDR10 -1.60 дБ -14.00 дБ 5:17 6-Silver MoonlightDR12 -0.31 дБ -13.79 дБ 4:48 7-Covered By RosesDR10 -0.38 дБ -12.94 дБ 4:47 8-Dog DaysDR10 -0.31 дБ -12.76 дБ 6:12 9-Tell Me WhyDR10 -0.84 дБ -13.62 дБ 4:03 10-Whole World Is Watching--------------------------------------------------------------------------------
Количество треков: 10Реальные значения DR: DR11
Частота: 44100 ГцКаналов: 2Разрядность: 16Битрейт: 911 кбит/сКодек: FLAC

Спектр, АЧХ, Уровень записи, Динамический диапазонCD2


АЧХ красного цвета - оригинальная АЧХ до обработки
АЧХ зеленого цвета - после обработки-foobar2000 1.3.7 / Замер динамического диапазона (DR) 1.1.1Дата отчёта: 2015-10-22 12:59:12
--------------------------------------------------------------------------------Анализ: Within Temptation / Hydra--------------------------------------------------------------------------------
DR Пики RMS Продолжительность трека--------------------------------------------------------------------------------DR12 -0.72 дБ -14.82 дБ 3:14 1-Radioactive (Imagine Dragons cover)DR11 -0.92 дБ -14.63 дБ 4:06 2-Summertime Sadness (Lana Del Rey cover)DR8 -6.47 дБ -19.00 дБ 3:44 3-Let Her Go (Passenger cover)DR11 -0.30 дБ -14.29 дБ 4:14 4-Dirty Dancer (Enrique Iglesias cover)DR11 -0.31 дБ -14.48 дБ 3:45 5-Grenade (Bruno Mars cover) (Japan bonus track)DR12 -1.07 дБ -15.42 дБ 4:01 6-The Power Of Love (Frankie Goes To Hollywood cover) (Japan bonus track)DR12 -0.30 дБ -15.97 дБ 5:42 7-And We Run (Evolution track)DR13 -0.30 дБ -16.30 дБ 6:06 8-Silver Moonlight (Evolution track)DR13 -0.31 дБ -15.37 дБ 4:44 9-Covered By Roses (Evolution track)DR10 -0.31 дБ -14.09 дБ 5:00 10-Tell Me Why (Evolution track)--------------------------------------------------------------------------------
Количество треков: 10Реальные значения DR: DR11
Частота: 44100 ГцКаналов: 2Разрядность: 16Битрейт: 873 кбит/сКодек: FLAC

Compilations2013 - The Q-Music Sessions [BMG, 53800829 2]

Продолжительность: 41 мин 55 сек
1. Grenade (Originally by Bruno Mars)
2. Titanium (Originally by David Guetta ft. Sia)
3. Let Her Go (Originally by Passenger)
4. Summertime Sadness (Originally by Lana Del Rey)
5. Radioactive (Originally by Imagine Dragons)
6. Crazy (Oiginally by Gnarls Barkley)
7. Dirty Dancer (Originally by Enrique Iglesias)
8. Don't You Worry Child (Originally by Swedish House Mafia)
9. Behind Blue Eyes (Originally by The Who)
10. The Power of Love (Originally by Frankie Goes To Hollywood)
11. Apologize (Originally by One Republic)

Спектр, АЧХ, Уровень записи, Динамический диапазон


АЧХ красного цвета - оригинальная АЧХ до обработки
АЧХ зеленого цвета - после обработки-foobar2000 1.3.7 / Замер динамического диапазона (DR) 1.1.1Дата отчёта: 2015-10-22 13:03:04
--------------------------------------------------------------------------------Анализ: Within Temptation / The Q-Music Sessions--------------------------------------------------------------------------------
DR Пики RMS Продолжительность трека--------------------------------------------------------------------------------DR11 -0.30 дБ -14.36 дБ 3:45 1-Grenade (Bruno Mars cover)DR11 -0.30 дБ -13.30 дБ 3:57 2-Titanium (David Guetta cover)DR8 -6.21 дБ -18.71 дБ 3:44 3-Let Her Go (Passenger cover)DR11 -0.51 дБ -14.56 дБ 4:07 4-Summertime Sadness (Lana Del Rey cover)DR12 -0.40 дБ -14.71 дБ 3:15 5-Radioactive (Imagine Dragons cover)DR11 -4.57 дБ -19.64 дБ 3:32 6-Crazy (Gnarls Barkley cover)DR11 -0.31 дБ -14.19 дБ 4:15 7-Dirty Dancer (Enrique Iglesias cover)DR11 -0.30 дБ -14.48 дБ 3:37 8-Don't You Worry Child (Swedish House Mafia cover)DR11 -1.57 дБ -17.16 дБ 4:20 9-Behind Blue Eyes (The Who cover)DR11 -0.56 дБ -15.25 дБ 4:00 10-The Power Of Love (Frankie Goes To Hollywood cover)DR10 -4.51 дБ -17.56 дБ 3:26 11-Apologize (OneRepublic cover)--------------------------------------------------------------------------------
Количество треков: 11Реальные значения DR: DR11
Частота: 44100 ГцКаналов: 2Разрядность: 16Битрейт: 852 кбит/сКодек: FLAC

Singles & EP1998 - The Dance [DSFA Records, DSFA 1015]

Продолжительность: 28 мин 14 сек
1. The Dance
2. Another Day
3. The Other Half (Of Me)
4. Remix Restless
5. Remix Candles & Pearls Of Light

Спектр, АЧХ, Уровень записи, Динамический диапазон


АЧХ красного цвета - оригинальная АЧХ до обработки
АЧХ зеленого цвета - после обработки-foobar2000 1.3.7 / Замер динамического диапазона (DR) 1.1.1Дата отчёта: 2015-10-22 16:52:27
--------------------------------------------------------------------------------Анализ: Within Temptation / The Dance--------------------------------------------------------------------------------
DR Пики RMS Продолжительность трека--------------------------------------------------------------------------------DR10 -0.30 дБ -12.11 дБ 5:02 1-The DanceDR11 -0.41 дБ -13.87 дБ 5:47 2-Another DayDR11 -0.31 дБ -12.93 дБ 4:51 3-The Other Half (Of Me)DR11 -0.30 дБ -14.38 дБ 3:31 4-Remix RestlessDR10 -0.30 дБ -14.25 дБ 9:02 5-Remix Candles & Pearls of Light--------------------------------------------------------------------------------
Количество треков: 5Реальные значения DR: DR10
Частота: 44100 ГцКаналов: 2Разрядность: 16Битрейт: 903 кбит/сКодек: FLAC

2002 - Mother Earth [DSFA Records, DSFA 1028]

Продолжительность: 7 мин 24 сек
1. Mother earth (Radio version)
2. Bittersweet (None album track)

Спектр, АЧХ, Уровень записи, Динамический диапазон


АЧХ красного цвета - оригинальная АЧХ до обработки
АЧХ зеленого цвета - после обработки-foobar2000 1.3.7 / Замер динамического диапазона (DR) 1.1.1Дата отчёта: 2015-10-22 16:53:06
--------------------------------------------------------------------------------Анализ: Within Temptation / Mother Earth (single)--------------------------------------------------------------------------------
DR Пики RMS Продолжительность трека--------------------------------------------------------------------------------DR10 -0.28 дБ -13.38 дБ 4:03 1-Mother Earth (Radio version)DR11 -4.64 дБ -20.03 дБ 3:21 2-Bittersweet (None album track)--------------------------------------------------------------------------------
Количество треков: 2Реальные значения DR: DR11
Частота: 44100 ГцКаналов: 2Разрядность: 16Битрейт: 788 кбит/сКодек: FLAC

2003 - Running Up That Hill [Supersonic Records, SUPERSONIC 152]

Продолжительность: 15 мин 47 сек
1. Running Up That Hill
2. Running Up That Hill (Live At The Edisons, Amsterdam)
3. Deceiver Of Fools (Live At Lowlands 2002)

Спектр, АЧХ, Уровень записи, Динамический диапазон


АЧХ красного цвета - оригинальная АЧХ до обработки
АЧХ зеленого цвета - после обработки-foobar2000 1.3.7 / Замер динамического диапазона (DR) 1.1.1Дата отчёта: 2015-10-22 16:53:33
--------------------------------------------------------------------------------Анализ: Within Temptation / Running Up That Hill--------------------------------------------------------------------------------
DR Пики RMS Продолжительность трека--------------------------------------------------------------------------------DR10 -0.30 дБ -12.03 дБ 4:01 1-Running Up That HillDR12 -1.18 дБ -14.52 дБ 4:05 2-Running Up That Hill (Live At The Edisons Amsterdam)DR12 -0.31 дБ -14.61 дБ 7:40 3-Deceiver Of Fools (Live At Lowlands 2002)--------------------------------------------------------------------------------
Количество треков: 3Реальные значения DR: DR11
Частота: 44100 ГцКаналов: 2Разрядность: 16Битрейт: 911 кбит/сКодек: FLAC

2004 - Stand My Ground [Supersonic Records, SUSO 173]

Продолжительность: 19 мин 19 сек
1. Stand My Ground
2. Overcome
3. It's The Fear
4. Towards The End (Bonus Track)
5. The Swan Song (Bonus Track)

Спектр, АЧХ, Уровень записи, Динамический диапазон


АЧХ красного цвета - оригинальная АЧХ до обработки
АЧХ зеленого цвета - после обработки-foobar2000 1.3.7 / Замер динамического диапазона (DR) 1.1.1Дата отчёта: 2015-10-22 16:54:19
--------------------------------------------------------------------------------Анализ: Within Temptation / Stand My Ground--------------------------------------------------------------------------------
DR Пики RMS Продолжительность трека--------------------------------------------------------------------------------DR11 -0.33 дБ -14.21 дБ 3:59 1-Stand My GroundDR11 -0.31 дБ -15.28 дБ 4:04 2-OvercomeDR11 -0.31 дБ -13.58 дБ 4:09 3-It's The FearDR11 -1.26 дБ -16.79 дБ 3:27 4-Towards The EndDR10 -5.58 дБ -17.39 дБ 3:41 5-The Swan Song--------------------------------------------------------------------------------
Количество треков: 5Реальные значения DR: DR11
Частота: 44100 ГцКаналов: 2Разрядность: 16Битрейт: 829 кбит/сКодек: FLAC

2005 - Angels [GUN Records, GUN 220]

Продолжительность: 25 мин 13 сек
1. Angels (Full Length Version)
2. Say My Name (Unreleased Bonustrack)
3. Forsaken (Live in 013, Tilburg)
4. The Promise (Live in 013, Tilburg)
5. Angels (Live in 013, Tilburg)

Спектр, АЧХ, Уровень записи, Динамический диапазон


АЧХ красного цвета - оригинальная АЧХ до обработки
АЧХ зеленого цвета - после обработки-foobar2000 1.3.7 / Замер динамического диапазона (DR) 1.1.1Дата отчёта: 2015-10-22 16:54:48
--------------------------------------------------------------------------------Анализ: Within Temptation / Angels--------------------------------------------------------------------------------
DR Пики RMS Продолжительность трека--------------------------------------------------------------------------------DR11 -0.31 дБ -14.26 дБ 4:02 1-Angels (Album version)DR11 -0.31 дБ -14.32 дБ 4:07 2-Say My Name (Previously unreleased)DR9 -1.02 дБ -12.16 дБ 4:58 3-Forsaken (Live)DR9 -1.01 дБ -12.09 дБ 8:02 4-The Promise (Live)DR9 -0.31 дБ -13.20 дБ 4:07 5-Angels (Live)--------------------------------------------------------------------------------
Количество треков: 5Реальные значения DR: DR10
Частота: 44100 ГцКаналов: 2Разрядность: 16Битрейт: 908 кбит/сКодек: FLAC

2007 - Frozen [GUN Records, 88697109322]

Продолжительность: 21 мин 41 сек
1. Frozen (Single Version)
2. The Howling (Single Version)
3. Sounds Of Freedom (Previously unreleased)
4. What Have You Done (Acoustic)
5. The Cross (Acoustic)

Спектр, АЧХ, Уровень записи, Динамический диапазон


АЧХ красного цвета - оригинальная АЧХ до обработки
АЧХ зеленого цвета - после обработки-foobar2000 1.3.7 / Замер динамического диапазона (DR) 1.1.1Дата отчёта: 2015-10-22 16:55:24
--------------------------------------------------------------------------------Анализ: Within Temptation / Frozen--------------------------------------------------------------------------------
DR Пики RMS Продолжительность трека--------------------------------------------------------------------------------DR11 -0.31 дБ -13.38 дБ 4:01 1-Frozen (Single vesion)DR12 -0.31 дБ -13.69 дБ 3:40 2-The Howling (Single version)DR10 -0.54 дБ -14.32 дБ 4:58 3-Sounds Of Freedom (Previousley unreleased, Spellborn)DR11 -0.69 дБ -15.77 дБ 4:02 4-What Have You Done (Acoustic, 3FM)DR11 -0.31 дБ -14.10 дБ 4:59 5-The Cross (Acoustic, 3FM)--------------------------------------------------------------------------------
Количество треков: 5Реальные значения DR: DR11
Частота: 44100 ГцКаналов: 2Разрядность: 16Битрейт: 903 кбит/сКодек: FLAC

2007 - What Have You Done [GUN Records, 88697060022]

Продолжительность: 25 мин 19 сек
1. What Have You Done (single version)
2. What Have You Done (album version)
3. Blue Eyes
4. Aquarius (live at Java Island)
5. Caged (live at Java Island)

Спектр, АЧХ, Уровень записи, Динамический диапазон


АЧХ красного цвета - оригинальная АЧХ до обработки
АЧХ зеленого цвета - после обработки-foobar2000 1.3.7 / Замер динамического диапазона (DR) 1.1.1Дата отчёта: 2015-10-22 16:55:49
--------------------------------------------------------------------------------Анализ: Within Temptation / What Have You Done--------------------------------------------------------------------------------
DR Пики RMS Продолжительность трека--------------------------------------------------------------------------------DR12 -0.29 дБ -14.84 дБ 4:01 1-What Have You Done (feat. Keith Caputo, single version)DR11 -0.31 дБ -13.16 дБ 5:15 2-What Have You Done (feat. Keith Caputo, album version)DR12 -2.00 дБ -16.35 дБ 5:26 3-Blue Eyes (Bonus track)DR12 -1.08 дБ -15.87 дБ 4:52 4-Aquarius (Live at the Java Island, Amsterdam)DR10 -0.79 дБ -15.15 дБ 5:48 5-Caged (Live at the Java Island, Amsterdam)--------------------------------------------------------------------------------
Количество треков: 5Реальные значения DR: DR12
Частота: 44100 ГцКаналов: 2Разрядность: 16Битрейт: 876 кбит/сКодек: FLAC

2009 - Utopia [Dragnet Records, 88697590002]

Продолжительность: 9 мин 52 сек
1. Utopia (feat. Chris Jones)
2. Restless (Live Beursgebouw 2007)

Спектр, АЧХ, Уровень записи, Динамический диапазон


АЧХ красного цвета - оригинальная АЧХ до обработки
АЧХ зеленого цвета - после обработки-foobar2000 1.3.7 / Замер динамического диапазона (DR) 1.1.1Дата отчёта: 2015-10-22 16:56:36
--------------------------------------------------------------------------------Анализ: Within Temptation / Utopia--------------------------------------------------------------------------------
DR Пики RMS Продолжительность трека--------------------------------------------------------------------------------DR11 -1.23 дБ -14.86 дБ 3:53 1-Utopia (feat. Chris Jones)DR10 -0.30 дБ -12.98 дБ 6:00 2-Restless (Live, Beursgebouw 2007)--------------------------------------------------------------------------------
Количество треков: 2Реальные значения DR: DR10
Частота: 44100 ГцКаналов: 2Разрядность: 16Битрейт: 899 кбит/сКодек: FLAC

Live2008 - Black Symphony [GUN Records, 88697342699]

Продолжительность: 2 часа 2 мин 0 сек
CD1
1. Ouverture
2. Jillian (I'd Give My Heart)
3. The Howling
4. Stand My Ground
5. The Cross
6. What Have You Done (Featuring Keith Caputo)
7. Hand Of Sorrow
8. The Heart Of Everything
9. Forgiven
10. Somewhere (Featuring Anneke Van Giersbergen)
11. The Swan Song
12. Memories
CD2
1. Our Solemn Hour
2. The Other Half (Of Me) (Featuring George Oosthoek)
3. Frozen
4. The Promise
5. Angels
6. Mother Earth
7. The Thruth Beneath The Rose
8. Deceiver Of Fools
9. All I Need
10. Ice Queen

Спектр, АЧХ, Уровень записи, Динамический диапазон CD1


АЧХ красного цвета - оригинальная АЧХ до обработки
АЧХ зеленого цвета - после обработки-foobar2000 1.3.7 / Замер динамического диапазона (DR) 1.1.1Дата отчёта: 2015-10-22 14:48:38
--------------------------------------------------------------------------------Анализ: Within Temptation / Black Symphony--------------------------------------------------------------------------------
DR Пики RMS Продолжительность трека--------------------------------------------------------------------------------DR11 -0.31 дБ -16.03 дБ 7:44 1-OuvertureDR10 -0.31 дБ -13.42 дБ 4:39 2-Jillian (I'd Give My Heart)DR11 -0.31 дБ -13.34 дБ 6:31 3-The HowlingDR11 -0.31 дБ -14.28 дБ 4:33 4-Stand My GroundDR11 -0.30 дБ -13.10 дБ 4:58 5-The CrossDR10 -0.54 дБ -13.10 дБ 5:22 6-What Have You DoneDR11 -0.31 дБ -12.94 дБ 5:40 7-Hand Of SorrowDR10 -0.97 дБ -13.04 дБ 5:48 8-The Heart Of EverythingDR11 -6.03 дБ -20.59 дБ 4:53 9-ForgivenDR11 -1.06 дБ -16.76 дБ 4:24 10-SomewhereDR11 -2.71 дБ -16.71 дБ 4:00 11-The Swan SongDR11 -1.11 дБ -16.24 дБ 4:03 12-Memories--------------------------------------------------------------------------------
Количество треков: 12Реальные значения DR: DR11
Частота: 44100 ГцКаналов: 2Разрядность: 16Битрейт: 917 кбит/сКодек: FLAC

Спектр, АЧХ, Уровень записи, Динамический диапазон CD2


АЧХ красного цвета - оригинальная АЧХ до обработки
АЧХ зеленого цвета - после обработки-foobar2000 1.3.7 / Замер динамического диапазона (DR) 1.1.1Дата отчёта: 2015-10-22 15:36:26
--------------------------------------------------------------------------------Анализ: Within Temptation / Black Symphony--------------------------------------------------------------------------------
DR Пики RMS Продолжительность трека--------------------------------------------------------------------------------DR11 -0.22 дБ -12.87 дБ 5:22 1-Our Solemn HourDR11 -0.18 дБ -12.39 дБ 5:04 2-The Other Half (Of Me)DR11 -0.24 дБ -13.10 дБ 4:32 3-FrozenDR10 -0.18 дБ -13.81 дБ 8:15 4-The PromiseDR11 -0.18 дБ -13.47 дБ 4:02 5-AngelsDR11 -0.24 дБ -13.31 дБ 6:00 6-Mother EarthDR11 -0.61 дБ -13.03 дБ 7:23 7-The Truth Beneath The RoseDR11 -0.95 дБ -14.75 дБ 7:38 8-Deceiver Of FoolsDR10 -1.21 дБ -13.57 дБ 4:55 9-All I NeedDR11 -0.47 дБ -13.77 дБ 7:15 10-Ice Queen--------------------------------------------------------------------------------
Количество треков: 10Реальные значения DR: DR11
Частота: 44100 ГцКаналов: 2Разрядность: 16Битрейт: 935 кбит/сКодек: FLAC

2009 - An Acoustic Night At The Theatre [Roadrunner Records, RR 7813-2]

Продолжительность: 54 мин 00 сек
1. Towards The End
2. Stand My Ground
3. Caged
4. All I Need
5. Frozen
6. Somewhere (Feat. Anneke van Giersbergen)
7. The Cross
8. Pale
9. What Have You Done (Feat. Keith Caputo)
10. Memories
11. Forgiven
12. Utopia (Feat. Chris Jones)

Спектр, АЧХ, Уровень записи, Динамический диапазон


АЧХ красного цвета - оригинальная АЧХ до обработки
АЧХ зеленого цвета - после обработки-foobar2000 1.3.7 / Замер динамического диапазона (DR) 1.1.1Дата отчёта: 2015-10-22 13:52:52
--------------------------------------------------------------------------------Анализ: Within Temptation / An Acoustic Night At The Theatre--------------------------------------------------------------------------------
DR Пики RMS Продолжительность трека--------------------------------------------------------------------------------DR10 -0.31 дБ -14.67 дБ 3:29 1-Towards The EndDR11 -0.30 дБ -13.47 дБ 3:54 2-Stand My GroundDR11 -0.30 дБ -12.78 дБ 5:19 3-CagedDR11 -0.30 дБ -13.40 дБ 5:21 4-All I NeedDR11 -0.31 дБ -14.39 дБ 4:32 5-FrozenDR10 -0.77 дБ -13.79 дБ 4:20 6-Somewhere (feat. Anneke Van Giersbergen)DR12 -0.79 дБ -14.77 дБ 4:57 7-The CrossDR10 -1.24 дБ -15.49 дБ 5:08 8-PaleDR11 -0.31 дБ -13.47 дБ 4:34 9-What Have You Done (feat. Keiyh Caputo)DR10 -0.96 дБ -14.53 дБ 4:00 10-MemoriesDR11 -3.08 дБ -17.90 дБ 4:48 11-ForgivenDR10 -0.31 дБ -14.17 дБ 3:50 12-Utopia (feat. Chris Jones)--------------------------------------------------------------------------------
Количество треков: 12Реальные значения DR: DR11
Частота: 44100 ГцКаналов: 2Разрядность: 16Битрейт: 840 кбит/сКодек: FLAC

2014 - Let Us Burn - Elements & Hydra Live in Concert [Within Temptation Recordings BV, VICP-65270-1]

Продолжительность: 1 час 19 мин 19 сек + 1 час 17 мин 30 сек
CD1
1. Iron
2. In The Middle Of The Night
3. Faster
4. Fire And Ice
5. Our Solemn Hour
6. Stand My Ground
7. Angels
8. Sanctuary
9. The Last Dance
10. Say My Name
11. Candles
12. Sinead
13. The Promise
14. Mother Earth
15. Ice Queen
16. Stairway To The Skies
CD2
1. Let Us Burn
2. Paradise (What About Us?)
3. Faster
4. Iron
5. Edge Of The World
6. In The Middle Of The Night
7. Dangerous
8. And We Run
9. Stand My Ground
10. Covered By Roses
11. Mother Earth
12. What Have You Done
13. Silver Moonlight
14. Whole World Is Watching
15. Sinead
16. Ice Queen

Спектр, АЧХ, Уровень записи, Динамический диапазон CD1


АЧХ красного цвета - оригинальная АЧХ до обработки
АЧХ зеленого цвета - после обработки-foobar2000 1.3.7 / Замер динамического диапазона (DR) 1.1.1Дата отчёта: 2015-10-22 14:48:38
--------------------------------------------------------------------------------Анализ: Within Temptation / Black Symphony--------------------------------------------------------------------------------
DR Пики RMS Продолжительность трека--------------------------------------------------------------------------------DR11 -0.31 дБ -16.03 дБ 7:44 1-OuvertureDR10 -0.31 дБ -13.42 дБ 4:39 2-Jillian (I'd Give My Heart)DR11 -0.31 дБ -13.34 дБ 6:31 3-The HowlingDR11 -0.31 дБ -14.28 дБ 4:33 4-Stand My GroundDR11 -0.30 дБ -13.10 дБ 4:58 5-The CrossDR10 -0.54 дБ -13.10 дБ 5:22 6-What Have You DoneDR11 -0.31 дБ -12.94 дБ 5:40 7-Hand Of SorrowDR10 -0.97 дБ -13.04 дБ 5:48 8-The Heart Of EverythingDR11 -6.03 дБ -20.59 дБ 4:53 9-ForgivenDR11 -1.06 дБ -16.76 дБ 4:24 10-SomewhereDR11 -2.71 дБ -16.71 дБ 4:00 11-The Swan SongDR11 -1.11 дБ -16.24 дБ 4:03 12-Memories--------------------------------------------------------------------------------
Количество треков: 12Реальные значения DR: DR11
Частота: 44100 ГцКаналов: 2Разрядность: 16Битрейт: 917 кбит/сКодек: FLAC

Спектр, АЧХ, Уровень записи, Динамический диапазон CD2


АЧХ красного цвета - оригинальная АЧХ до обработки
АЧХ зеленого цвета - после обработки-foobar2000 1.3.7 / Замер динамического диапазона (DR) 1.1.1Дата отчёта: 2015-10-22 15:36:26
--------------------------------------------------------------------------------Анализ: Within Temptation / Black Symphony--------------------------------------------------------------------------------
DR Пики RMS Продолжительность трека--------------------------------------------------------------------------------DR11 -0.22 дБ -12.87 дБ 5:22 1-Our Solemn HourDR11 -0.18 дБ -12.39 дБ 5:04 2-The Other Half (Of Me)DR11 -0.24 дБ -13.10 дБ 4:32 3-FrozenDR10 -0.18 дБ -13.81 дБ 8:15 4-The PromiseDR11 -0.18 дБ -13.47 дБ 4:02 5-AngelsDR11 -0.24 дБ -13.31 дБ 6:00 6-Mother EarthDR11 -0.61 дБ -13.03 дБ 7:23 7-The Truth Beneath The RoseDR11 -0.95 дБ -14.75 дБ 7:38 8-Deceiver Of FoolsDR10 -1.21 дБ -13.57 дБ 4:55 9-All I NeedDR11 -0.47 дБ -13.77 дБ 7:15 10-Ice Queen--------------------------------------------------------------------------------
Количество треков: 10Реальные значения DR: DR11
Частота: 44100 ГцКаналов: 2Разрядность: 16Битрейт: 935 кбит/сКодек: FLAC

-

Доп. информация

Обработка проводилась в Adobe Audition с плагинами Perfect Declipper и Fabfilter Pro-MB.
Мониторинг проводился на следующих устройствах:
Стационарная аппаратура: NAD D 1050 + Beyerdynamic DT 990 Pro и Rotel RA-10 + Jamo C603
Мобильная аппаратура: Meizu MX2 + Sennheiser CX 980

Примечание

Деклиппинг и экспандирование - не панацея от некачественной записи. Целью обработки является меньшая усталость при прослушивании, и звучание, приближенное к тому, которое задумывалось звукорежиссером, до вмешательства маркетологов.
Материалы по теме "Война громкости": 1 и 2
Другие раздачи в рамках проекта "Stop the loudness war" можно найти-22.10.2015: Раздача полностью переделана.
[doutdess.site].t87518.torrent
Torrent: Registered [ 2015-11-03 18:10 ] · 15B7B34F70EC1E2361210F8C02D615F9125D6801

84 KB

Status: checked
Completed: 0 times
Size: 6.09 GB
[Обновлено] (Symphonic/Gothic/Power Metal) [RM][16/44] Within Temptation - Discography - (declipped) 1997-2015, FLAC (image+.cue) скачать торрент бесплатно и без регистрации

[Profile] [PM]
Display posts:    

Current time is: 23-Sep 21:36

All times are UTC + 3



You cannot post new topics in this forum
You cannot reply to topics in this forum
You cannot edit your posts in this forum
You cannot delete your posts in this forum
You cannot vote in polls in this forum
You cannot attach files in this forum
You can download files in this forum