Reply to topic
DL-List and Torrent activity [Update пиров]
Size:  293 MB   |    Registered:  4 years 10 months   |    Completed:  0 times
Seeders:  559  [  0 KB/s  ]   Leechers:  14  [  0 KB/s  ]  
 
     
 
 
Author Message

RelizMAN ®

11

Post 09-Nov-2015 11:25

[Quote]

Sudha Raghunathan - Sri Arvindha Annai
Жанр: Aurobindo Mother Tamil songs
Носитель: CD
Страна-производитель диска (релиза): India
Год издания: 2004
Издатель (лейбл): Amutham Music
Аудиокодек: FLAC (*.flac)
Тип рипа: image+.cue
Битрейт аудио: lossless
Продолжительность: 00:50:08
Источник (релизер): собственный рип
Наличие сканов в содержимом раздачи: да
Рип "неправильный". Кому нужны только "правильные" рипы, не качайте.
Треклист:
1.AANANDA MAYEE
2.JANANI, JANANI
3.UNAIYANDRI
4.ALAIMAGAL KALAIMAGAL
5.ARAVINDAR GEETHAI
6.JAYA JAYA SAKTHI
7.ANNAIYIN ATPUTHA CHINNAM
8.SRI ARAVINDAR ANNAI AARAATHANAI

Лог создания рипа

Exact Audio Copy V1.1 from 23. June 2015
EAC extraction logfile from 8. November 2015, 1:50
Sudha Ragunathan / Sri Arvindha Annai
Used drive : MATSHITADVD-RAM UJ8B0 Adapter: 1 ID: 0
Read mode : Burst
Read offset correction : 0Overread into Lead-In and Lead-Out : NoFill up missing offset samples with silence : YesDelete leading and trailing silent blocks : NoNull samples used in CRC calculations : YesUsed interface : Native Win32 interface for Win NT & 2000
Used output format : User Defined EncoderSelected bitrate : 128 kBit/sQuality : HighAdd ID3 tag : YesCommand line compressor : C:\flac.exeAdditional command line options : -V -8 -T "Date=%year%" -T "Genre=%genre%" %source%
TOC of the extracted CD
Track | Start | Length | Start sector | End sector --------------------------------------------------------- 1 | 0:00.00 | 7:36.54 | 0 | 34253 2 | 7:36.54 | 5:37.07 | 34254 | 59535 3 | 13:13.61 | 6:30.43 | 59536 | 88828 4 | 19:44.29 | 5:06.04 | 88829 | 111782 5 | 24:50.33 | 6:08.04 | 111783 | 139386 6 | 30:58.37 | 7:29.41 | 139387 | 173102 7 | 38:28.03 | 6:58.25 | 173103 | 204477 8 | 45:26.28 | 4:42.19 | 204478 | 225646
Range status and errors
Selected range
Filename C:\Sudha Ragunathan - Sri Arvindha Annai.wav
Peak level 100.0 % Extraction speed 6.4 X Test CRC E424E5F6 Copy CRC E424E5F6 Copy OK
No errors occurred
End of status report
==== Log checksum B7E5580DDC2DC89329DE2B512DF4C6FCC84CED8BC155248D0ADA6DB42F8E2BBA ====

Содержание индексной карты (.CUE)

REM DISCID 700BC008REM COMMENT "ExactAudioCopy v1.1"PERFORMER "Sudha Ragunathan"TITLE "Sri Arvindha Annai"FILE "Sudha Ragunathan - Sri Arvindha Annai.flac" WAVE TRACK 01 AUDIO TITLE "Трек01" PERFORMER "Sudha Ragunathan" INDEX 01 00:00:00 TRACK 02 AUDIO TITLE "Трек02" PERFORMER "Sudha Ragunathan" INDEX 01 07:36:54 TRACK 03 AUDIO TITLE "Трек03" PERFORMER "Sudha Ragunathan" INDEX 00 13:11:18 INDEX 01 13:13:61 TRACK 04 AUDIO TITLE "Трек04" PERFORMER "Sudha Ragunathan" INDEX 00 19:41:63 INDEX 01 19:44:29 TRACK 05 AUDIO TITLE "Трек05" PERFORMER "Sudha Ragunathan" INDEX 00 24:47:65 INDEX 01 24:50:33 TRACK 06 AUDIO TITLE "Трек06" PERFORMER "Sudha Ragunathan" INDEX 00 30:55:69 INDEX 01 30:58:37 TRACK 07 AUDIO TITLE "Трек07" PERFORMER "Sudha Ragunathan" INDEX 00 38:26:24 INDEX 01 38:28:03 TRACK 08 AUDIO TITLE "Трек08" PERFORMER "Sudha Ragunathan" INDEX 00 45:24:73 INDEX 01 45:26:28
[doutdess.site].t88562.torrent
Torrent: Registered [ 2015-11-09 11:25 ] · FEB3C5A54BF08AA092C583D3E795725B0F7829C6

12 KB

Status: checked
Completed: 0 times
Size: 293 MB
(Aurobindo Mother Tamil songs) Sudha Raghunathan - Sri Arvindha Annai - 2004, FLAC (image+.cue), lossless скачать торрент бесплатно и без регистрации

[Profile] [PM]
Display posts:    

Current time is: 21-Sep 12:26

All times are UTC + 3



You cannot post new topics in this forum
You cannot reply to topics in this forum
You cannot edit your posts in this forum
You cannot delete your posts in this forum
You cannot vote in polls in this forum
You cannot attach files in this forum
You can download files in this forum