Reply to topic
DL-List and Torrent activity [Update пиров]
Size:  439 MB   |    Registered:  4 years 10 months   |    Completed:  0 times
Seeders:  491  [  0 KB/s  ]   Leechers:  34  [  0 KB/s  ]  
 
     
 
 
Author Message

RelizMAN ®

11

Post 04-Nov-2015 05:00

[Quote]

Sri Vidyabhushana - Shreeman Madhvacharya's Dwadasha Sthotrani
Жанр: Sanskrit Devotional
Носитель: CD
Страна-производитель диска (релиза): India
Год издания: 2004
Издатель (лейбл): iNiDANi
Аудиокодек: FLAC (*.flac)
Тип рипа: image+.cue
Битрейт аудио: lossless
Продолжительность: 01:25:04
Источник (релизер): собственный рип
Наличие сканов в содержимом раздачи: да

CD1

01. Preenayamo Vasudevam
02. Devakinandana
03. Udirnamajaram
04. Vandevandyam
05. Viswasthithi
06. Anandamukunda

Лог создания рипа

Exact Audio Copy V1.1 from 23. June 2015
Отчёт EAC об извлечении, выполненном 4. ноября 2015, 3:03
Sri Vidyabhushana / Shreeman Madhhvacharya's Dwadasha Sthotrani - Vol1
Дисковод: MATSHITADVD-RAM UJ8B0 Adapter: 1 ID: 0
Режим чтения : Скоростной
Коррекция смещения при чтении : 0
Способность читать области Lead-in и Lead-out : Нет
Заполнение пропущенных сэмплов тишиной : Да
Удаление блоков с тишиной в начале и конце : Нет
При вычислениях CRC использовались нулевые сэмплы : Да
Интерфейс : Встроенный Win32-интерфейс для Win NT/2000
Выходной формат : Пользовательский кодировщик
Выбранный битрейт : 896 kBit/s
Качество : Высокий
Добавление ID3-тега : Нет
Утилита сжатия : C:\flac.exe
Дополнительные параметры : -V -8 -T "Date=%year%" -T "Genre=%genre%" %source%
TOC извлечённого CD
Трек | Старт | Длительность | Начальный сектор | Конечный сектор
---------------------------------------------------------------------
1 | 0:00.00 | 10:09.60 | 0 | 45734
2 | 10:09.60 | 6:19.38 | 45735 | 74197
3 | 16:29.23 | 5:04.36 | 74198 | 97033
4 | 21:33.59 | 7:35.40 | 97034 | 131198
5 | 29:09.24 | 8:51.56 | 131199 | 171079
6 | 38:01.05 | 4:44.27 | 171080 | 192406
Характеристики диапазона извлечения и сообщения об ошибках
Выбранный диапазон
Имя файла C:\Sri Vidyabhushana - Shreeman Madhhvacharya's Dwadasha Sthotrani - Vol1.wav
Пиковый уровень 74.9 %
Скорость извлечения 6.0 X
CRC теста CBA6E59C
CRC копии CBA6E59C
Копирование... OK
Ошибок не произошло
Конец отчёта
==== Контрольная сумма отчёта 4E36335B0E6AD68EEA6D563E478275280969DA72821DB88C082094BD58A79FDD ====

Содержание индексной карты (.CUE)

REM GENRE Sanskrit
REM DATE 2004
REM DISCID 4B0A0506
REM COMMENT "ExactAudioCopy v1.1"
PERFORMER "Sri Vidyabhushana"
TITLE "Shreeman Madhhvacharya's Dwadasha Sthotrani - Vol1"
FILE "Sri Vidyabhushana - Shreeman Madhhvacharya's Dwadasha Sthotrani - Vol1.flac" WAVE
TRACK 01 AUDIO
TITLE "Preenayamo"
PERFORMER "Sri Vidyabhushana"
INDEX 01 00:00:00
TRACK 02 AUDIO
TITLE "Devakinandana"
PERFORMER "Sri Vidyabhushana"
INDEX 01 10:09:60
TRACK 03 AUDIO
TITLE "Udirnamajaram"
PERFORMER "Sri Vidyabhushana"
INDEX 01 16:29:23
TRACK 04 AUDIO
TITLE "Vandevandyam"
PERFORMER "Sri Vidyabhushana"
INDEX 01 21:33:59
TRACK 05 AUDIO
TITLE "Viswasthithi"
PERFORMER "Sri Vidyabhushana"
INDEX 01 29:09:24
TRACK 06 AUDIO
TITLE "Anandamukunda"
PERFORMER "Sri Vidyabhushana"
INDEX 01 38:01:05

CD2

01. Keshava Keshava
02. Athimathathamogiri
03. Kurubhunkshwacha
04. Swajanodadhi Sanvruddi
05. Avanahsripathi
06. Shankachakra Gadha Padma
07. Krishna Varnam

Лог создания рипа

Exact Audio Copy V1.1 from 23. June 2015
Отчёт EAC об извлечении, выполненном 4. ноября 2015, 3:18
Sri Vidyabhushana / Shreeman Madhvacharya's Dwadasha Sthotrani - Vol2
Дисковод: MATSHITADVD-RAM UJ8B0 Adapter: 1 ID: 0
Режим чтения : Скоростной
Коррекция смещения при чтении : 0
Способность читать области Lead-in и Lead-out : Нет
Заполнение пропущенных сэмплов тишиной : Да
Удаление блоков с тишиной в начале и конце : Нет
При вычислениях CRC использовались нулевые сэмплы : Да
Интерфейс : Встроенный Win32-интерфейс для Win NT/2000
Выходной формат : Пользовательский кодировщик
Выбранный битрейт : 896 kBit/s
Качество : Высокий
Добавление ID3-тега : Нет
Утилита сжатия : C:\flac.exe
Дополнительные параметры : -V -8 -T "Date=%year%" -T "Genre=%genre%" %source%
TOC извлечённого CD
Трек | Старт | Длительность | Начальный сектор | Конечный сектор
---------------------------------------------------------------------
1 | 0:00.00 | 4:19.61 | 0 | 19485
2 | 4:19.61 | 5:49.35 | 19486 | 45695
3 | 10:09.21 | 8:31.54 | 45696 | 84074
4 | 18:41.00 | 4:48.72 | 84075 | 105746
5 | 23:29.72 | 7:31.41 | 105747 | 139612
6 | 31:01.38 | 6:18.22 | 139613 | 167984
7 | 37:19.60 | 4:59.53 | 167985 | 190462
Характеристики диапазона извлечения и сообщения об ошибках
Выбранный диапазон
Имя файла C:\Sri Vidyabhushana - Shreeman Madhvacharya's Dwadasha Sthotrani - Vol2.wav
Пиковый уровень 74.8 %
Скорость извлечения 12.6 X
CRC теста 9809FD8B
CRC копии 9809FD8B
Копирование... OK
Ошибок не произошло
Конец отчёта
==== Контрольная сумма отчёта BF9701BA2A145451C2487A5E9FA5F151D4FB4B13240FF619C18F8C46E776AF76 ====

Содержание индексной карты (.CUE)

REM GENRE Sanskrit
REM DATE 2004
REM DISCID 3C09EB07
REM COMMENT "ExactAudioCopy v1.1"
PERFORMER "Sri Vidyabhushana"
TITLE "Shreeman Madhvacharya's Dwadasha Sthotrani - Vol2"
FILE "Sri Vidyabhushana - Shreeman Madhvacharya's Dwadasha Sthotrani - Vol2.flac" WAVE
TRACK 01 AUDIO
TITLE "Keshava Keshava"
PERFORMER "Sri Vidyabhushana"
INDEX 01 00:00:00
TRACK 02 AUDIO
TITLE "Athimathathamogiri"
PERFORMER "Sri Vidyabhushana"
INDEX 01 04:19:61
TRACK 03 AUDIO
TITLE "Kurubhunkshwacha"
PERFORMER "Sri Vidyabhushana"
INDEX 01 10:09:21
TRACK 04 AUDIO
TITLE "Swajanodadhi Sanvruddi"
PERFORMER "Sri Vidyabhushana"
INDEX 01 18:41:00
TRACK 05 AUDIO
TITLE "Avanahsripathi"
PERFORMER "Sri Vidyabhushana"
INDEX 01 23:29:72
TRACK 06 AUDIO
TITLE "Shankachakra Gadha Padma"
PERFORMER "Sri Vidyabhushana"
INDEX 01 31:01:38
TRACK 07 AUDIO
TITLE "Krishna Varnam"
PERFORMER "Sri Vidyabhushana"
INDEX 01 37:19:60
[doutdess.site].t87625.torrent
Torrent: Registered [ 2015-11-04 05:00 ] · 45D52984130F6D40BE2FE1C7B64355C2DFAA0C15

19 KB

Status: checked
Completed: 0 times
Size: 439 MB
(Sanskrit Devotional) Sri Vidyabhushana - Shreeman Madhvacharya\'s Dwadasha Sthotrani - 2004, FLAC (image+.cue), lossless скачать торрент бесплатно и без регистрации

[Profile] [PM]
Forum Topic Author Size
Этническая музыка Индии lossless (Sanskrit Devotional) Nithyasree Mahadevan - Sri Devi Yagna, Vol.1-8 - 2009, FLAC (image+.cue), lossless RelizMAN 2.98 GB
Этническая музыка Индии lossless (Sanskrit Devotional) Sri Vidyabhushana - Sri Hari Vayu Stuti, FLAC (image+.cue), lossless RelizMAN 267 MB
Этническая музыка Индии lossless (Sanskrit Devotional, Tamil) Smt. R Vedavalli - Shri Vedanta Desikar Sthothra Maala - 2005-2006, FLAC (image+.cue), lossless RelizMAN 617 MB
Этническая музыка Индии lossless (Sanskrit Recital) Malola Kannan - Desika Stotram - 2005, FLAC (image+.cue), lossless RelizMAN 405 MB
Этническая музыка Индии lossless (Sanskrit Recital) Malola Kannan - Sama Gosham - 2008, FLAC (image+.cue), lossless RelizMAN 384 MB
Display posts:    

Current time is: 21-Sep 12:17

All times are UTC + 3



You cannot post new topics in this forum
You cannot reply to topics in this forum
You cannot edit your posts in this forum
You cannot delete your posts in this forum
You cannot vote in polls in this forum
You cannot attach files in this forum
You can download files in this forum