Reply to topic
DL-List and Torrent activity [Update пиров]
Size:  367 MB   |    Registered:  4 years 10 months   |    Completed:  0 times
Seeders:  127  [  0 KB/s  ]   Leechers:  10  [  0 KB/s  ]  
 
     
 
 
Author Message

RelizMAN ®

11

Post 05-Nov-2015 22:00

[Quote]

Sri Vidyabhushana / Hari Smarane
Жанр: Daasara Padagalu, Kannada
Носитель: CD
Страна-производитель диска (релиза): India
Год издания: 2007
Издатель (лейбл): iNiDANi
Аудиокодек: FLAC (*.flac)
Тип рипа: image+.cue
Битрейт аудио: lossless
Продолжительность: 00:58:22
Источник (релизер): собственный рип
Наличие сканов в содержимом раздачи: да
Треклист:
01. Ganapathi Enna - SRI VENKATA VITTALA DASSARU
02. Ballavagillide Vaukunta - SRI VYASARAJARU
03. Chanchalisadiru - SRI PRASANNA VENKATA DASSARU
04. Marutanna Jaaye - SRI MOHANA DASSARU
05. Nillabekaya Krishnayya - SRI PURANDARA DASSARU
06. Kamalamukhiye - SRI GOPALA DASSARU

Лог создания рипа

Exact Audio Copy V1.1 from 23. June 2015
Отчёт EAC об извлечении, выполненном 5. ноября 2015, 20:11
Sri Vidyabhushana / Hari Smarane
Дисковод: MATSHITADVD-RAM UJ8B0 Adapter: 1 ID: 0
Режим чтения : Скоростной
Коррекция смещения при чтении : 0Способность читать области Lead-in и Lead-out : НетЗаполнение пропущенных сэмплов тишиной : ДаУдаление блоков с тишиной в начале и конце : НетПри вычислениях CRC использовались нулевые сэмплы : ДаИнтерфейс : Встроенный Win32-интерфейс для Win NT/2000
Выходной формат : Пользовательский кодировщикВыбранный битрейт : 896 kBit/sКачество : ВысокийДобавление ID3-тега : НетУтилита сжатия : C:\flac.exeДополнительные параметры : -V -8 -T "Date=%year%" -T "Genre=%genre%" %source%
TOC извлечённого CD
Трек | Старт | Длительность | Начальный сектор | Конечный сектор --------------------------------------------------------------------- 1 | 0:00.00 | 8:24.00 | 0 | 37799 2 | 8:24.00 | 5:56.48 | 37800 | 64547 3 | 14:20.48 | 8:42.08 | 64548 | 103705 4 | 23:02.56 | 5:26.23 | 103706 | 128178 5 | 28:29.04 | 4:15.62 | 128179 | 147365 6 | 32:44.66 | 21:19.21 | 147366 | 243311 7 | 54:04.12 | 4:18.22 | 243312 | 262683
Характеристики диапазона извлечения и сообщения об ошибках
Выбранный диапазон
Имя файла C:\Sri Vidyabhushana - Hari Smarane\Sri Vidyabhushana - Hari Smarane.wav
Пиковый уровень 77.5 % Скорость извлечения 13.7 X CRC теста 6007AB44 CRC копии 6007AB44 Копирование... OK
Ошибок не произошло
Конец отчёта
==== Контрольная сумма отчёта 786AA3B2CC711001B55D8AA457D54CE8505D29FF42B21D38727E36F074B36129 ====

Содержание индексной карты (.CUE)

REM DISCID 5C0DAE07REM COMMENT "ExactAudioCopy v1.1"PERFORMER "Sri Vidyabhushana"TITLE "Hari Smarane"FILE "Sri Vidyabhushana - Hari Smarane.flac" WAVE TRACK 01 AUDIO TITLE "Трек01" PERFORMER "Sri Vidyabhushana" INDEX 01 00:00:00 TRACK 02 AUDIO TITLE "Трек02" PERFORMER "Sri Vidyabhushana" INDEX 01 08:24:00 TRACK 03 AUDIO TITLE "Трек03" PERFORMER "Sri Vidyabhushana" INDEX 00 14:20:45 INDEX 01 14:20:48 TRACK 04 AUDIO TITLE "Трек04" PERFORMER "Sri Vidyabhushana" INDEX 00 23:02:54 INDEX 01 23:02:56 TRACK 05 AUDIO TITLE "Трек05" PERFORMER "Sri Vidyabhushana" INDEX 00 28:29:01 INDEX 01 28:29:04 TRACK 06 AUDIO TITLE "Трек06" PERFORMER "Sri Vidyabhushana" INDEX 00 32:44:64 INDEX 01 32:44:66 TRACK 07 AUDIO TITLE "Трек07" PERFORMER "Sri Vidyabhushana" INDEX 00 54:04:09 INDEX 01 54:04:12
[doutdess.site].t87926.torrent
Torrent: Registered [ 2015-11-05 22:00 ] · 9DF5F302B6B8BF02B033B88ACE17C6F46F5D3670

15 KB

Status: checked
Completed: 0 times
Size: 367 MB
(Daasara Padagalu, Kannada) Sri Vidyabhushana - Hari Smarane - 2007, FLAC (image+.cue), lossless скачать торрент бесплатно и без регистрации

[Profile] [PM]
Forum Topic Author Size
Этническая музыка Индии lossless (Daasara Padagalu, Kannada) Sri Vidyabhushana - Guru Purandara Daasare - 2000, FLAC (image+.cue), lossless RelizMAN 316 MB
Этническая музыка Индии lossless (Daasara Padagalu, Kannada) Sri Vidyabhushana - Haridaasara Ugabhogagalu - Vol. 1,3,4 - 2002-2006, FLAC (image+.cue), lossless RelizMAN 1 GB
Этническая музыка Индии lossy (Daasara Padagalu, Kannada) Sri Vidyabhushana - Haridaasara Ugabhogagalu - Vol. 2 - 2003, MP3, 320 kbps Vi$itReal 140 MB
Display posts:    

Current time is: 26-Sep 14:24

All times are UTC + 3



You cannot post new topics in this forum
You cannot reply to topics in this forum
You cannot edit your posts in this forum
You cannot delete your posts in this forum
You cannot vote in polls in this forum
You cannot attach files in this forum
You can download files in this forum