Reply to topic
DL-List and Torrent activity [Update пиров]
Size:  1 GB   |    Registered:  4 years 10 months   |    Completed:  0 times
Seeders:  472  [  0 KB/s  ]   Leechers:  1  [  0 KB/s  ]  
 
     
 
 
Author Message

RelizMAN ®

11

Post 06-Nov-2015 01:15

[Quote]

Sri Vidyabhushana - Haridaasara Ugabhogagalu - Vol. 1,3,4
Жанр: Daasara Padagalu, Kannada
Носитель: CD
Страна-производитель диска (релиза): India
Год издания: 2002-2006
Издатель (лейбл): iNiDANi
Аудиокодек: FLAC (*.flac)
Тип рипа: image+.cue
Битрейт аудио: lossless
Продолжительность: 02:57:20
Источник (релизер): собственный рип
Наличие сканов в содержимом раздачи: да

Треклист выглядит так

Vol1Лог создания рипа

Exact Audio Copy V1.1 from 23. June 2015
Отчёт EAC об извлечении, выполненном 5. ноября 2015, 21:10
Sri Vidyabhushana / Haridaasara Ugabhogagalu Vol1
Дисковод: MATSHITADVD-RAM UJ8B0 Adapter: 1 ID: 0
Режим чтения : Скоростной
Коррекция смещения при чтении : 0
Способность читать области Lead-in и Lead-out : Нет
Заполнение пропущенных сэмплов тишиной : Да
Удаление блоков с тишиной в начале и конце : Нет
При вычислениях CRC использовались нулевые сэмплы : Да
Интерфейс : Встроенный Win32-интерфейс для Win NT/2000
Выходной формат : Пользовательский кодировщик
Выбранный битрейт : 896 kBit/s
Качество : Высокий
Добавление ID3-тега : Нет
Утилита сжатия : C:\flac.exe
Дополнительные параметры : -V -8 -T "Date=%year%" -T "Genre=%genre%" %source%
TOC извлечённого CD
Трек | Старт | Длительность | Начальный сектор | Конечный сектор
---------------------------------------------------------------------
1 | 0:00.00 | 30:38.48 | 0 | 137897
2 | 30:38.48 | 29:36.54 | 137898 | 271151
Характеристики диапазона извлечения и сообщения об ошибках
Выбранный диапазон
Имя файла C:\Sri Vidyabhushana - Haridaasara Ugabhogagalu Vol1.wav
Пиковый уровень 100.0 %
Скорость извлечения 13.8 X
CRC теста F1E41A0E
CRC копии F1E41A0E
Копирование... OK
Ошибок не произошло
Конец отчёта
==== Контрольная сумма отчёта 2C33DEFC8AC3A44FF4862DC3B62C43CA38E8CD5E2B8A7E5082E2817D38EDCADA ====

Содержание индексной карты (.CUE)

REM DISCID 0F0E1F02
REM COMMENT "ExactAudioCopy v1.1"
PERFORMER "Sri Vidyabhushana"
TITLE "Haridaasara Ugabhogagalu Vol1"
FILE "Sri Vidyabhushana - Haridaasara Ugabhogagalu Vol1.flac" WAVE
TRACK 01 AUDIO
TITLE "Трек01"
PERFORMER "Sri Vidyabhushana"
INDEX 01 00:00:00
TRACK 02 AUDIO
TITLE "Трек02"
PERFORMER "Sri Vidyabhushana"
INDEX 01 30:38:48

Vol3Лог создания рипа

Exact Audio Copy V1.1 from 23. June 2015
Отчёт EAC об извлечении, выполненном 5. ноября 2015, 22:43
Sri Vidyabhushana / Haridaasara Ugabhogagalu Vol3
Дисковод: MATSHITADVD-RAM UJ8B0 Adapter: 1 ID: 0
Режим чтения : Скоростной
Коррекция смещения при чтении : 0
Способность читать области Lead-in и Lead-out : Нет
Заполнение пропущенных сэмплов тишиной : Да
Удаление блоков с тишиной в начале и конце : Нет
При вычислениях CRC использовались нулевые сэмплы : Да
Интерфейс : Встроенный Win32-интерфейс для Win NT/2000
Выходной формат : Пользовательский кодировщик
Выбранный битрейт : 896 kBit/s
Качество : Высокий
Добавление ID3-тега : Нет
Утилита сжатия : C:\flac.exe
Дополнительные параметры : -V -8 -T "Date=%year%" -T "Genre=%genre%" %source%
TOC извлечённого CD
Трек | Старт | Длительность | Начальный сектор | Конечный сектор
---------------------------------------------------------------------
1 | 0:00.00 | 26:23.30 | 0 | 118754
2 | 26:23.30 | 24:51.11 | 118755 | 230590
Характеристики диапазона извлечения и сообщения об ошибках
Выбранный диапазон
Имя файла C:\Sri Vidyabhushana - Haridaasara Ugabhogagalu Vol3.wav
Пиковый уровень 75.7 %
Скорость извлечения 6.3 X
CRC теста 42DC8578
CRC копии D8DAAFD8
Копирование... OK
Ошибок не произошло
Конец отчёта
==== Контрольная сумма отчёта 53B8283D9268F67E83E10E08263F254B7D30704E08690C8D1CBB50919C31D277 ====

Содержание индексной карты (.CUE)

REM DISCID 150C0202
REM COMMENT "ExactAudioCopy v1.1"
PERFORMER "Sri Vidyabhushana"
TITLE "Haridaasara Ugabhogagalu Vol3"
FILE "Sri Vidyabhushana - Haridaasara Ugabhogagalu Vol3.flac" WAVE
TRACK 01 AUDIO
TITLE "Трек01"
PERFORMER "Sri Vidyabhushana"
INDEX 01 00:00:00
TRACK 02 AUDIO
TITLE "Трек02"
PERFORMER "Sri Vidyabhushana"
INDEX 01 26:23:30

Vol4Лог создания рипа

Exact Audio Copy V1.1 from 23. June 2015
Отчёт EAC об извлечении, выполненном 5. ноября 2015, 22:59
Sri Vidyabhushana / Haridaasara Ugabhogagalu Vol4
Дисковод: MATSHITADVD-RAM UJ8B0 Adapter: 1 ID: 0
Режим чтения : Скоростной
Коррекция смещения при чтении : 0
Способность читать области Lead-in и Lead-out : Нет
Заполнение пропущенных сэмплов тишиной : Да
Удаление блоков с тишиной в начале и конце : Нет
При вычислениях CRC использовались нулевые сэмплы : Да
Интерфейс : Встроенный Win32-интерфейс для Win NT/2000
Выходной формат : Пользовательский кодировщик
Выбранный битрейт : 896 kBit/s
Качество : Высокий
Добавление ID3-тега : Нет
Утилита сжатия : C:\flac.exe
Дополнительные параметры : -V -8 -T "Date=%year%" -T "Genre=%genre%" %source%
TOC извлечённого CD
Трек | Старт | Длительность | Начальный сектор | Конечный сектор
---------------------------------------------------------------------
1 | 0:00.00 | 3:42.38 | 0 | 16687
2 | 3:42.38 | 2:36.29 | 16688 | 28416
3 | 6:18.67 | 4:11.55 | 28417 | 47296
4 | 10:30.47 | 3:54.59 | 47297 | 64905
5 | 14:25.31 | 3:26.35 | 64906 | 80390
6 | 17:51.66 | 2:43.22 | 80391 | 92637
7 | 20:35.13 | 3:25.70 | 92638 | 108082
8 | 24:01.08 | 3:47.50 | 108083 | 125157
9 | 27:48.58 | 3:03.46 | 125158 | 138928
10 | 30:52.29 | 3:46.48 | 138929 | 155926
11 | 34:39.02 | 4:08.14 | 155927 | 174540
12 | 38:47.16 | 3:54.09 | 174541 | 192099
13 | 42:41.25 | 4:55.30 | 192100 | 214254
14 | 47:36.55 | 5:04.60 | 214255 | 237114
15 | 52:41.40 | 2:49.42 | 237115 | 249831
16 | 55:31.07 | 3:51.44 | 249832 | 267200
17 | 59:22.51 | 3:35.71 | 267201 | 283396
18 | 62:58.47 | 2:52.05 | 283397 | 296301
Характеристики диапазона извлечения и сообщения об ошибках
Выбранный диапазон
Имя файла C:\Sri Vidyabhushana - Haridaasara Ugabhogagalu Vol4.wav
Пиковый уровень 100.0 %
Скорость извлечения 14.1 X
CRC теста CAC39F88
CRC копии 8A4039AD
Копирование... OK
Ошибок не произошло
Конец отчёта
==== Контрольная сумма отчёта 1C10038B775E9ED5CF52D11A653E8F7FBB11C5F6880CF2FC4D5314A7261E5411 ====

Содержание индексной карты (.CUE)

REM DISCID F80F6E12
REM COMMENT "ExactAudioCopy v1.1"
PERFORMER "Sri Vidyabhushana"
TITLE "Haridaasara Ugabhogagalu Vol4"
FILE "Sri Vidyabhushana - Haridaasara Ugabhogagalu Vol4.flac" WAVE
TRACK 01 AUDIO
TITLE "Трек01"
PERFORMER "Sri Vidyabhushana"
INDEX 01 00:00:00
TRACK 02 AUDIO
TITLE "Трек02"
PERFORMER "Sri Vidyabhushana"
INDEX 01 03:42:38
TRACK 03 AUDIO
TITLE "Трек03"
PERFORMER "Sri Vidyabhushana"
INDEX 00 06:18:61
INDEX 01 06:18:67
TRACK 04 AUDIO
TITLE "Трек04"
PERFORMER "Sri Vidyabhushana"
INDEX 01 10:30:47
TRACK 05 AUDIO
TITLE "Трек05"
PERFORMER "Sri Vidyabhushana"
INDEX 00 14:25:25
INDEX 01 14:25:31
TRACK 06 AUDIO
TITLE "Трек06"
PERFORMER "Sri Vidyabhushana"
INDEX 00 17:51:60
INDEX 01 17:51:66
TRACK 07 AUDIO
TITLE "Трек07"
PERFORMER "Sri Vidyabhushana"
INDEX 00 20:35:07
INDEX 01 20:35:13
TRACK 08 AUDIO
TITLE "Трек08"
PERFORMER "Sri Vidyabhushana"
INDEX 00 24:01:02
INDEX 01 24:01:08
TRACK 09 AUDIO
TITLE "Трек09"
PERFORMER "Sri Vidyabhushana"
INDEX 00 27:48:52
INDEX 01 27:48:58
TRACK 10 AUDIO
TITLE "Трек10"
PERFORMER "Sri Vidyabhushana"
INDEX 00 30:52:23
INDEX 01 30:52:29
TRACK 11 AUDIO
TITLE "Трек11"
PERFORMER "Sri Vidyabhushana"
[doutdess.site].t87975.torrent
Torrent: Registered [ 2015-11-06 01:15 ] · E288255FEC5130CCB989DA43B862D1021CC7610C

12 KB

Status: checked
Completed: 0 times
Size: 1 GB
(Daasara Padagalu, Kannada) Sri Vidyabhushana - Haridaasara Ugabhogagalu - Vol. 1,3,4 - 2002-2006, FLAC (image+.cue), lossless скачать торрент бесплатно и без регистрации

[Profile] [PM]
Forum Topic Author Size
Этническая музыка Индии lossless (Daasara Padagalu, Kannada) Sri Vidyabhushana - Guru Purandara Daasare - 2000, FLAC (image+.cue), lossless RelizMAN 316 MB
Этническая музыка Индии lossless (Daasara Padagalu, Kannada) Sri Vidyabhushana - Hari Smarane - 2007, FLAC (image+.cue), lossless RelizMAN 367 MB
Этническая музыка Индии lossy (Daasara Padagalu, Kannada) Sri Vidyabhushana - Haridaasara Ugabhogagalu - Vol. 2 - 2003, MP3, 320 kbps Vi$itReal 140 MB
Display posts:    

Current time is: 21-Sep 13:33

All times are UTC + 3



You cannot post new topics in this forum
You cannot reply to topics in this forum
You cannot edit your posts in this forum
You cannot delete your posts in this forum
You cannot vote in polls in this forum
You cannot attach files in this forum
You can download files in this forum