Reply to topic
DL-List and Torrent activity [Update пиров]
Size:  316 MB   |    Registered:  4 years 10 months   |    Completed:  0 times
Seeders:  688  [  0 KB/s  ]   Leechers:  55  [  0 KB/s  ]  
 
     
 
 
Author Message

RelizMAN ®

11

Post 04-Nov-2015 15:45

[Quote]

Sri Vidyabhushana - Guru Purandara Daasare
Жанр: Daasara Padagalu, Kannada
Носитель: CD
Страна-производитель диска (релиза): India
Год издания: 2000
Издатель (лейбл): Sangeeth Sagar
Аудиокодек: FLAC (*.flac)
Тип рипа: image+.cue
Битрейт аудио: lossless
Продолжительность: 01:00:52
Источник (релизер): собственный рип
Наличие сканов в содержимом раздачи: да
Треклист:
01. Shambho Paalisu (Sri Guru Jagannatha Vittala)
02. Sheshadeva Paahi (Sri Jagannatha Daasaru)
03. Kurunakara Nee (Sri Purandara Daasaru)
04. Swamy Mukhyaprana (Sri Purandara Daasaru)
05. Guru Purandara Daasare (Sri Vijaya Daasaru)
06. Rama Rama Ramapate (Sri Narayana Panditacharyaru)
07. Karunadi Ennaporeye (Sri Guru Jagannatha Vittala)
08. Raghavendra Guru (Sri Vijaya Daasaru)
09. Sree Manjunatha (Sri Hayavadana Puranikaru)
10. Dharmasthala Sreekshetra (Sri Hayavadana Puranikaru)
11. Rogaharane Dayasagarane (Sri Vibhu)

Лог создания рипа

Exact Audio Copy V1.1 from 23. June 2015
Отчёт EAC об извлечении, выполненном 4. ноября 2015, 13:56
Sri Vidyabhushana / Guru Purandara Daasare
Дисковод: MATSHITADVD-RAM UJ8B0 Adapter: 1 ID: 0
Режим чтения : Скоростной
Коррекция смещения при чтении : 0Способность читать области Lead-in и Lead-out : НетЗаполнение пропущенных сэмплов тишиной : ДаУдаление блоков с тишиной в начале и конце : НетПри вычислениях CRC использовались нулевые сэмплы : ДаИнтерфейс : Встроенный Win32-интерфейс для Win NT/2000
Выходной формат : Пользовательский кодировщикВыбранный битрейт : 896 kBit/sКачество : ВысокийДобавление ID3-тега : НетУтилита сжатия : C:\flac.exeДополнительные параметры : -V -8 -T "Date=%year%" -T "Genre=%genre%" %source%
TOC извлечённого CD
Трек | Старт | Длительность | Начальный сектор | Конечный сектор --------------------------------------------------------------------- 1 | 0:00.00 | 7:03.03 | 0 | 31727 2 | 7:03.03 | 5:03.00 | 31728 | 54452 3 | 12:06.03 | 6:32.66 | 54453 | 83918 4 | 18:38.69 | 4:55.64 | 83919 | 106107 5 | 23:34.58 | 6:59.51 | 106108 | 137583 6 | 30:34.34 | 5:27.49 | 137584 | 162157 7 | 36:02.08 | 6:09.44 | 162158 | 189876 8 | 42:11.52 | 4:35.38 | 189877 | 210539 9 | 46:47.15 | 6:14.15 | 210540 | 238604 10 | 53:01.30 | 3:04.54 | 238605 | 252458 11 | 56:06.09 | 4:46.32 | 252459 | 273940
Характеристики диапазона извлечения и сообщения об ошибках
Выбранный диапазон
Имя файла C:\Sri Vidyabhushana - Guru Purandara Daasare.wav
Пиковый уровень 88.9 % Скорость извлечения 13.8 X CRC теста D690A95C CRC копии 1B3A4323 Копирование... OK
Ошибок не произошло
Конец отчёта
==== Контрольная сумма отчёта 4DC7AB873C8DB9996BE0AF328C9C0A1D31258F2A89821109DE07584A0869DE4B ====

Содержание индексной карты (.CUE)

REM GENRE "Daasara Padagalu"REM DATE 2000REM DISCID 900E440BREM COMMENT "ExactAudioCopy v1.1"PERFORMER "Sri Vidyabhushana"TITLE "Guru Purandara Daasare"FILE "Sri Vidyabhushana - Guru Purandara Daasare.flac" WAVE TRACK 01 AUDIO TITLE "Shambho Paalisu" PERFORMER "Sri Vidyabhushana" INDEX 01 00:00:00 TRACK 02 AUDIO TITLE "Sheshadeva Paahi" PERFORMER "Sri Vidyabhushana" INDEX 01 07:03:03 TRACK 03 AUDIO TITLE "Kurunakara Nee" PERFORMER "Sri Vidyabhushana" INDEX 00 12:05:02 INDEX 01 12:06:03 TRACK 04 AUDIO TITLE "Swamy Mukhyaprana" PERFORMER "Sri Vidyabhushana" INDEX 01 18:38:69 TRACK 05 AUDIO TITLE "Guru Purandara Daasare" PERFORMER "Sri Vidyabhushana" INDEX 01 23:34:58 TRACK 06 AUDIO TITLE "Rama Rama Ramapate" PERFORMER "Sri Vidyabhushana" INDEX 01 30:34:34 TRACK 07 AUDIO TITLE "Karunadi Ennaporeye" PERFORMER "Sri Vidyabhushana" INDEX 01 36:02:08 TRACK 08 AUDIO TITLE "Raghavendra Guru" PERFORMER "Sri Vidyabhushana" INDEX 01 42:11:52 TRACK 09 AUDIO TITLE "Sree Manjunatha" PERFORMER "Sri Vidyabhushana" INDEX 01 46:47:15 TRACK 10 AUDIO TITLE "Dharmasthala Sreekshetra" PERFORMER "Sri Vidyabhushana" INDEX 01 53:01:30 TRACK 11 AUDIO TITLE "Rogaharane Dayasagarane" PERFORMER "Sri Vidyabhushana" INDEX 01 56:06:09
[doutdess.site].t87704.torrent
Torrent: Registered [ 2015-11-04 15:45 ] · 6F815E1432C25E9EA15178CC883BDE67C4A3FA65

13 KB

Status: checked
Completed: 0 times
Size: 316 MB
(Daasara Padagalu, Kannada) Sri Vidyabhushana - Guru Purandara Daasare - 2000, FLAC (image+.cue), lossless скачать торрент бесплатно и без регистрации

[Profile] [PM]
Forum Topic Author Size
Этническая музыка Индии lossless (Daasara Padagalu, Kannada) Sri Vidyabhushana - Hari Smarane - 2007, FLAC (image+.cue), lossless RelizMAN 367 MB
Этническая музыка Индии lossless (Daasara Padagalu, Kannada) Sri Vidyabhushana - Haridaasara Ugabhogagalu - Vol. 1,3,4 - 2002-2006, FLAC (image+.cue), lossless RelizMAN 1 GB
Этническая музыка Индии lossy (Daasara Padagalu, Kannada) Sri Vidyabhushana - Haridaasara Ugabhogagalu - Vol. 2 - 2003, MP3, 320 kbps Vi$itReal 140 MB
Display posts:    

Current time is: 25-Sep 22:40

All times are UTC + 3



You cannot post new topics in this forum
You cannot reply to topics in this forum
You cannot edit your posts in this forum
You cannot delete your posts in this forum
You cannot vote in polls in this forum
You cannot attach files in this forum
You can download files in this forum