Reply to topic
DL-List and Torrent activity [Update пиров]
Size:  396 MB   |    Registered:  4 years 10 months   |    Completed:  0 times
Seeders:  644  [  0 KB/s  ]   Leechers:  35  [  0 KB/s  ]  
 
     
 
 
Author Message

RelizMAN ®

11

Post 08-Nov-2015 21:20

[Quote]

S Sowmya - Neethimadhi
Жанр: Carnatic, Tamil
Носитель: CD
Страна-производитель диска (релиза): India
Год издания: 1999
Издатель (лейбл): Amutham Music
Аудиокодек: FLAC (*.flac)
Тип рипа: image+.cue
Битрейт аудио: lossless
Продолжительность: 01:13:05
Источник (релизер): собственный рип
Наличие сканов в содержимом раздачи: да
Треклист:
01. Mooladhara Moorthy - Hamsadhwani - Adi - Tamil
02. Aravindha Losanae - Neethimathi - Adi - Tamil
03. Mal Maruga - Vasantha - Adi - Tamil
04. Nanoru Siru Veenai - Chkaravaham - Adi - Tamil
05. Thaye Thirupura Sundari - Sudhha Saveri - Kandachapu - Tamil
06. Pirava Varam - Latangi - Adi - Tamil
07. Mohana Valli - Kamas - Rupakam - Tamil
08. Kaapali - Mohanam - Adi - Tamil
09. Kadal Konden - Madhuvanthi - Adi - Tamil
10. Thiruvaip Panindhu - Mandu - Adi - Tamil
11. Virutham - Ragamalikai - Kanda Nadai - Tamil

Лог создания рипа

Exact Audio Copy V1.1 from 23. June 2015
EAC extraction logfile from 8. November 2015, 18:24
S Sowmya / Neethimadhi
Used drive : MATSHITADVD-RAM UJ8B0 Adapter: 1 ID: 0
Read mode : SecureUtilize accurate stream : YesDefeat audio cache : YesMake use of C2 pointers : No
Read offset correction : 0Overread into Lead-In and Lead-Out : NoFill up missing offset samples with silence : YesDelete leading and trailing silent blocks : NoNull samples used in CRC calculations : YesUsed interface : Native Win32 interface for Win NT & 2000
Used output format : User Defined EncoderSelected bitrate : 896 kBit/sQuality : HighAdd ID3 tag : YesCommand line compressor : C:\flac.exeAdditional command line options : -V -8 -T "Date=%year%" -T "Genre=%genre%" %source%
TOC of the extracted CD
Track | Start | Length | Start sector | End sector --------------------------------------------------------- 1 | 0:00.00 | 4:15.46 | 0 | 19170 2 | 4:15.46 | 5:32.02 | 19171 | 44072 3 | 9:47.48 | 4:22.27 | 44073 | 63749 4 | 14:10.00 | 6:00.67 | 63750 | 90816 5 | 20:10.67 | 6:27.16 | 90817 | 119857 6 | 26:38.08 | 4:26.74 | 119858 | 139881 7 | 31:05.07 | 5:59.31 | 139882 | 166837 8 | 37:04.38 | 17:42.25 | 166838 | 246512 9 | 54:46.63 | 5:52.69 | 246513 | 272981 10 | 60:39.57 | 3:42.52 | 272982 | 289683 11 | 64:22.34 | 8:42.65 | 289684 | 328898
Range status and errors
Selected range
Filename C:\S Sowmya - Neethimadhi.wav
Peak level 99.9 % Extraction speed 2.2 X Range quality 100.0 % Test CRC 8766DC9F Copy CRC 8766DC9F Copy OK
No errors occurred
End of status report
==== Log checksum 7C286224C4A31D70B094F38158F4A50EE18BB4333EAB2AB2995ED0D250D60A17 ====

Содержание индексной карты (.CUE)

REM DISCID 9C11210BREM COMMENT "ExactAudioCopy v1.1"PERFORMER "S Sowmya"TITLE "Neethimadhi"FILE "S Sowmya - Neethimadhi.flac" WAVE TRACK 01 AUDIO TITLE "Трек01" PERFORMER "S Sowmya" INDEX 01 00:00:00 TRACK 02 AUDIO TITLE "Трек02" PERFORMER "S Sowmya" INDEX 01 04:15:46 TRACK 03 AUDIO TITLE "Трек03" PERFORMER "S Sowmya" INDEX 00 09:47:41 INDEX 01 09:47:48 TRACK 04 AUDIO TITLE "Трек04" PERFORMER "S Sowmya" INDEX 00 14:09:71 INDEX 01 14:10:00 TRACK 05 AUDIO TITLE "Трек05" PERFORMER "S Sowmya" INDEX 01 20:10:67 TRACK 06 AUDIO TITLE "Трек06" PERFORMER "S Sowmya" INDEX 00 26:38:01 INDEX 01 26:38:08 TRACK 07 AUDIO TITLE "Трек07" PERFORMER "S Sowmya" INDEX 00 31:05:00 INDEX 01 31:05:07 TRACK 08 AUDIO TITLE "Трек08" PERFORMER "S Sowmya" INDEX 00 37:04:32 INDEX 01 37:04:38 TRACK 09 AUDIO TITLE "Трек09" PERFORMER "S Sowmya" INDEX 00 54:46:57 INDEX 01 54:46:63 TRACK 10 AUDIO TITLE "Трек10" PERFORMER "S Sowmya" INDEX 00 60:39:50 INDEX 01 60:39:57 TRACK 11 AUDIO TITLE "Трек11" PERFORMER "S Sowmya" INDEX 00 64:22:27 INDEX 01 64:22:34
[doutdess.site].t88460.torrent
Torrent: Registered [ 2015-11-08 21:20 ] · F6F912E0E0CC77A6FF3D606E20D29B3F84F0930D

16 KB

Status: checked
Completed: 0 times
Size: 396 MB
(Carnatic, Tamil) S Sowmya - Neethimadhi - 1999, FLAC (image+.cue), lossless скачать торрент бесплатно и без регистрации

[Profile] [PM]
Forum Topic Author Size
Этническая музыка Индии lossy (Carnatic, Devotional Sanskrit) M.L. Vasanthakumari - Soundarya Lahari - 2000, MP3, 320 kbps Vi$itReal 167 MB
Этническая музыка Индии lossy (Carnatic, Devotional Sanskrit/Tamil) MS Subbulakshmi - Tirupati Lord Balaji (The Complete Collection) - Vol.1-7 - 2010, MP3, 320 kbps Vi$itReal 668 MB
Этническая музыка Индии lossless (Carnatic, Mandolin, Indian Classical) [WEB] Mandolin U. Shrinivas with D. Shreedhar - Classical Icons - U. Srinivas - 2017, FLAC (tracks), lossless RelizMAN 410 MB
Этническая музыка Индии lossless (Carnatic, Tami, Telugu) Priya Sisters - Nayaki - 2007, FLAC (image+.cue), lossless RelizMAN 336 MB
Этническая музыка Индии lossless (Carnatic, Tamil) Aruna Sairam - Arunambujam (Krithis of Ambujam Krishna) - 2007, FLAC (image+.cue), lossless RelizMAN 797 MB
Этническая музыка Индии lossless (Carnatic, Tamil) Aruna Sairam - Unnai Allal - 2007, FLAC (image+.cue), lossless RelizMAN 659 MB
Этническая музыка Индии lossless (Carnatic, Tamil) M.L. Vasanthakumari - Vasantha Vani - 2004, FLAC (image+.cue), lossless RelizMAN 199 MB
Этническая музыка Индии lossless (Carnatic, Tamil) Nithyasree Mahadevan - Ranjani Mala - 2003, FLAC (image+.cue), lossless RelizMAN 387 MB
Display posts:    

Current time is: 30-Sep 20:11

All times are UTC + 3



You cannot post new topics in this forum
You cannot reply to topics in this forum
You cannot edit your posts in this forum
You cannot delete your posts in this forum
You cannot vote in polls in this forum
You cannot attach files in this forum
You can download files in this forum