Reply to topic
DL-List and Torrent activity [Update пиров]
Size:  790 MB   |    Registered:  4 years 10 months   |    Completed:  1 time
Seeders:  619  [  0 KB/s  ]   Leechers:  6  [  0 KB/s  ]  
 
     
 
 
Author Message

RelizMAN ®

11

Post 05-Nov-2015 00:20

[Quote]

Sikkil Gurucharan - Ramayanam (The Story of Rama)
Жанр: Carnatic
Носитель: CD
Страна-производитель диска (релиза): India
Год издания: 2005
Издатель (лейбл): Rajalakshmi Audio
Аудиокодек: FLAC (*.flac)
Тип рипа: image+.cue
Битрейт аудио: lossless
Продолжительность: 03:09:04
Источник (релизер): собственный рип
Наличие сканов в содержимом раздачи: да

CD1

01. Saketa nagar (Sanskrit) - The Birth of Rama
02. Deva Devam (Telugu) - The Glory of Rama
03. Dasarata Sutha (Sanskrit) - The Good Son
04. Kolam Kana (Tamil) - The Marriage of Rama
05. Kalyana Rama (Tamil) - The Beauty of Kalyana Rama
06. Sita Kalyana (Telugu) - Sitas Marriage with Rama
07. Virutham Eppadi Manam (Tamil) - The Plot of Kuni

Лог создания рипа

Exact Audio Copy V1.1 from 23. June 2015
Отчёт EAC об извлечении, выполненном 4. ноября 2015, 19:39
Sikkil Gurucharan / Ramayanam
Дисковод: MATSHITADVD-RAM UJ8B0 Adapter: 1 ID: 0
Режим чтения : Скоростной
Коррекция смещения при чтении : 0
Способность читать области Lead-in и Lead-out : Нет
Заполнение пропущенных сэмплов тишиной : Да
Удаление блоков с тишиной в начале и конце : Нет
При вычислениях CRC использовались нулевые сэмплы : Да
Интерфейс : Встроенный Win32-интерфейс для Win NT/2000
Выходной формат : Пользовательский кодировщик
Выбранный битрейт : 896 kBit/s
Качество : Высокий
Добавление ID3-тега : Нет
Утилита сжатия : C:\flac.exe
Дополнительные параметры : -V -8 -T "Date=%year%" -T "Genre=%genre%" %source%
TOC извлечённого CD
Трек | Старт | Длительность | Начальный сектор | Конечный сектор
---------------------------------------------------------------------
1 | 0:00.00 | 13:04.37 | 0 | 58836
2 | 13:04.37 | 7:23.58 | 58837 | 92119
3 | 20:28.20 | 5:15.60 | 92120 | 115804
4 | 25:44.05 | 6:59.63 | 115805 | 147292
5 | 32:43.68 | 24:28.34 | 147293 | 257426
6 | 57:12.27 | 5:02.32 | 257427 | 280108
7 | 62:14.59 | 9:57.44 | 280109 | 324927
Характеристики диапазона извлечения и сообщения об ошибках
Выбранный диапазон
Имя файла C:\Sikkil Gurucharan - Ramayanam.wav
Пиковый уровень 100.0 %
Скорость извлечения 7.0 X
CRC теста 0005CFEB
CRC копии 0005CFEB
Копирование... OK
Ошибок не произошло
Конец отчёта
==== Контрольная сумма отчёта 81784A4C0AD134DD37C9E80B9324F1915C6093C2732F40FD7F243A2816179A0C ====

Содержание индексной карты (.CUE)

REM GENRE Carnatic
REM DATE 2005
REM DISCID 6310EC07
REM COMMENT "ExactAudioCopy v1.1"
PERFORMER "Sikkil Gurucharan"
TITLE "Ramayanam"
FILE "Sikkil Gurucharan - Ramayanam.flac" WAVE
TRACK 01 AUDIO
TITLE "Saketa nagar (Sanskrit)"
PERFORMER "Sikkil Gurucharan"
INDEX 01 00:00:00
TRACK 02 AUDIO
TITLE "Deva Devam (Telugu)"
PERFORMER "Sikkil Gurucharan"
INDEX 01 13:04:37
TRACK 03 AUDIO
TITLE "Dasarata Sutha (Sanskrit)"
PERFORMER "Sikkil Gurucharan"
INDEX 00 20:26:58
INDEX 01 20:28:20
TRACK 04 AUDIO
TITLE "Kolam Kana (Tamil)"
PERFORMER "Sikkil Gurucharan"
INDEX 00 25:41:74
INDEX 01 25:44:05
TRACK 05 AUDIO
TITLE "Kalyana Rama (Tamil)"
PERFORMER "Sikkil Gurucharan"
INDEX 00 32:42:33
INDEX 01 32:43:68
TRACK 06 AUDIO
TITLE "Sita Kalyana (Telugu)"
PERFORMER "Sikkil Gurucharan"
INDEX 00 57:10:21
INDEX 01 57:12:27
TRACK 07 AUDIO
TITLE "07. Virutham Eppadi Manam (Tamil)"
PERFORMER "Sikkil Gurucharan"
INDEX 00 62:12:53
INDEX 01 62:14:59

CD2

01. Virutham E Ramuni (Tamil) - Bharata Pleads with Rama
02. Bhajare Manasa (Sanskrit) - The Glory of Rama

Лог создания рипа

Exact Audio Copy V1.1 from 23. June 2015
Отчёт EAC об извлечении, выполненном 4. ноября 2015, 19:58
Sikkil Gurucharan / Ramayanam
Дисковод: MATSHITADVD-RAM UJ8B0 Adapter: 1 ID: 0
Режим чтения : Скоростной
Коррекция смещения при чтении : 0
Способность читать области Lead-in и Lead-out : Нет
Заполнение пропущенных сэмплов тишиной : Да
Удаление блоков с тишиной в начале и конце : Нет
При вычислениях CRC использовались нулевые сэмплы : Да
Интерфейс : Встроенный Win32-интерфейс для Win NT/2000
Выходной формат : Пользовательский кодировщик
Выбранный битрейт : 896 kBit/s
Качество : Высокий
Добавление ID3-тега : Нет
Утилита сжатия : C:\flac.exe
Дополнительные параметры : -V -8 -T "Date=%year%" -T "Genre=%genre%" %source%
TOC извлечённого CD
Трек | Старт | Длительность | Начальный сектор | Конечный сектор
---------------------------------------------------------------------
1 | 0:00.00 | 34:31.19 | 0 | 155343
2 | 34:31.19 | 37:57.03 | 155344 | 326121
Характеристики диапазона извлечения и сообщения об ошибках
Выбранный диапазон
Имя файла C:\Sikkil Gurucharan - Ramayanam.wav
Пиковый уровень 100.0 %
Скорость извлечения 14.7 X
CRC теста EE612466
CRC копии EE612466
Копирование... OK
Ошибок не произошло
Конец отчёта
==== Контрольная сумма отчёта 532012684A1E778193ADF3E3482C811856776FAB0400397B48D266DA4DF8073E ====

Содержание индексной карты (.CUE)

REM GENRE Carnatic
REM DATE 2005
REM DISCID 0E10FC02
REM COMMENT "ExactAudioCopy v1.1"
PERFORMER "Sikkil Gurucharan"
TITLE "Ramayanam"
FILE "Sikkil Gurucharan - Ramayanam.flac" WAVE
TRACK 01 AUDIO
TITLE "Virutham E Ramuni (Tamil)"
PERFORMER "Sikkil Gurucharan"
FLAGS DCP
INDEX 01 00:00:00
TRACK 02 AUDIO
TITLE "Bhajare Manasa (Sanskrit)"
PERFORMER "Sikkil Gurucharan"
FLAGS DCP
INDEX 01 34:31:19

CD3

01. Virutham Vittuvidada (Tamil) - The Guise of Ravana
02. Virutham Anumane swamikinda (Tamil) - Sita gives Hanuman her Chudamani
03. Sarasa Sama Dana (Telugu) - The War Front
04. Ramanama Payasake (Kannada) - The Common Unison
05. Rama Jogi (Telugu) - The Beauty of Rama
06. Mamava Pattabi Rama (Sanskrit) - The Coronation
07. Gitarthamu (Telugu) - The Greatness of Hanuman

Лог создания рипа

Exact Audio Copy V1.1 from 23. June 2015
Отчёт EAC об извлечении, выполненном 4. ноября 2015, 21:13
Sikkil Gurucharan / Ramayanam
Дисковод: MATSHITADVD-RAM UJ8B0 Adapter: 1 ID: 0
Режим чтения : Скоростной
Коррекция смещения при чтении : 0
Способность читать области Lead-in и Lead-out : Нет
Заполнение пропущенных сэмплов тишиной : Да
Удаление блоков с тишиной в начале и конце : Нет
При вычислениях CRC использовались нулевые сэмплы : Да
Интерфейс : Встроенный Win32-интерфейс для Win NT/2000
Выходной формат : Пользовательский кодировщик
Выбранный битрейт : 896 kBit/s
Качество : Высокий
Добавление ID3-тега : Нет
Утилита сжатия : C:\flac.exe
Дополнительные параметры : -V -8 -T "Date=%year%" -T "Genre=%genre%" %source%
TOC извлечённого CD
Трек | Старт | Длительность | Начальный сектор | Конечный сектор
---------------------------------------------------------------------
1 | 0:00.00 | 10:18.27 | 0 | 46376
2 | 10:18.27 | 9:52.26 | 46377 | 90802
3 | 20:10.53 | 3:48.67 | 90803 | 107969
4 | 23:59.45 | 5:28.70 | 107970 | 132639
5 | 29:28.40 | 2:55.43 | 132640 | 145807
6 | 32:24.08 | 5:23.61 | 145808 | 170093
7 | 37:47.69 | 6:35.45 | 170094 | 199763
Характеристики диапазона извлечения и сообщения об ошибках
Выбранный диапазон
Имя файла C:\Sikkil Gurucharan - Ramayanam.wav
Пиковый уровень 100.0 %
Скорость извлечения 6.2 X
CRC теста 4FE45F59
CRC копии 4FE45F59
Копирование... OK
Ошибок не произошло
Конец отчёта
==== Контрольная сумма отчёта 535BEF07F980F49562C8B46011A08B77DD3B2D1D64BCED34B74945B461AFC8A3 ====

Содержание индексной карты (.CUE)

REM GENRE Carnatic
REM DATE 2005
REM DISCID 500A6707
REM COMMENT "ExactAudioCopy v1.1"
PERFORMER "Sikkil Gurucharan"
TITLE "Ramayanam"
FILE "Sikkil Gurucharan - Ramayanam.flac" WAVE
TRACK 01 AUDIO
TITLE "Virutham Vittuvidada (Tamil)"
PERFORMER "Sikkil Gurucharan"
FLAGS DCP
INDEX 01 00:00:00
TRACK 02 AUDIO
TITLE "Virutham Anumane swamikinda"
PERFORMER "Sikkil Gurucharan"
INDEX 01 10:18:27
TRACK 03 AUDIO
TITLE "Sarasa Sama Dana"
PERFORMER "Sikkil Gurucharan"
FLAGS DCP
INDEX 00 20:10:48
INDEX 01 20:10:53
TRACK 04 AUDIO
TITLE "Ramanama Payasake"
PERFORMER "Sikkil Gurucharan"
FLAGS DCP
INDEX 00 23:59:40
INDEX 01 23:59:45
TRACK 05 AUDIO
TITLE "Rama Jogi (Telugu)"
PERFORMER "Sikkil Gurucharan"
INDEX 00 29:28:35
INDEX 01 29:28:40
TRACK 06 AUDIO
TITLE "Mamava Pattabi Rama (Sanskrit)"
PERFORMER "Sikkil Gurucharan"
INDEX 00 32:24:02
INDEX 01 32:24:08
TRACK 07 AUDIO
TITLE "Gitarthamu (Telugu)"
PERFORMER "Sikkil Gurucharan"
INDEX 00 37:47:64
INDEX 01 37:47:69
[doutdess.site].t87792.torrent
Torrent: Registered [ 2015-11-05 00:20 ] · 9ED0338CB4C84E754979D6D9E28443378F8DD67B

17 KB

Status: checked
Completed: 1 times
Size: 790 MB
(Carnatic) Sikkil Gurucharan - Ramayanam (3 CD) - 2005, FLAC (image+.cue), lossless скачать торрент бесплатно и без регистрации

[Profile] [PM]
Forum Topic Author Size
Этническая музыка Индии lossless (Carnatic) Gayathri Girish - Rama Namam - 2006, FLAC (image+.cue), lossless RelizMAN 436 MB
Этническая музыка Индии lossless (Carnatic) K.J. Yesudas - Saint Thyagaraja Sri Rama Divya Namavali - 1990 (2009), FLAC (image+.cue), lossless RelizMAN 234 MB
Display posts:    

Current time is: 27-Sep 03:31

All times are UTC + 3



You cannot post new topics in this forum
You cannot reply to topics in this forum
You cannot edit your posts in this forum
You cannot delete your posts in this forum
You cannot vote in polls in this forum
You cannot attach files in this forum
You can download files in this forum