Search found 51 matches

Author Message

RelizMAN

Post 05-Jul-2020 13:05

[Quote]

Информация о фильме
Название: Великие океаны
Оригинальное название: Great Blue Wild
Год выхода: 2018
Жанр: Документальный, природа, флора, фауна
Режиссер: Дэн Хьюз
О фильме:
Океан покрывает около 70% нашей планеты и является домом для миллиона известных видов растений и животных. Но основной крупнейшей в мире пищевой сети - планктона - являются мельчайшие обитатели океана. Познакомьтесь поближе с китовыми акулами, дельфинами, гигантскими скатами мантой и захватывающими рыбными стаями. GREAT BLUE WILD - это ваш тур высокой четкости по подводному миру, в сочетании с увлекательными историями от профессионалов подводного плавания.

Страна: США, Канада
Студия: Blue Ant Media
Продолжительность: 4 x ~ 00:46:01
Перевод: Профессиональный (двухголосый закадровый)
Файл
Кодек: HEVC / Н.265
Качество: UHDTV 2160p
Видео: 3840x2160 (16:9), HEVC (Н.265), Main [email protected], ~ 15,6 Mbps, 50fps, 10 bits
Звук:
Русский 48 kHz, MPEG Layer 2, 2 ch, ~128.00 kbps avg
Английский 48 kHz, MPEG Layer 2, 2 ch, ~128.00 kbps avg
Семпл

MediaInfo

Complete name : D:ТоррентыФильмыДокументальныеВеликие океаны_S31. Дикий берег Южной Африки.ts
Format : MPEG-TS
File size : 5.36 GiB
Duration : 46 min 1 s
Overall bit rate mode : Variable
Overall bit rate : 16.7 Mb/s
Video
ID : 4881 (0x1311)
Menu ID : 34003 (0x84D3)
Format : HEVC
Format/Info : High Efficiency Video Coding
Format profile : Main [email protected]@Main
Codec ID : 36
Duration : 46 min 1 s
Bit rate : 15.6 Mb/s
Width : 3 840 pixels
Height : 2 160 pixels
Display aspect ratio : 16:9
Frame rate : 50.000 FPS
Standard : Component
Color space : YUV
Chroma subsampling : 4:2:0
Bit depth : 10 bits
Bits/(Pixel*Frame) : 0.038
Stream size : 5.01 GiB (94%)
Color range : Limited
Color primaries : BT.709
Transfer characteristics : BT.709
Matrix coefficients : BT.709
Audio #1
ID : 4882 (0x1312)
Menu ID : 34003 (0x84D3)
Format : MPEG Audio
Format version : Version 1
Format profile : Layer 2
Codec ID : 4
Duration : 46 min 1 s
Bit rate mode : Constant
Bit rate : 128 kb/s
Channel(s) : 2 channels
Sampling rate : 48.0 kHz
Frame rate : 41.667 FPS (1152 SPF)
Compression mode : Lossy
Delay relative to video : 96 ms
Stream size : 42.1 MiB (1%)
Language : Russian
Audio #2
ID : 4883 (0x1313)
Menu ID : 34003 (0x84D3)
Format : MPEG Audio
Format version : Version 1
Format profile : Layer 2
Codec ID : 4
Duration : 46 min 1 s
Bit rate mode : Constant
Bit rate : 128 kb/s
Channel(s) : 2 channels
Sampling rate : 48.0 kHz
Frame rate : 41.667 FPS (1152 SPF)
Compression mode : Lossy
Delay relative to video : 96 ms
Stream size : 42.1 MiB (1%)
Language : English

Содержание

01. Секреты Манты (Дикий берег Южной Африки) / Manta Mystery
Дикий берег Южной Африки простирается на 247 километров. Здесь встречаются воды Индийского и Атлантического океанов, в результате чего к побережью устремляются могучие волны. Манты едят планктон, а не рыбу. Так почему же океанические скаты манты, среди самых крупных видов, совершают ежегодное паломничество из вод Мозамбика вплоть до побережья Южной Африки, чтобы присутствовать на сардинском пробеге, крупнейшей в мире миграции морских животных?
02. Спасение гигантов / Save the Giants
Дикое побережье Мозамбика простирается более чем на 2575 километров. Морская флора и фауна в этом районе отличается потрясающим разнообразием. Богатые воды привлекают одних из крупнейших в мире фильтраторов.
03. Гиганты Мозамбика / Giants of Mozambic
Побережье Мозамбика славится своими гигантами: от горбатых китов, появляющихся каждую зиму, до местных китовых акул, которые кормятся там круглый год.
04. Жизнь в рамках пищевой цепи / Life in the Food Chain
В центре внимания находится планктон, самое маленькое из морских существ, которое лежит в основе крупнейшей в мире пищевой сети.

Скриншоты

Релиз от: kyba

RelizMAN

Post 28-Jun-2020 13:35

[Quote]

Информация о фильме
Название: Легенды / Герои дикой природы
Оригинальное название: Wildlife Icons
Год выхода: 2016
Жанр: Документальный, природа, флора, фауна
Режиссер: Руан Шлебуш
О фильме:
Документальный сериал рассказывает о жизни дикой природы во всех климатических поясах и природных зонах, на море, в воздухе и под водой. Вы узнаете о естественной среде обитания животных и их образе жизни. Познакомитесь с прекрасным миром диких скал, озер, ледников, джунглей, водопадов, ветров, снегов и песков. Документальные фильмы перенесут вас на побережье Патагонии, в затерянный мир Калахари, в священные места Раджастана, где вы узнаете о жизни морских черепах и необычных паукообразных обезьянах, столкнетесь с дикими кабанами и буйволами. Вы станете свидетелем того, как хищники выслеживают добычу и как спасаются преследуемые ими жертвы, какие увлекательные представления устраивают артисты джунглей, а также многих других не менее захватывающих приключений из жизни животных.

Страна: США
Студия: OFF The Fence
Продолжительность: 8 х ~00:44:28
Перевод: Профессиональный (одноголосый закадровый)
Файл
Кодек: HEVC / Н.265
Качество: UHDTV 2160p
Видео: 3840x2160 (16:9), HEVC (Н.265), Main [email protected], ~ 15,6 Mbps, 50fps, 10 bits
Звук:
Русский 48 kHz, MPEG Layer 2, 2 ch, ~128.00 kbps avg
Английский 48 kHz, MPEG Layer 2, 2 ch, ~128.00 kbps avg
Семпл

MediaInfo

Complete name : F:НаладкиЛегенды дикой природы_S11. Жизнь саванны.ts
Format : MPEG-TS
File size : 5.18 GiB
Duration : 44 min 28 s
Overall bit rate mode : Variable
Overall bit rate : 16.7 Mb/s
Video
ID : 4881 (0x1311)
Menu ID : 34003 (0x84D3)
Format : HEVC
Format/Info : High Efficiency Video Coding
Format profile : Main [email protected]@Main
Codec ID : 36
Duration : 44 min 28 s
Bit rate : 15.6 Mb/s
Width : 3 840 pixels
Height : 2 160 pixels
Display aspect ratio : 16:9
Frame rate : 50.000 FPS
Standard : Component
Color space : YUV
Chroma subsampling : 4:2:0
Bit depth : 10 bits
Bits/(Pixel*Frame) : 0.038
Stream size : 4.84 GiB (94%)
Color range : Limited
Color primaries : BT.709
Transfer characteristics : BT.709
Matrix coefficients : BT.709
Audio #1
ID : 4882 (0x1312)
Menu ID : 34003 (0x84D3)
Format : MPEG Audio
Format version : Version 1
Format profile : Layer 2
Codec ID : 4
Duration : 44 min 28 s
Bit rate mode : Constant
Bit rate : 128 kb/s
Channel(s) : 2 channels
Sampling rate : 48.0 kHz
Frame rate : 41.667 FPS (1152 SPF)
Compression mode : Lossy
Delay relative to video : 56 ms
Stream size : 40.7 MiB (1%)
Language : Russian
Audio #2
ID : 4883 (0x1313)
Menu ID : 34003 (0x84D3)
Format : MPEG Audio
Format version : Version 1
Format profile : Layer 2
Codec ID : 4
Duration : 44 min 28 s
Bit rate mode : Constant
Bit rate : 128 kb/s
Channel(s) : 2 channels
Sampling rate : 48.0 kHz
Frame rate : 41.667 FPS (1152 SPF)
Compression mode : Lossy
Delay relative to video : 56 ms
Stream size : 40.7 MiB (1%)
Language : English

Содержание

01. Жизнь саванны / Savanna Life
Занимая более 12 миллионов квадратных миль, саванна представляет собой огромный биом, занимающий почти половину поверхности Африки. Но этот культовый пейзаж также является живой, дышащей системой разнообразных видов растений и животных. Засвидетельствуйте динамические силы природы, которые управляют кругом жизни этой процветающей экосистемы.
02. Знакомство с сурикатами / Meet the Meerkats
Сурикаты могут быть маленькими и уязвимыми, но они также цепкие существа, которые процветают в неумолимой пустыне Калахари. От специально приспособленных глаз, которые уменьшают солнечные блики, до трудолюбивой способности строить сложные подземные туннели, посмотрите, как эти невероятные животные выживают в одной из самых суровых условий на Земле.
03. Навозные жуки_ природные утилизаторы / Dung Beetles. Nature's Recycler
Как навозное существо процветает, навозного жука легко отмахнуться. Но на самом деле это ключевой игрок в экосистеме Серенгети, перерабатывающий поток энергии, чтобы питать жизни каждого животного на равнинах - от самого маленького травоядного животного до самого крупного хищника. Поразитесь одному из самых трудных рабочих Серенгети во всей его решительной славе.
04. Большие кошки Африки / Africa's Big Cats
Национальный парк Крюгер в Южной Африке является одним из крупнейших заповедников на континенте. Здесь обитают сотни видов млекопитающих, птиц и рептилий. Такое изобилие животных означает наличие множества хищников, включая больших африканских кошек.
05. Большая пятерка Африки / Africa's Big Five
Пять ключевых видов Африки - лев, носорог, леопард, буйвол и слон - процветают благодаря разнообразным адаптациям. Власть в числах, опора на семейную единицу и борьба на вершине иерархии - это всего лишь несколько способов добиться успеха перед лицом вызовов природы.
06. Спрингбоки и импала - жизнь в стаде./ Springbok & Impala: Life in the Herd
За немногими исключениями, импала и спрингбок почти никогда не живут в одной среде обитания, и все же эти стада пасутся в удивительном количестве общих черт, таких как широкие предпочтения в еде и впечатляющая ловкость. Следите за жизненными циклами этих выносливых антилоп в дикой природе южной части Африки.
07. Гамадрилы Аваш / The Hamadryas of Awash
Бабуины-гамадрилы из Эфиопского национального парка Аваш являются находчивыми, выносливыми и, в случае их постоянного альфа-самца, строгими защитниками социальной иерархии клана. Вглядитесь в мир этого выносливого примата, когда отряд отправляется из своих скалистых домов в оазис в центре пустыни, на непростой ежедневный корм для еды.
08. Пожиратели объедков / Life in the Leftovers
Охотничьи привычки львов и гиен создают эффект домино в саванне, который поддерживает многих животных в пищевой цепи. Узнайте, как цепкие стервятники, ночные шакалы и даже крошечные жуки-пирушки празднуют, как только хищники-апексы добились успеха.

Скриншоты

Релиз от: kyba

RelizMAN

Post 24-Jun-2020 16:20

[Quote]

Информация о фильме
Название: Атака и защита / Хищник и жертва
Оригинальное название: Attack and Defend
Год выхода: 2015 - 2016
Жанр: Документальный, природа, флора, фауна
Режиссер: Чад Барклай
О фильме:
На всей планете каждое животное - хищник или жертва - обладает преимуществами выживания, отточенными миллионами лет эволюции. Наблюдайте за некоторыми из самых опытных выживших в природе, когда они проверяют свои таланты, и на карту поставлена их жизнь.

Страна: США
Студия: Blue Ant Media
Продолжительность: 6 х ~ 00:22:12
Перевод: Профессиональный (одноголосый закадровый)
Файл
Кодек: HEVC / Н.265
Качество: UHDTV 2160p
Видео: 3840x2160 (16:9), HEVC (Н.265), Main [email protected], ~ 15,6 Mbps, 50fps, 10 bits
Звук:
Русский 48 kHz, MPEG Layer 2, 2 ch, ~128.00 kbps avg
Английский 48 kHz, MPEG Layer 2, 2 ch, ~128.00 kbps avg
Семпл

MediaInfo

Complete name : M:ТоррентыАтака и защита1. Высшие хищники.ts
Format : MPEG-TS
File size : 2.59 GiB
Duration : 22 min 12 s
Overall bit rate mode : Variable
Overall bit rate : 16.7 Mb/s
Video
ID : 4881 (0x1311)
Menu ID : 34003 (0x84D3)
Format : HEVC
Format/Info : High Efficiency Video Coding
Format profile : Main [email protected]@Main
Codec ID : 36
Duration : 19 h 12 min
Bit rate : 15.6 Mb/s
Width : 3 840 pixels
Height : 2 160 pixels
Display aspect ratio : 16:9
Frame rate : 50.000 FPS
Standard : Component
Color space : YUV
Chroma subsampling : 4:2:0
Bit depth : 10 bits
Bits/(Pixel*Frame) : 0.038
Stream size : 125 GiB
Color range : Limited
Color primaries : BT.709
Transfer characteristics : BT.709
Matrix coefficients : BT.709
Audio #1
ID : 4882 (0x1312)
Menu ID : 34003 (0x84D3)
Format : MPEG Audio
Format version : Version 1
Format profile : Layer 2
Codec ID : 4
Duration : 22 min 12 s
Bit rate mode : Constant
Bit rate : 128 kb/s
Channel(s) : 2 channels
Sampling rate : 48.0 kHz
Frame rate : 41.667 FPS (1152 SPF)
Compression mode : Lossy
Delay relative to video : 88 ms
Stream size : 20.3 MiB (1%)
Language : Russian
Audio #2
ID : 4883 (0x1313)
Menu ID : 34003 (0x84D3)
Format : MPEG Audio
Format version : Version 1
Format profile : Layer 2
Codec ID : 4
Duration : 22 min 12 s
Bit rate mode : Constant
Bit rate : 128 kb/s
Channel(s) : 2 channels
Sampling rate : 48.0 kHz
Frame rate : 41.667 FPS (1152 SPF)
Compression mode : Lossy
Delay relative to video : 88 ms
Stream size : 20.3 MiB (1%)
Language : English

Содержание

01. Высшие хищники / African Apex Predators
Похоже, победу вэволюционной лотерее одержали высшие хищники. Эти виды охотятся и убивают с непревзойденной силой, используя при атаке виртуозные навыки и стратегии. Они - лидеры в своей игре, поднявшиеся на вершину пищевой цепи.
02. Хищные птицы / Sky Hunters
Хищные птицы - удивительные охотники. Они в совершенстве приспособились добывать себе пищу в самых разных условиях. В этой серии рассказывается о нескольких самых грозных хищных птицах Северной Америки.
03. Пожиратели насекомых / Insect Eaters
Каждому хищнику нужна специализация, и упорные пожиратели на секомых в этом по настоящему преуспели. Они нашли для себя практически неиссякаемый источник пищи - жуков.
04. Хладнокровные убийцы / Cold-Blooded Killers
С нашей точки зрения, хладнокровные хищники - жестокие, хитрые, запрограммированные убийцы. Но для них самих это всего лишь очередной день в мясной лавке. Познакомьтесь с одними из самых грозных хищников на планете.
05. Мастера обороны / Masters of Defense
Остаться в живых - первоочередная задача для этих мастеров обороны. Они с успехом продолжают обманывать хищников, используя такие хитрости, как мимикрия и яд.
06. Водяные войны / Underwater Warriors
От могущественных акул до за гадочных и прекрасных косяков рыб - под водой противостояние хищников и добычи не прекращается ни на минуту. Эти умные существа используют эволюционные преимущества, чтобы выжить.

Скриншоты

Релиз от: kyba

RelizMAN

Post 24-Jun-2020 01:50

[Quote]

Информация о фильме
Название: Ночная Москва
Оригинальное: Night Moscow
Год выхода: 2020
Жанр: Видовой
Режиссер: Anton Elchaninov
Описание:
Ночная Москва.
Страна: Россия
Продолжительность: 00:03:58
Перевод: Не требуется
Файл
Кодек: MPEG-4 AVC
Качество: WEBRip 2160p
Видео: 3840x2160, 16,4 Мбит/с, 25 кадр/с
Звук: AAC, 2 канала, 253 Кбит/с

Скриншоты

RelizMAN

Post 23-Jun-2020 02:35

[Quote]

Информация о фильме
Название: Икар
Оригинальное: Icarus
Год выхода: 2019
Режиссер: Vadim Sherbakov
О фильме:
От скал острова Скай до могучих Доломитовых Альп в Италии. От неземных исландских пейзажей до озерной колокольни в России.
Страна: Россия, Исландия, Италия
Продолжительность: 00:03:37
Перевод: Не требуется
Файл
Кодек: MPEG-4 AVC
Качество: WEBRip 2160p
Видео: 4096×1714, 21,7 Мбит/с, 24 кадр/с
Звук: AAC, 2 канала, 253 Кбит/с

Скриншоты

RelizMAN

Post 21-Jun-2020 12:35

[Quote]

Информация о фильме
Название: Дикая Бразилия
Оригинальное название: Brazil Untamed
Год выхода: 2016
Жанр: Документальный, природа, флора, фауна
Режиссер: Эммануэль Веха
О фильме:
Глубоко в сердце Бразилии лежит Пантанал, пышная заболоченная территория с невообразимым биоразнообразием. Все изо всех сил пытаются выжить перед лицом экстремальных сезонных преобразований и угрозы жестоких хищников. Окунитесь в бразильскую дикую природу в этой захватывающей новой серии, где за каждым углом скрывается потрясающая опасность.

Страна: США
Студия: Handel Productions Inc.
Продолжительность: ~ 00:46:03
Перевод: Профессиональный (одноголосый закадровый)
Файл
Кодек: HEVC / Н.265
Качество: UHDTV 2160p
Видео: 3840x2160 (16:9), HEVC (Н.265), Main [email protected], ~ 15,6 Mbps, 50fps, 10 bits
Звук:
Русский 48 kHz, MPEG Layer 2, 2 ch, ~128.00 kbps avg
Английский 48 kHz, MPEG Layer 2, 2 ch, ~128.00 kbps avg
Семпл

MediaInfo

Complete name : M:ТоррентыДикая Бразилия1. Сад обезьян.ts
Format : MPEG-TS
File size : 5.36 GiB
Duration : 46 min 3 s
Overall bit rate mode : Variable
Overall bit rate : 16.7 Mb/s
Video
ID : 4881 (0x1311)
Menu ID : 34003 (0x84D3)
Format : HEVC
Format/Info : High Efficiency Video Coding
Format profile : Main [email protected]@Main
Codec ID : 36
Duration : 14 h 42 min
Bit rate : 15.6 Mb/s
Width : 3 840 pixels
Height : 2 160 pixels
Display aspect ratio : 16:9
Frame rate : 50.000 FPS
Standard : Component
Color space : YUV
Chroma subsampling : 4:2:0
Bit depth : 10 bits
Bits/(Pixel*Frame) : 0.038
Stream size : 96.0 GiB
Color range : Limited
Color primaries : BT.709
Transfer characteristics : BT.709
Matrix coefficients : BT.709
Audio #1
ID : 4882 (0x1312)
Menu ID : 34003 (0x84D3)
Format : MPEG Audio
Format version : Version 1
Format profile : Layer 2
Codec ID : 4
Duration : 46 min 3 s
Bit rate mode : Constant
Bit rate : 128 kb/s
Channel(s) : 2 channels
Sampling rate : 48.0 kHz
Frame rate : 41.667 FPS (1152 SPF)
Compression mode : Lossy
Delay relative to video : 192 ms
Stream size : 42.2 MiB (1%)
Language : Russian
Audio #2
ID : 4883 (0x1313)
Menu ID : 34003 (0x84D3)
Format : MPEG Audio
Format version : Version 1
Format profile : Layer 2
Codec ID : 4
Duration : 46 min 3 s
Bit rate mode : Constant
Bit rate : 128 kb/s
Channel(s) : 2 channels
Sampling rate : 48.0 kHz
Frame rate : 41.667 FPS (1152 SPF)
Compression mode : Lossy
Delay relative to video : 192 ms
Stream size : 42.2 MiB (1%)
Language : English

Содержание

01. Сад обезьян / Monkey Garden
Сезон дождей прошел, и земля быстро высыхает. Впереди самое трудное время года - сезон засухи и пожаров. Пережить это трудное время нашим подопечным помогут упорство, изобретательность и взаимная поддержка.
02. Птичий рай / Bird Paradise
03. Праздник пекари / Peccary Party
04. Прибежище ягуаров / Jaguar Den
05. / Cat Country
06. / Amazon Monkey
07. / Capybara's Pond
08. / Rheas-Cerrado
09. / Giant Otter Refuge
10. / The Pantanal

Скриншоты

Релиз от: kyba

RelizMAN

Post 19-Jun-2020 04:50

[Quote]

Информация о фильме
Название: Ветер
Оригинальноее: Vindur
Год выхода: 2019
Жанр: Видовой
Режиссер: Vadim Sherbakov
О фильме:
Красивые водопады, бесконечные долины, необычные горные хребты, океанические скалы, старый ледник, фантастический каньон и многие другие чудеса, которые делают Исландию настолько уникальной и такой потрясающей для съёмок.
Страна: Исландия
Продолжительность: 00:02:55
Перевод: Не требуется
Файл
Кодек: MPEG-4 AVC
Качество: WEBRip 2160p
Видео: 4096×1714, 21,7 Мбит/с, 24 кадр/с
Звук: AAC, 2 канала, 253 Кбит/с

Скриншоты

RelizMAN

Post 16-Jun-2020 23:50

[Quote]

Информация о фильме
Название: Исландия
Оригинальное: Islandia
Год выхода: 2019
Жанр: Видовой
Режиссер: Vadim Sherbakov
О фильме:
От невероятных пейзажей и обширных долин до живописных ландшафтов и величественных водопадов и озёр.
Страна: Исландия
Продолжительность: 00:02:36
Перевод: Не требуется
Файл
Кодек: MPEG-4 AVC
Качество: WEBRip 2160p
Видео: 4096×1714, 19,4 Мбит/с, 24 кадр/с
Звук: AAC, 2 канала, 253 Кбит/с

Скриншоты

RelizMAN

Post 16-Jun-2020 02:35

[Quote]

Информация о фильме
Название: Швейцария
Оригинальное: Switzerland
Год выхода: 2019
Жанр: Видовой
Режиссер: Sam Ferrara
О фильме:
Видео с интервальной съёмкой в южной Швейцарии.
Страна: Швейцария
Продолжительность: 00:03:57
Перевод: Не требуется
Файл
Кодек: MPEG-4 AVC
Качество: WEBRip 2160p
Видео: 3840×2160, 20,8 Мбит/с, 24 кадр/с
Звук: AAC, 2 канала, 253 Кбит/с

Скриншоты

RelizMAN

Post 16-Jun-2020 02:35

[Quote]

Информация о фильме
Название: Стратегия жизни
Оригинальное название: Strategy of Life
Год выхода: 2017
Жанр: Документальный, природа, флора, фауна
Режиссер: Парк Сео-унг, Чео Чан-сеок
О фильме:
Какова конечная цель всего живого на Земле? Причина существования живых существ заключается в размножении, а передача генов своим потомкам является конечной целью. Но мать-природа недостаточно щедра, чтобы дать всем существам шанс продолжить свою видовую цепочку. Существа, живущие на планете Земля, должны бороться за возможность продолжить свой род, используя ограниченные ресурсы и пространство. Вот почему они разработали так называемые стратегии выживания, чтобы выиграть эту битву. Их стратегии выживания стали решающими для выживания и продолжения вида. В конце концов, эволюция живых организмов - это битва, в основе которой лежат разнообразные и уникальные стратегии выживания.
Страна: Южная Корея
Студия: EBS
Продолжительность: 2 х ~00:49:23
Перевод: Профессиональный (одноголосый закадровый) Си Эл Эс Медиа
Файл
Кодек: HEVC / Н.265
Качество: UHDTV 2160p
Видео: 3840x2160 (16:9), HEVC (Н.265), Main [email protected], ~ 16,1 Mbps, 50fps, 10 bits
Звук: Русский 48 kHz, A AC- LC Dolby Digital, 2/0 (L,R) ch, ~192.00 kbps avg
Семпл

MediaInfo

Complete name : M:ТоррентыСтратегия выживания1. Бесконечный отбор_ Брачная игра.ts
Format : MPEG-TS
File size : 5.94 GiB
Duration : 49 min 23 s
Overall bit rate mode : Variable
Overall bit rate : 17.2 Mb/s
Video
ID : 6161 (0x1811)
Menu ID : 18002 (0x4652)
Format : HEVC
Format/Info : High Efficiency Video Coding
Format profile : Main [email protected]@Main
Codec ID : 36
Duration : 14 h 29 min
Width : 3 840 pixels
Height : 2 160 pixels
Display aspect ratio : 16:9
Frame rate : 50.000 FPS
Standard : Component
Color space : YUV
Chroma subsampling : 4:2:0 (Type 0)
Bit depth : 10 bits
Color range : Limited
Color primaries : BT.709
Transfer characteristics : BT.709
Matrix coefficients : BT.709
Audio
ID : 6162 (0x1812)
Menu ID : 18002 (0x4652)
Format : AAC LC
Format/Info : Advanced Audio Codec Low Complexity
Format version : Version 4
Muxing mode : ADTS
Codec ID : 15-2
Duration : 49 min 23 s
Bit rate mode : Variable
Channel(s) : 2 channels
Channel layout : L R
Sampling rate : 48.0 kHz
Frame rate : 46.875 FPS (1024 SPF)
Compression mode : Lossy
Delay relative to video : 52 ms
Language : Russian

Скриншоты

Релиз от: kyba

RelizMAN

Post 15-Jun-2020 01:20

[Quote]

Информация о фильме
Название: В Иберию
Оригинальное: Into Iberia
Год выхода: 2019
Жанр: Видовой
Режиссер: Man And Drone
О фильме:
Воздушный полёт через некоторые из разнообразных ландшафтов над Иберией.
Страна: Испания и Португалия
Продолжительность: 00:03:47
Перевод: Не требуется
Файл
Кодек: MPEG-4 AVC
Качество: WEBRip 2160p
Видео: 3840x1634, 21,1 Мбит/с, 25 кадр/с
Звук: AAC, 2 канала, 253 Кбит/с

Скриншоты

RelizMAN

Post 15-Jun-2020 01:20

[Quote]

Информация о фильме
Название: Магия Гонконга
Оригинальное: Magic of Hong Kong
Год выхода: 2019
Жанр: Видовой
Режиссер: Timelab.pro
О фильме:
Азиатский город мира в захватывающем художественном видео от Timelab.pro
Страна: Китай
Продолжительность: 00:03:24
Перевод: Не требуется
Файл
Кодек: MPEG-4 AVC
Качество: WEB-DL 2160p
Видео: 3840×2042, 102 Мбит/с, 25 кадр/с
Звук: AAC, 2 канала, 317 Кбит/с

Скриншоты

RelizMAN

Post 15-Jun-2020 01:20

[Quote]

Информация о фильме
Название: Магия Гонконга
Оригинальное: Magic of Hong Kong
Год выхода: 2019
Жанр: Видовой
Режиссер: Timelab.pro
О фильме:
Азиатский город мира в захватывающем художественном видео от Timelab.pro
Страна: Китай
Продолжительность: 00:03:24
Перевод: Не требуется
Файл
Кодек: MPEG-4 AVC
Качество: WEBRip 2160p
Видео: 3840×2042, 22,4 Мбит/с, 25 кадр/с
Звук: AAC, 2 канала, 253 Кбит/с

Скриншоты

RelizMAN

Post 14-Jun-2020 01:50

[Quote]

Информация о фильме
Название: Будапешт
Оригинальное название: Budapest
Год выхода: 2019
Жанр: Видовой
Режиссер: Timelab.pro
О фильме:
Наша видео команда была очень впечатлена Будапештом - это феноменальный город. Он впитал лучшее из многих величайших городов Европы. Посмотрите внимательно на архитектуру, и вы найдёте что-то из всего - немного Парижа, немного Санкт-Петербурга, фрагменты Лондона ...
Страна: Венгрия
Продолжительность: 00:03:31
Перевод: Не требуется
Файл
Кодек: MPEG-4 AVC
Качество: WEBRip 2160p
Видео: 3944×2088, 23,4 Мбит/с, 25 кадр/с
Звук: AAC, 2 канала, 253 Кбит/с

Скриншоты

RelizMAN

Post 31-May-2020 15:35

[Quote]

Информация о фильме
Название: Дикие птицы Австралии
Оригинальное название: Wild Birds of Australia
Год выхода: 2016
Жанр: Документальный, природа, флора, фауна
Режиссер: Фил Стеббинг
О фильме:
Австралия является огромным островом-континентом с разнообразными местами обитания - включая пляжи, пустыни, луга и тропические леса - которые делают ее пристанищем для многих необычных и редких видов птиц. От самой крупной хищной птицы, орла с клиновидным хвостом, до эму, невероятного нелетающего чуда, проведите воздушную одиссею по жизни некоторых удивительных австралийских послов Австралии.

Страна: США
Студия: Blink Films
Продолжительность: 4 х ~00:46:03
Перевод: Профессиональный (одноголосый закадровый)
Файл
Кодек: HEVC/H.265
Качество: UHDTV 2160p
Видео: 3840x2160 (16:9), HEVC (Н.265), Main [email protected], ~ 15,6 Mbps, 50fps, 10 bits
Звук:
Русский 48 kHz, MPEG Layer 2, 2 ch, ~128.00 kbps avg
Английский 48 kHz, MPEG Layer 2, 2 ch, ~128.00 kbps avg
Семпл

MediaInfo

Complete name : M:ТоррентыДикие птицы Австралии1. Малый пингвин.ts
Format : MPEG-TS
File size : 5.36 GiB
Duration : 46 min 2 s
Overall bit rate mode : Variable
Overall bit rate : 16.7 Mb/s
Video
ID : 4881 (0x1311)
Menu ID : 34003 (0x84D3)
Format : HEVC
Format/Info : High Efficiency Video Coding
Format profile : Main [email protected]@Main
Codec ID : 36
Duration : 46 min 2 s
Bit rate : 15.6 Mb/s
Width : 3 840 pixels
Height : 2 160 pixels
Display aspect ratio : 16:9
Frame rate : 50.000 FPS
Standard : Component
Color space : YUV
Chroma subsampling : 4:2:0
Bit depth : 10 bits
Bits/(Pixel*Frame) : 0.038
Stream size : 5.01 GiB (94%)
Color range : Limited
Color primaries : BT.709
Transfer characteristics : BT.709
Matrix coefficients : BT.709
Audio #1
ID : 4882 (0x1312)
Menu ID : 34003 (0x84D3)
Format : MPEG Audio
Format version : Version 1
Format profile : Layer 2
Codec ID : 4
Duration : 46 min 2 s
Bit rate mode : Constant
Bit rate : 128 kb/s
Channel(s) : 2 channels
Sampling rate : 48.0 kHz
Frame rate : 41.667 FPS (1152 SPF)
Compression mode : Lossy
Delay relative to video : 100 ms
Stream size : 42.2 MiB (1%)
Language : Russian
Audio #2
ID : 4883 (0x1313)
Menu ID : 34003 (0x84D3)
Format : MPEG Audio
Format version : Version 1
Format profile : Layer 2
Codec ID : 4
Duration : 46 min 2 s
Bit rate mode : Constant
Bit rate : 128 kb/s
Channel(s) : 2 channels
Sampling rate : 48.0 kHz
Frame rate : 41.667 FPS (1152 SPF)
Compression mode : Lossy
Delay relative to video : 56 ms
Stream size : 42.2 MiB (1%)
Language : English

Содержание

01. Малый пингвин / The Little Penguin
Проследите за историей Гарри и Салли - пары маленьких пингвинов. Эти нелетающие птицы образуют одни из самых шумных поселений в природе.
02. Тайная жизнь Эму / The Emu
Эму - самая большая птица Австралии, вторая в мире после страуса. Ее отличает двухметровый рост, почти трехметровый шаг и полное неумение летать.
03. Воздушные охотники / Aerial Hunters
Хищные птицы Австралии - одни из самых беспощадных хищников региона. Эти узкоспециализированные убийцы отличаются силой и находчивостью и используют необыкновенное оружие, чтобы выжить. Это история воздушных охотников.
04. Родное гнездо / Feathering the Nest
Успешное размножение имеет решающее значение для выживания всех птиц.

Скриншоты

Релиз от: kyba
 

Current time is: 10-Jul 00:34

All times are UTC + 3