Search found 238 matches

Author Message

RelizMAN

Post 04-Jul-2020 13:55

[Quote]

Ray Martin And His Orchestra ‎– Goldfinger And Other Music From James Bond Thrillers
Жанр: Soundtrack
Носитель: LP
Год выпуска: 1965
Лейбл: RCA Camden
Страна-производитель: US
Аудио кодек: FLAC
Тип рипа: image+.cue
Формат записи: 24/96
Формат раздачи: 24/96
Продолжительность: 27:55
Треклист:
1. Goldfinger (From The Film "Goldfinger")
2. The James Bond Theme (From The Film "Dr. No")
3. Under The Mango Tree (From The Film "Dr. No")
4. From Russia With Love (From The Film "From Russia With Love")
5. Under Cover (From The Film "Goldfinger")
6. 007 (From The Film "From Russia With Love")
7. Girl Trouble (From The Film "From Russia With Love")
8. Honey’s Theme (From The Film "Goldfinger")
9. Jamaica Jump Up (From The Film "Dr. No")
10. Doublecross (From The Film "Goldfinger")
Источник оцифровки: автором раздачи
Код класса состояния винила: VG+
Устройство воспроизведения: AKAI AP 206C
Головка звукоснимателя: Denon dl 160
Предварительный усилитель: tube handmade
АЦП: M-Audio FireWire Audiophile
Программа-оцифровщик: soundforge 11
Обработка: iZotope RX 5 Audio Editor De-clip

Спектр / АЧХ / Уровень записи


RelizMAN

Post 03-Jul-2020 23:50

[Quote]

Ennio Morricone - Once Upon A Time In The West - 1973
Жанр: Soundtrack
Носитель: LP
Год выпуска: 1973
Лейбл: RCA Victor
Страна-производитель: Netherlands
Аудио кодек: FLAC
Тип рипа: image+.cue
Формат записи: 24/96
Формат раздачи: 24/96
Продолжительность: 38:06
Треклист:
1 Once Upon A Time In The West
2 As A Judgement
3 Farewell To Cheyenne
4 The Transgression
5 The First Tavern
6 The Second Tavern
7 Man With A Harmonica
8 A Dimly Lit Room
9 Bad Orchestra
10 The Man
11 Jill's America
12 Death Rattle
13 Finale
Источник оцифровки: автором раздачи
Код класса состояния винила: VG+
Устройство воспроизведения: AKAI AP 206C
Головка звукоснимателя: Denon dl 160
Предварительный усилитель: tube handmade
АЦП: M-Audio FireWire Audiophile
Программа-оцифровщик: soundforge 11
Обработка: iZotope RX 5 Audio Editor De-clip , click repair

Спектр/Уровень записи/АЧХ

RelizMAN

Post 03-Jul-2020 13:00

[Quote]

группа "Звезда" - Далекая Звезда
Жанр: Disco, Soundtrack, Pop,
Носитель: 7"
Год выпуска: 1983
Лейбл: Мелодия, МОЗГ
Страна-производитель: СССР
Аудио кодек: WavPack
Тип рипа: image+.cue
Формат записи: 32-192
Формат раздачи: 32-192
Продолжительность: 09:36
Треклист:
A Nazia Hassan - Скажи Мне, Что Любишь (Boom Boom) 5:10
B Zoheb Hassan - Ты Рядом (Ooie Ooie) 4:20
Источник оцифровки: автором раздачки
Код класса состояния винила: Ex/Ex-
Устройство воспроизведения: Micro Seiki DD-7
Головка звукоснимателя: Shure V15 III + Jico sas
Предварительный усилитель: K.I.V Sound - TT83SE (ver.2) (tubes от nikon200)
АЦП: RME 9632
Программа-оцифровщик: iZotope RX 5
Обработка: мелкие клики вручную

Спектр, АЧХ, Уровень записи

Дополнительно:
Песни из фильма "Звезда" (1982)
Рекомендую слушать в разжатом wav.
То же самое в mp3

RelizMAN

Post 02-Jul-2020 21:50

[Quote]

группа "Звезда" (Star) - Далекая Звезда
Жанр: Disco, Pop
Носитель: Soviet Blu-ray
Год выпуска: 1983
Лейбл: Мелодия, МОЗГ
Страна-производитель: СССР
Аудио кодек: WavPack
Тип рипа: image+.cue
Формат записи: 32-192
Формат раздачи: 32-192
Продолжительность: 09:36
Треклист:
A Nazia Hassan - Скажи Мне, Что Любишь (Boom Boom) 5:10
B Zoheb Hassan - Ты Рядом (Ooie Ooie) 4:20
Источник оцифровки: автором раздачки
Код класса состояния винила: Ex/Ex+
Устройство воспроизведения: Micro Seiki DD-7
Головка звукоснимателя: Shure V15 III + Jico sas
Предварительный усилитель: Yamaha C-2a
АЦП: RME 9632
Программа-оцифровщик: iZotope RX 5
Обработка: мелкие клики вручную

Спектр, АЧХ, Уровень записи

Дополнительно:
Песни из фильма "Звезда" (1982)Сканы тут или тутРекомендую слушать в разжатом wav.

RelizMAN

Post 26-Jun-2020 18:50

[Quote]

The Beatles "Yellow Submarine" unofficial sound track by 15ips-ru
Жанр: ROCK
Носитель: LP
Год выпуска: 1987
Лейбл: WB Home Video
Страна-производитель: Japan
Аудио кодек: FLAC
Тип рипа: tracks
Формат записи: 24/96
Формат раздачи: 24/96
Продолжительность: 29:00
Треклист:
01 Yellow Submarine
02 Eleanor Rigby
03 All Together Now
04 When I'm Sixty-Four
05 Only A Northern Song
06 Nowhere Man
07 Lucy In The Sky With Diamonds
08 Sgt. Pepper's Lonely Hearts Club Band
09 All You Need Is Love
10 Baby You're A Rich Man
11 It's All Too Much
12 All Together Now
Источник оцифровки: автором раздачи
Код класса состояния LD: Mint
Устройство воспроизведения: Pioneer CLD-515
АЦП: E-MU 0404 USB
Программа-оцифровщик: Adobe Audition
Обработка: Level only

АЧХ, Уровень записи, Спектр

Доп. информация: Оцифровка LaserDisk, вырезал только музыкальные номера. Сведение весьма необычное.

RelizMAN

Post 23-Jun-2020 22:45

[Quote]

Various ‎– A Little Night Music (Original Soundtrack Recording)
Жанр: Stage & Screen
Носитель: LP
Год выпуска: 1978
Лейбл: Columbia ‎– JS 35333
Страна-производитель: US
Аудио кодек: FLAC
Тип рипа: tracks
Формат записи: 24/96
Формат раздачи: 24/96
Продолжительность: 00:43:35
Треклист:
A1 Overture And Night Waltz (Love Takes Time) (4:18)
A2 The Glamourous Life (4:51)
A3 Now/Soon/Later (7:51)
A4 You Must Meet My Wife (3:51)
A5 Every Day A Little Death (2:26)
B1 Night Waltz (1:05)
B2 A Weekend In The Country (6:05)
B3 Send In The Clowns (4:15)
B4 It Would Have Been Wonderful (4:18)
B5 Finale: Send In The Clowns (Reprise), Night Waltz (4:30)
Источник оцифровки: автором раздачи
Код класса состояния винила: NM
Устройство воспроизведения: Pioneer PL-12D
Головка звукоснимателя: Shure M95ED
Предварительный усилитель: NAD Digital Phono/USB Preamp PP 3
АЦП: E-MU 0404 USB
Программа-оцифровщик: Adobe Audition 13
Обработка: ClickRepair (Declick: 20, Decrackle: off, Method: Wavelet x2)

Спектр

АЧХ

Уровень записи

RelizMAN

Post 19-Jun-2020 17:05

[Quote]

VA - Из фондов Государственного Дома радиовещания и звукозаписи (ГДРЗ) 20
Музыка из телефильма " Ирония судьбы или с легким паром 1977 "
Жанр: Ретро
Носитель: MB (СВЕМА А-2601-6 ( 38,1 см/с )) ( Дубль )
Лейбл: ГДРЗ
Страна-производитель: СССР
Аудио кодек: WavPack
Тип рипа: tracks
Формат записи: 32/192
Формат раздачи: 32/192
Продолжительность: 18:54
Треклист:
1. Вступление / Оркестр Кинематографии под управлением Георгия Гараняна / (Микаэл Таривердиев) 1977
2. Мне нравится / Алла Пугачева / (Микаэл Таривердиев / Марина Цветаева) 1977
3. Никого не будет в доме / Сергей Никитин / ( Микаэл Таривердиев / Борис Пастернак) 1977
4. У зеркала / Алла Пугачева / (Микаэл Таривердиев / Марина Цветаева) 1977
5. Со мною вот что происходит / Сергей Никитин / (Микаэл Таривердиев / Евгений Евтушенко) 1977
6. Я спросил у ясеня / Сергей Никитин / (Микаэл Таривердиев / Владимир Киршон) 1977
7. По улице моей / Алла Пугачева / (Микаэл Таривердиев / Белла Ахмадулина) 1977
8. Возвращение Ипполита / Оркестр Кинематографии под управлением Георгия Гараняна / (Микаэл Таривердиев) 1977
Источник оцифровки: frfr;t
Устройство воспроизведения: Mechlabor STM 310
АЦП: RME babyface PRO
Программа-оцифровщик: MAGIX Sequoia 13
Обработка: Нет

Спектр

АЧХ

Уровень записи

Оформление

RelizMAN

Post 11-May-2020 14:30

[Quote]

А. Рыбников - Песни из т/ф Про Красную Шапочку
Жанр: Soundtrack
Носитель: 7"
Год выпуска: 1978
Лейбл: Мелодия
Страна-производитель: СССР
Аудио кодек: WavPack
Тип рипа: image+.cue
Формат записи: 24/96
Формат раздачи: 24/96
Продолжительность: 15:30
Треклист:
1. Оля Рождественская - Песня Красной Шапочки [2:22]
2. Р. Быков - Песня Охотника [3:11]
3. Е. Евстигнеев - Песня О Мастерах [1:49]
4. Оля Рождественская и Ж. Рождественская - Необитаемый Остров [2:00]
5. Р. Зеленая и Е. Евстигнеев - Песня О Звездах [4:18]
6. Ж. Рождественская - Песня Волчицы [1:51]
Источник оцифровки: автором раздачи
Код класса состояния винила: Ex--
Устройство воспроизведения: Micro Seiki DD-8 + Shure M24H + VN45HE
Фонокорректор: KORG DS-DAC-10R
АЦП: KORG DS-DAC-10R
Программа-оцифровщик: AudioGate
Обработка: ClickRepair

СПЕКТР и УРОВЕНЬ

RelizMAN

Post 11-May-2020 00:25

[Quote]

- The Film Symphonic Orchestra
●★● Ballad Of A Soldier ●★●
-

Жанр : Soundtrack
Год выпуска диска : 1960
Страна-производитель : Japan
Лейбл : Polydor
Каталожный номер : DP-1201
Аудио кодек / Тип рипа : FLAC / side-image
Формат записи/раздачи : 24 bit/96 kHz
Класс состояния винила : EX
Продолжительность : 7:51
Релизер (оцифровщик): indy-73
Источник: из личной коллекции indy-73
Сканы: 600 dpi (*.jpg)

01. Ballad of a Soldier (Michael Siv)
02. Le voyage en ballon (Jean Prodromidès)

Артворк


Уровень+Спектр+АЧХ

Содержание индексной карты (.CUE)

REM GENRE SoundtrackREM DATE 1960REM COMMENT Ripped by indy-73PERFORMER "The Film Symphonic Orchestra"TITLE "Ballad of a Soldier [DP-1201]"FILE "Side_A.flac" WAVE  TRACK 01 AUDIO    TITLE "Ballad of a Soldier"    INDEX 01 00:00:00FILE "Side_B.flac" WAVE  TRACK 02 AUDIO    TITLE "Le voyage en ballon"    INDEX 01 00:00:00

Тех Данные

вертушка : Pioneer PL-50
головка-картридж : Ortofon Quintet Black S (0.3 mV)
шелл : Sansui 7.0 g
провода для картриджа : 5N Furukawa 30 AWG Silver Litz Leadwires
MC трансформатор : Cinemag CMQEE-3440AH (25 dB/1:18)
фонокорректор : Sander'Z MM Tube Phono Preamplifier [Fully Modded] (2 x 12AX7 Amperex Bugle Boy)
предусилитель : Parasound Zpre v.2
сетевой кабель предусилителя : Van den Hul The Mainsserver Hybrid
АЦП : E-MU 0404 USB (AKM AK5385A ADC)
кабель USB : Atlas Element A-B USB 2.0
интегральный усилитель : Parasound Zamp v.3
сетевой кабель усилителя : Van den Hul The Mainsstream Hybrid
межблочные кабели : Klotz MC5000/Furutech FP-126(G) + Van den Hul The Second
очистка иглы : Flux-Sonic Electronic Stylus Cleaner
программа-оцифровщик : Adobe Audition CC 2017.0.2 10.0.2.27
обработка : iZotope RX Advanced v2.10.656 (x64) De-click (1)
сжатие : foobar2000 v1.3.10 via FLAC 1.3.3

RelizMAN

Post 10-May-2020 17:55

[Quote]

Крылатые Качели - Песни из т/ф "Приключения Электроника"
Жанр: Soundtrack
Носитель: 10"
Год выпуска: 1982
Лейбл: Мелодия
Страна-производитель: СССР
Аудио кодек: WavPack
Тип рипа: image+.cue
Формат записи: 24/96
Формат раздачи: 24/96
Продолжительность: 20:55
Треклист:
01. Таня Мелехова - Качели [3:12]
02. Е. Камбурова - Мы Маленькие Дети [1:56]
03. В. Басов - Песенка Стампа [1:24]
04. Костя Елисеев - Это Знает Всякий [1:39]
05. Наташа Синькова - Песня О Колоколах [2:41]
06. Е. Камбурова - До Чего Дошел Прогресс [1:21]
07. Е. Камбурова - Грустная Песенка Сыроежкина [1:34]
08. Детский Хор п.у. И. Агафонникова - Заводные Игрушки [2:04]
09. Н. Караченцов - Песенка Урри [1:44]
10. Е. Камбурова - Это Что Же Такое [1:13]
11. Е. Шуенкова - Ты - Человек [2:07]
Источник оцифровки: автором раздачи
Код класса состояния винила: Ex
Устройство воспроизведения: Micro Seiki DD-8 + Shure M24H + VN45HE
Фонокорректор: KORG DS-DAC-10R
АЦП: KORG DS-DAC-10R
Программа-оцифровщик: AudioGate
Обработка: Сократил паузы + ClickRepair

СПЕКТР и УРОВЕНЬ

RelizMAN

Post 09-May-2020 22:25

[Quote]

- Y. Levitin
●★● ヨーロッパの解放 = Освобождение Европы ●★●
-

Жанр : Soundtrack
Композитор : Юрий Левитин
Год выпуска диска : октябрь 1969
Страна-производитель : Japan
Лейбл : Columbia / Мелодия
Каталожный номер : LL-2299-MK
Аудио кодек / Тип рипа : FLAC / side-image
Формат записи/раздачи : 24 bit/96 kHz
Класс состояния винила : EX
Продолжительность : 4:27
Релизер (оцифровщик): indy-73
Источник: из личной коллекции indy-73
Сканы: 600 dpi (*.jpg)

01. ヨーロッパの解放ーメイン・タイトル = Освобождение Европы 1 — 2.06
02. ヨーロッパの解放ー大マーチ = Освобождение Европы 2 — 2.14

Артворк


Уровень+Спектр+АЧХ

Содержание индексной карты (.CUE)

REM GENRE SoundtrackREM DATE 1969REM COMMENT Ripped by indy-73PERFORMER "Юрий Левитин"TITLE "Освобождение Европы [LL-2299-MK]"FILE "Side_A.flac" WAVE  TRACK 01 AUDIO    TITLE "Освобождение Европы 1"    INDEX 01 00:00:00FILE "Side_B.flac" WAVE  TRACK 02 AUDIO    TITLE "Освобождение Европы 2"    INDEX 01 00:00:00

Тех Данные

вертушка : Pioneer PL-50
головка-картридж : Ortofon Quintet Black S (0.3 mV)
шелл : Sansui 7.0 g
провода для картриджа : 5N Furukawa 30 AWG Silver Litz Leadwires
MC трансформатор : Cinemag CMQEE-3440AH (25 dB/1:18)
фонокорректор : Sander'Z MM Tube Phono Preamplifier [Fully Modded] (2 x 12AX7 Amperex Bugle Boy)
предусилитель : Parasound Zpre v.2
сетевой кабель предусилителя : Van den Hul The Mainsserver Hybrid
АЦП : E-MU 0404 USB (AKM AK5385A ADC)
кабель USB : Atlas Element A-B USB 2.0
интегральный усилитель : Parasound Zamp v.3
сетевой кабель усилителя : Van den Hul The Mainsstream Hybrid
межблочные кабели : Klotz MC5000/Furutech FP-126(G) + Van den Hul The Second
очистка иглы : Flux-Sonic Electronic Stylus Cleaner
мойка винила : Okki Nokki RCM II
программа-оцифровщик : Adobe Audition CC 2017.0.2 10.0.2.27
сжатие : foobar2000 v1.3.10 via FLAC 1.3.3

RelizMAN

Post 05-May-2020 20:10

[Quote]

Pierre BacheletCoup de tête
Жанр: Score
Носитель: LP
Год выпуска: 2019
Лейбл: Le Pop Club Records ‎/ PCR031
Страна-производитель: France
Аудио кодек: FLAC
Тип рипа: tracks
Формат записи: 24/96
Формат раздачи: 24/96
Продолжительность: 00:24:08
Треклист:
A1. Générique début
A2. En voyage
A3. L'inspecteur, le président et sa femme
A4. Sortie de prison
A5. Invitations à dîner
A6. Allez Trincamp
B1. Station service
B2. Hymne de Trincamp
B3. La victoire en fanfare
B4. La revanche
B5. Générique de fin
B6. Générique début (version alternative)
Jean-Jacques Annaud - Coup de tête (1979) - DVD9
Источник оцифровки: автором раздачи
Код класса состояния винила: VG
Устройство воспроизведения: Technics SL-1200MK2
Головка звукоснимателя: Audio-Technica VM540ML
Предварительный усилитель: Marantz PM5003
АЦП: Saffire Pro 24
Программа-оцифровщик: Cubase 7
Обработка: Click Removal (Audacity)

Спектр / АЧХ / Уровень записи



RelizMAN

Post 01-May-2020 12:35

[Quote]

Beavis And Butt-Head Do America - Original Soundtrack Страна-производитель: US
Жанр: Soundtrack
Год выпуска: 1996 (2016)
Производитель: Geffen Records
Номер по каталогу: B0023321-01
Аудио кодек: WavPack
Тип рипа: image+.cue
Продолжительность: 49:13
Формат записи: 32/192
Формат раздачи: 32/192
Наличие сканов : 600 dpi, JPG

Треклист:

A1 Isaac Hayes - Two Cool Guys (Theme From Beavis And Butt-Head Do America)
A2 Red Hot Chili Peppers - Love Rollercoaster
A3 LL Cool J - Ain't Nobody
A4 White Zombie - Ratfinks, Suicide Tanks And Cannibal Girls
A5 Rancid & Stubborn Allstars - I Wanna Riot
A6 Ozzy Osbourne - Walk On Water
B1 No Doubt - Snakes
B2 Madd Head - Pimp'n Ain't EZ
B3 Butthole Surfers - The Lord Is A Monkey (Rock Version)
B4 Southern Culture On The Skids - White Trash
B5 AC/DC - Gone Shootin'
B6 Engelbert Humperdinck - Lesbian Seagull


Оцифровка выполнена: bruk67 (автором раздачи)
Класс состояния винила: Mint
Устройство воспроизведения: YAMAHA GT-2000 + Oyaide MJ-12 + Clamp 580 g
Звукосниматель: Dynavector XX2MKII + Oyaide HSR-AG
Предварительный усилитель: YAMAHA C-4
АЦП: M-Audio ProFire 610
Программа-оцифровщик: Sound Forge Pro 12 Suite
Обработка: Неcколько мелких щелчков

Уровень/Спектр/АЧХ:



DR: 13

foobar2000 1.2.2 / Замер динамического диапазона (DR) 1.1.1Дата отчёта:  2020-04-30 21:05:33
--------------------------------------------------------------------------------Анализ: Butthole Surfers / Beavis And Butt-Head Do America - Original Soundtrack (LP) (1) Engelbert Humperdinck / Beavis And Butt-Head Do America - Original Soundtrack (LP) (2)--------------------------------------------------------------------------------
DR Пики RMS Продолжительность трека--------------------------------------------------------------------------------DR13 -0.28 дБ -14.70 дБ 4:44 ?-The Lord Is A Monkey (Rock Version)DR12 -1.91 дБ -16.68 дБ 3:53 ?-Lesbian Seagull--------------------------------------------------------------------------------
Количество треков: 2Реальные значения DR: DR12
Частота: 192000 ГцКаналов: 2Разрядность: 32Битрейт: 12288 кбит/сКодек: PCM================================================================================
--------------------------------------------------------------------------------Анализ: Isaac Hayes / Beavis And Butt-Head Do America - Original Soundtrack (LP) (1) LL Cool J / Beavis And Butt-Head Do America - Original Soundtrack (LP) (2) Madd Head / Beavis And Butt-Head Do America - Original Soundtrack (LP) (3)--------------------------------------------------------------------------------
DR Пики RMS Продолжительность трека--------------------------------------------------------------------------------DR13 -1.06 дБ -16.89 дБ 3:06 ?-Two Cool Guys (Theme From Beavis And Butt-Head Do America)DR14 -0.47 дБ -16.44 дБ 4:37 ?-Ain't NobodyDR12 -1.37 дБ -15.01 дБ 4:21 ?-Pimp'n Ain't EZ--------------------------------------------------------------------------------
Количество треков: 3Реальные значения DR: DR13
Частота: 192000 ГцКаналов: 2Разрядность: 32Битрейт: 12288 кбит/сКодек: PCM================================================================================
--------------------------------------------------------------------------------Статистика для: ?-SnakesКоличество сэмплов: 52656640Продолжительность: 4:34--------------------------------------------------------------------------------
Левый Правый
Пики: -1.44 дБ --- -2.15 дБСредний RMS: -16.29 дБ --- -16.35 дБDR канала: 12.11 дБ --- 12.02 дБ--------------------------------------------------------------------------------
Реальные значения DR: DR12
Частота: 192000 ГцКаналов: 2Разрядность: 32Битрейт: 12288 кбит/сКодек: PCM================================================================================--------------------------------------------------------------------------------Статистика для: ?-Walk On WaterКоличество сэмплов: 50094080Продолжительность: 4:21--------------------------------------------------------------------------------
Левый Правый
Пики: -1.72 дБ --- -1.39 дБСредний RMS: -15.06 дБ --- -14.58 дБDR канала: 12.27 дБ --- 12.01 дБ--------------------------------------------------------------------------------
Реальные значения DR: DR12
Частота: 192000 ГцКаналов: 2Разрядность: 32Битрейт: 12288 кбит/сКодек: PCM================================================================================--------------------------------------------------------------------------------Статистика для: ?-I Wanna RiotКоличество сэмплов: 45980160Продолжительность: 3:59--------------------------------------------------------------------------------
Левый Правый
Пики: -1.03 дБ --- -0.53 дБСредний RMS: -14.71 дБ --- -14.83 дБDR канала: 12.12 дБ --- 12.64 дБ--------------------------------------------------------------------------------
Реальные значения DR: DR12
Частота: 192000 ГцКаналов: 2Разрядность: 32Битрейт: 12288 кбит/сКодек: PCM================================================================================--------------------------------------------------------------------------------Анализ: Red Hot Chili Peppers / Beavis And Butt-Head Do America - Original Soundtrack (LP) (1) Southern Culture On The Skids / Beavis And Butt-Head Do America - Original Soundtrack (LP) (2)--------------------------------------------------------------------------------
DR Пики RMS Продолжительность трека--------------------------------------------------------------------------------DR12 -0.37 дБ -14.45 дБ 4:38 ?-Love RollercoasterDR12 -0.87 дБ -14.21 дБ 2:02 ?-White Trash--------------------------------------------------------------------------------
Количество треков: 2Реальные значения DR: DR12
Частота: 192000 ГцКаналов: 2Разрядность: 32Битрейт: 12288 кбит/сКодек: PCM================================================================================
--------------------------------------------------------------------------------Статистика для: ?-Ratfinks, Suicide Tanks And Cannibal GirlsКоличество сэмплов: 44689920Продолжительность: 3:53--------------------------------------------------------------------------------
Левый Правый
Пики: -0.45 дБ --- -0.30 дБСредний RMS: -14.61 дБ --- -15.17 дБDR канала: 12.16 дБ --- 12.92 дБ--------------------------------------------------------------------------------
Реальные значения DR: DR13
Частота: 192000 ГцКаналов: 2Разрядность: 32Битрейт: 12288 кбит/сКодек: PCM================================================================================
Огромное Спасибо DifXYZ за материал!

RelizMAN

Post 27-Apr-2020 00:40

[Quote]

Barbara Harris, Larry Blyden, Alan Alda ‎– The Apple Tree
Жанр: Musical
Носитель: LP
Год выпуска: 1966
Лейбл: Columbia ‎– KOS 3020
Страна-производитель: US
Аудио кодек: FLAC
Тип рипа: tracks
Формат записи: 24/192
Формат раздачи: 24/192
Продолжительность: 00:54:58
Треклист:
Part 1 - The Diary Of Adam And Eve
A1.1 –"The Apple Tree" Orchestra Prelude (3:51)
A1.2 –Barbara Harris Here In Eden
A2 –Barbara Harris Feelings (1:22)
A3 –Alan Alda Eye (3:09)
A4 –Barbara Harris Friends (2:07)
A5 –Larry Blyden The Apple Tree (Forbidden Fruit) (2:37)
A6 –Alan Alda Beautiful, Beautiful World (2:13)
A7 –Barbara Harris Go To Sleep; Whatever You Are (1:23)
A8 –Alan Alda It's A Fish (1:48)
A9 –Barbara Harris What Makes Me Love Him? (3:29)
Part 2 - The Lady Or The Tiger?
A10 –Larry Blyden And Company Prelude: I'll Tell You A Truth; Make Way (4:13)
B1 –Barbara Harris, Alan Alda Forbidden Love (In Gaul) (3:25)
B2 –Barbara Harris, Larry Blyden I've Got What You Want (3:00)
B3 –Barbara Harris Tiger, Tiger (2:00)
B4 –Marc Jordan, Alan Alda, Barbara Harris (2), Larry Blyden And Company Make Way: Reprise:; Which Door; The Lady Or The Tiger? (3:42)
Part 3 - Passionella
B5 –Barbara Harris Prelude And Oh, To Be A Movie Star (4:34)
B6 –Barbara Harris Gorgeous (1:44
B7 –Barbara Harris And Company Who Is She? (1:23)
B8 –Barbara Harris And Company I Know And Wealth (4:05)
B9 –Alan Alda And Company You Are Not Real (2:41)
B10 –Barbara Harris, Alan Alda And Company Finale (2:11)
Источник оцифровки: автором раздачи
Код класса состояния винила: NM
Устройство воспроизведения: Pioneer PL-12D
Головка звукоснимателя: Shure M95HE
Предварительный усилитель: NAD Digital Phono/USB Preamp PP 3
АЦП: E-MU 0202 USB
Программа-оцифровщик: Adobe Audition 13
Обработка: Удаление щелчков вручную

Спектр/АЧХ/Уровень записи


RelizMAN

Post 25-Apr-2020 15:20

[Quote]

Раймонд Паулс - Сестра Керри
Жанр: Musical
Носитель: LP
Год выпуска: 1980
Лейбл: Мелодия
Страна-производитель: CCCP
Аудио кодек: WavPack
Тип рипа: image+.cue
Формат записи: 24/96
Формат раздачи: 24/96
Продолжительность: 39:21
Треклист:
01. Пролог [4:56]
02. Песенка Керри [3:18]
03. Тип-топ [1:58]
04. Песенка Друэ [3:26]
05. Дуэт Керри и Герствуда [3:52]
06. Танец в масках [2:31]
07. Песня Керри [3:27]
08. Детективы [2:26]
09. Капли дождя [3:01]
10. Песенка Друэ о гусе [2:22]
11. Песня Герствуда [2:29]
12. Песня нищих [2:21]
13. Эпилог [3:15]
Источник оцифровки: автором раздачи
Код класса состояния винила: Ex-
Устройство воспроизведения: Technics SL-150 MkII + Shure V15 Type IV
Фонокорректор: 2-x блочный, гибридный (Tesla E88CC + 15-79)
АЦП: E-MU 0404 USB
Программа-оцифровщик: Adobe Audition
Обработка: ClickRepair

СПЕКТР и УРОВЕНЬ

 

Current time is: 08-Jul 14:01

All times are UTC + 3