Search found 83 matches

Author Message

RelizMAN

Post 29-Jun-2020 06:20

[Quote]

Markscheider Kunst / Freedom- Жанр: Ska / Reggae / Latin
Год издания диска: 2020
Издатель (лейбл): Markscheider Kunst
Страна: Россия
Аудиокодек: MP3
Тип рипа: tracks
Битрейт аудио: 320 kbps
Продолжительность: 00:40:38
Треклист:
01. Колыбельная
02. FREEDOM
03. Сила Урала
04. Весна
05. Habana Cuba
06. Марс
07. Old School
08. Маша
09. Солдаты Джи (Remix 2020)
-

RelizMAN

Post 07-Jun-2020 15:20

[Quote]

Батарея (Группа Батарея) / (Коллекция 13 релизов)
Жанр: Punk Rock, Ska-Punk
Год издания диска: 2008 - 2019
Страна: Россия (Санкт-Петербург)
Аудиокодек: MP3
Тип рипа: tracks
Битрейт аудио: 320 kbps
Продолжительность: 02:39:30
Треклист:

2008 - При параде (00:48:00)

01. Дискотека 03:36
02. Сказка 04:27
03. Ясли номер сорок восемь 03:22
04. Покемоны 04:49
05. Китайская 03:35
06. Антилопа 04:14
07. Шлюха 03:22
08. Санчо с ранчо 03:54
09. Коала 05:04
10. Малыши 03:28
11. Другая сказка 04:26
12. Другая дискотека 03:35

2011 - Радиация Cолнце (00:41:35)

01. Радиация Cолнце 03:31
02. No Time to Cry 02:57
03. Пиво 03:18
04. Качественно и сразу 02:27
05. Латино, мама 02:31
06. Совы 04:59
07. Дождь 03:07
08. Пулково один 02:40
09. Советский паспорт 03:04
10. Айсберг 03:35
11. Сраный ковбой 03:12
12. Мужское диско 02:50
13. Другое пиво 03:18

2014 - Радио «<~~>» (00:20:43)

01. Марадона 02:36
02. Радио «<~~>» 02:34
03. Пай 02:15
04. Клуб 02:40
05. В наших силах 03:25
06. Настроение 02:47
07. Мишки 01:48
08. Радио «Фигня» 02:34

2018 - В новый год, новый гад (Single&#41; (03&#58;51&#41;

01. В новый год, новый гад 03:51
https://music.yandex.ru/album/6392414

2018 - Всё &lt;~~&gt;, давай по новой (Single&#41; (03&#58;37&#41;

01. Всё <~~>, давай по новой 03:37
https://music.yandex.ru/album/6031885

2018 - Главное, до осени, братцы, не схуяриться (Single&#41; (03&#58;06&#41;

01. Главное, до осени, братцы, не схуяриться 03:06
https://music.yandex.ru/album/5656629

2018 - Для любимых (Single&#41; (02&#58;36&#41;

01. Для любимых 02:36
https://music.yandex.ru/album/6255936

2018 - За Зенитушку (Single&#41; (04&#58;24&#41;

01. За Зенитушку 04:24
https://music.yandex.ru/album/5908008

2018 - Мой &lt;~~&gt; смм без вашего говна (Single&#41; (03&#58;12&#41;

01. Мой <~~> смм без вашего говна 03:12
https://music.yandex.ru/album/5772061

2019 - Вот раньше было (Single&#41; (03&#58;28&#41;

01. Вот раньше было 03:28
https://music.yandex.ru/album/7237827

2019 - Два на покойника (EP&#41; (00&#58;06&#58;18&#41;

01. Трупы 02:57
02. Алкоголик 03:20
https://music.yandex.ru/album/6750240

2019 - Жопа-дирижабль (Single&#41; (02&#58;34&#41;

01. Жопа-дирижабль 02:34
https://music.yandex.ru/album/7768844

2019 - Пятая точка (00&#58;16&#58;01&#41;

01. Подмандил и сдал дороже 02:32
02. Угандошился вкрай 01:57
03. Ты пиздишь, как дышишь 02:24
04. Жопкин хор 02:50
05. Дротики 03:05
06. Я артист, а ты говно 03:11
Доп. информация: Дополнение к https://rutracker.org/forum/viewtopic.php?t=3746214

Об исполнителе (группе&#41;

Группа &#34;БАТАРЕЯ&#34;

об исполнителе http://producer.stillavin.pro/?p=1250
Группа "Батарея" - это коллектив творческих людей, которые пишут и исполняют красивую мелодичную музыку с циничными, характерными для ска-панка, текстами. Коллектив, которого ждали тысячи эстетов, впавших в зависимость от виртуальных и реальных сред обитания. Легкое дыхание западничества, аристократичность, недремлющая чувственность и вкусные аранжировки рождают стиль, именуемый критиками «live ska punk» («живой ска-панк»), что не отменяет и более привычное для группы определение: «brass punk». Группа «БАТАРЕЯ» на данный момент являет собой девятерых бойцов невидимого фронта, подхватывающих знамя легендарного стиля из рук английских модников. Их музыка – это сочетание бескомпромиссной стильности и гламурного блеска, не очерченного жесткими стилистическими рамками. ⇨
СОСТАВ: Роман Батарейкин (вокал) Роман Шиндер (гитара) Павел Чемаров (барабашки) Вадим Бурдонос (бас-гитара) Владимир Шашков (лидер-труба) Николай Логинов (тромбон) Алексей Симоненко (тенор-саксофон) Александр Абалов (аккордеон и орган) Сергей Шпуль (звукорежиссёр) ⇨

RelizMAN

Post 11-Mar-2020 17:10

[Quote]

Skaльпель / Ska на меди водосточных труб + Prosperity (EP)
Количество релизов (альбомов / синглов / EP/ сборников): 2
Жанр: Ska
Страна-производитель диска: Россия
Издатель (лейбл): BRP Records
Страна: Россия
Аудиокодек: FLAC
Тип рипа: image+.cue
Битрейт аудио: lossless
Продолжительность: 00:58:52
Источник: собственный рип
Наличие сканов в содержимом раздачи: да

2002 - Ska на меди водосточных труб

Год записи диска: 2002
Год издания диска: 2002
Издатель (лейбл): BRP Records
Номер по каталогу: BRP-004
Продолжительность: 00:35:37
Треклист:
1. Сухой закон
2. Праздник
3. Про пиво
4. Друзья
5. Буйство амбиций
6. Город
7. Кинг-конг
8. А вы могли бы?
9. Потанцуй со мной
10. Между нами города
11. А message to you, rudy
12. Be prepared
13. Про котов
14. Skaльпель

Лог создания рипа

Exact Audio Copy V1.3 from 2. September 2016
Отчёт EAC об извлечении, выполненном 10. марта 2020, 14:30
Skaльпель / Ska на меди водосточных труб
Дисковод: ATAPI iHAS122 C Adapter: 1 ID: 0
Режим чтения : ДостоверностьИспользование точного потока : ДаОтключение кэша аудио : ДаИспользование указателей C2 : Нет
Коррекция смещения при чтении : 6Способность читать области Lead-in и Lead-out : НетЗаполнение пропущенных сэмплов тишиной : ДаУдаление блоков с тишиной в начале и конце : НетПри вычислениях CRC использовались нулевые сэмплы : ДаИнтерфейс : Встроенный Win32-интерфейс для Win NT/2000
Выходной формат : Пользовательский кодировщикВыбранный битрейт : 768 kBit/sКачество : ВысокийДобавление ID3-тега : НетУтилита сжатия : C:\Program Files\Exact Audio Copy\FLAC\FLAC.EXEДополнительные параметры : -V -8 -T "Date=%year%" -T "Genre=%genre%" %source%
TOC извлечённого CD
Трек | Старт | Длительность | Начальный сектор | Конечный сектор --------------------------------------------------------------------- 1 | 0:00.00 | 1:26.49 | 0 | 6498 2 | 1:26.49 | 2:41.36 | 6499 | 18609 3 | 4:08.10 | 3:30.50 | 18610 | 34409 4 | 7:38.60 | 2:44.36 | 34410 | 46745 5 | 10:23.21 | 2:45.21 | 46746 | 59141 6 | 13:08.42 | 1:36.54 | 59142 | 66395 7 | 14:45.21 | 3:16.05 | 66396 | 81100 8 | 18:01.26 | 2:04.23 | 81101 | 90423 9 | 20:05.49 | 2:50.06 | 90424 | 103179 10 | 22:55.55 | 2:41.20 | 103180 | 115274 11 | 25:37.00 | 3:17.00 | 115275 | 130049 12 | 28:54.00 | 3:14.05 | 130050 | 144604 13 | 32:08.05 | 1:37.45 | 144605 | 151924 14 | 33:45.50 | 1:51.35 | 151925 | 160284
Характеристики диапазона извлечения и сообщения об ошибках
Выбранный диапазон
Имя файла D:\Музыка\Skaльпель -‎ 2002. Ska на меди водосточных труб (BRP Records, BRP-004)\Skaльпель - Ska на меди водосточных труб.wav
Пиковый уровень 100.0 % Скорость извлечения 5.2 X Качество диапазона 100.0 % CRC теста A2F804AC CRC копии A2F804AC Копирование... OK
Ошибок не произошло
AccurateRip: сводка
Трек 1 отсутствует в базе данныхТрек 2 отсутствует в базе данныхТрек 3 отсутствует в базе данныхТрек 4 отсутствует в базе данныхТрек 5 отсутствует в базе данныхТрек 6 отсутствует в базе данныхТрек 7 отсутствует в базе данныхТрек 8 отсутствует в базе данныхТрек 9 отсутствует в базе данныхТрек 10 отсутствует в базе данныхТрек 11 отсутствует в базе данныхТрек 12 отсутствует в базе данныхТрек 13 отсутствует в базе данныхТрек 14 отсутствует в базе данных
Ни одного трека нет в базе AccurateRip
Конец отчёта
---- CUETools DB Plugin V2.1.6
[CTDB TOCID: wmC9s6u.ie85BHHaAuAYHJ2hKQU-] disk not present in databaseSubmit result: wmC9s6u.ie85BHHaAuAYHJ2hKQU- has been uploaded
==== Контрольная сумма отчёта 77BDE9D0AD61F5C2FC1ED928AD0610CD2FF427D07988BAAA674BCCB6DB9563A8 ====

Содержание индексной карты (.CUE&#41;

REM GENRE SkaREM DATE 2002REM DISCID BA08590EREM COMMENT "ExactAudioCopy v1.3"PERFORMER "Skaльпель"TITLE "Ska на меди водосточных труб"REM COMPOSER ""FILE "Skaльпель - Ska на меди водосточных труб.flac" WAVE  TRACK 01 AUDIO    TITLE "Сухой закон"    PERFORMER "Skaльпель"    REM COMPOSER ""    INDEX 01 00:00:00  TRACK 02 AUDIO    TITLE "Праздник"    PERFORMER "Skaльпель"    REM COMPOSER ""    INDEX 00 01:24:46    INDEX 01 01:26:49  TRACK 03 AUDIO    TITLE "Про пиво"    PERFORMER "Skaльпель"    REM COMPOSER ""    INDEX 00 04:05:06    INDEX 01 04:08:10  TRACK 04 AUDIO    TITLE "Друзья"    PERFORMER "Skaльпель"    REM COMPOSER ""    INDEX 00 07:36:57    INDEX 01 07:38:60  TRACK 05 AUDIO    TITLE "Буйство амбиций"    PERFORMER "Skaльпель"    REM COMPOSER ""    INDEX 00 10:20:17    INDEX 01 10:23:21  TRACK 06 AUDIO    TITLE "Город"    PERFORMER "Skaльпель"    REM COMPOSER ""    INDEX 00 13:05:38    INDEX 01 13:08:42  TRACK 07 AUDIO    TITLE "Кинг-конг"    PERFORMER "Skaльпель"    REM COMPOSER ""    INDEX 00 14:42:17    INDEX 01 14:45:21  TRACK 08 AUDIO    TITLE "А вы могли бы"    PERFORMER "Skaльпель"    REM COMPOSER ""    INDEX 00 17:58:22    INDEX 01 18:01:26  TRACK 09 AUDIO    TITLE "Потанцуй со мной"    PERFORMER "Skaльпель"    REM COMPOSER ""    INDEX 00 20:03:46    INDEX 01 20:05:49  TRACK 10 AUDIO    TITLE "Между нами города"    PERFORMER "Skaльпель"    REM COMPOSER ""    INDEX 00 22:53:52    INDEX 01 22:55:55  TRACK 11 AUDIO    TITLE "А message to you, rudy"    PERFORMER "Skaльпель"    REM COMPOSER ""    INDEX 00 25:34:72    INDEX 01 25:37:00  TRACK 12 AUDIO    TITLE "Be prepared"    PERFORMER "Skaльпель"    REM COMPOSER ""    INDEX 00 28:51:72    INDEX 01 28:54:00  TRACK 13 AUDIO    TITLE "Про котов"    PERFORMER "Skaльпель"    REM COMPOSER ""    INDEX 00 32:06:02    INDEX 01 32:08:05  TRACK 14 AUDIO    TITLE "Skaльпель"    PERFORMER "Skaльпель"    REM COMPOSER ""    INDEX 00 33:44:48    INDEX 01 33:45:50

Об альбоме (сборнике&#41;

Альбом «Ska на меди водосточных труб» - дебютный альбом группы, записанный в 2002 году. Ему было характерно довольно лаконичное звучание и легкое, почти танцевальное, настроение, свойственное английскому ска конца 70-х. Несмотря на это, в одной из рецензий он был рекомендован, как поклонникам современного ска-панка, так и любителям классического джаза.

Состав

Фалин Андрей - вокал
Шамшурин Андрей - гитара, вокал, бэки
Зязиков Дмитрий - бас
Агапов Ростислав - барабаны
Макарчук Сергей - клавиши
Лазарев Дмитрий - тромбон
Паравана Андрей - саксофон

2004 - Prosperity (EP&#41;

Год записи диска: 2004
Год издания диска: 2008
Издатель (лейбл): BRP Records
Номер по каталогу: BRP-029
Продолжительность: 00:23:15
Треклист:
1. Ужасы
2. Prosperity
3. Rudeboy In Love
4. Друзья
5. Я не хочу рРаботать
6. Буйство амбиций
7. Things I Hate
8. Иногда я был бы рад

Лог создания рипа

Exact Audio Copy V1.3 from 2. September 2016
Отчёт EAC об извлечении, выполненном 27. января 2020, 13:34
Skaльпель / Prosperity
Дисковод: ATAPI iHAS122 C Adapter: 1 ID: 0
Режим чтения : ДостоверностьИспользование точного потока : ДаОтключение кэша аудио : ДаИспользование указателей C2 : Нет
Коррекция смещения при чтении : 6Способность читать области Lead-in и Lead-out : НетЗаполнение пропущенных сэмплов тишиной : ДаУдаление блоков с тишиной в начале и конце : НетПри вычислениях CRC использовались нулевые сэмплы : ДаИнтерфейс : Встроенный Win32-интерфейс для Win NT/2000
Выходной формат : Пользовательский кодировщикВыбранный битрейт : 768 kBit/sКачество : ВысокийДобавление ID3-тега : НетУтилита сжатия : C:\Program Files\Exact Audio Copy\FLAC\FLAC.EXEДополнительные параметры : -V -8 -T "Date=%year%" -T "Genre=%genre%" %source%
TOC извлечённого CD
Трек | Старт | Длительность | Начальный сектор | Конечный сектор --------------------------------------------------------------------- 1 | 0:00.00 | 2:45.00 | 0 | 12374 2 | 2:45.00 | 2:51.52 | 12375 | 25251 3 | 5:36.52 | 2:32.10 | 25252 | 36661 4 | 8:08.62 | 2:57.53 | 36662 | 49989 5 | 11:06.40 | 2:40.21 | 49990 | 62010 6 | 13:46.61 | 2:33.74 | 62011 | 73559 7 | 16:20.60 | 3:31.48 | 73560 | 89432 8 | 19:52.33 | 3:23.41 | 89433 | 104698
Характеристики диапазона извлечения и сообщения об ошибках
Выбранный диапазон
Имя файла D:\Музыка\Skaльпель -‎ Prosperity (2008, BRP Records, BRP-029)\Skaльпель - Prosperity.wav
Пиковый уровень 96.5 % Скорость извлечения 4.7 X Качество диапазона 100.0 % CRC теста CB406C01 CRC копии CB406C01 Копирование... OK
Ошибок не произошло
AccurateRip: сводка
Трек 1 отсутствует в базе данныхТрек 2 отсутствует в базе данныхТрек 3 отсутствует в базе данныхТрек 4 отсутствует в базе данныхТрек 5 отсутствует в базе данныхТрек 6 отсутствует в базе данныхТрек 7 отсутствует в базе данныхТрек 8 отсутствует в базе данных
Ни одного трека нет в базе AccurateRip
Конец отчёта
---- CUETools DB Plugin V2.1.6
[CTDB TOCID: FAMrc7Ozx5AJ9ejaNBPw5RhrQfk-] disk not present in databaseSubmit result: FAMrc7Ozx5AJ9ejaNBPw5RhrQfk- has been uploaded
==== Контрольная сумма отчёта 4831E27F86CD15F241B89BF1AC9210F32B2229F04C1AB78AF12DAB7333F27A89 ====

Содержание индексной карты (.CUE&#41;

REM GENRE SkaREM DATE 2008REM DISCID 73057308REM COMMENT "ExactAudioCopy v1.3"PERFORMER "Skaльпель"TITLE "Prosperity"REM COMPOSER ""FILE "Skaльпель - Prosperity.flac" WAVE  TRACK 01 AUDIO    TITLE "Ужасы"    PERFORMER "Skaльпель"    REM COMPOSER ""    INDEX 01 00:00:00  TRACK 02 AUDIO    TITLE "Prosperity"    PERFORMER "Skaльпель"    REM COMPOSER ""    INDEX 00 02:43:00    INDEX 01 02:45:00  TRACK 03 AUDIO    TITLE "Rudeboy In Love"    PERFORMER "Skaльпель"    REM COMPOSER ""    INDEX 00 05:34:52    INDEX 01 05:36:52  TRACK 04 AUDIO    TITLE "Друзья"    PERFORMER "Skaльпель"    REM COMPOSER ""    INDEX 00 08:07:14    INDEX 01 08:08:62  TRACK 05 AUDIO    TITLE "Я не хочу работать"    PERFORMER "Skaльпель"    REM COMPOSER ""    INDEX 00 11:04:40    INDEX 01 11:06:40  TRACK 06 AUDIO    TITLE "Буйство амбиций"    PERFORMER "Skaльпель"    REM COMPOSER ""    INDEX 00 13:45:64    INDEX 01 13:46:61  TRACK 07 AUDIO    TITLE "Things I Hate"    PERFORMER "Skaльпель"    REM COMPOSER ""    INDEX 00 16:18:60    INDEX 01 16:20:60  TRACK 08 AUDIO    TITLE "Иногда я был бы рад"    PERFORMER "Skaльпель"    REM COMPOSER ""    INDEX 00 19:50:33    INDEX 01 19:52:33

Об альбоме (сборнике&#41;

Макси-сингл Prosperity стал одним из самых интересных событий на российской ska-сцене 2004 года. В него вошли восемь композиций, одна из которых «Ужасы» погружала слушателя в атмосферу классического хоррор-фильма. Соединить мрачный хоррор и солнечный ска было под силу только музыкантам, способным на творческие эксперименты. При этом общий спектр звучания стал насыщенней и интересней, а лиризм, свойственный ранним композициям, остался прежним.

Состав

Фалин Андрей - вокал
Шамшурин Андрей - гитара, вокал, бэки
Зязиков Дмитрий - бас
Агапов Ростислав - барабаны
Макарчук Сергей - клавиши
Лазарев Дмитрий - тромбон
Леванов Михаил - саксофон

Об исполнителе (группе&#41;

Группа «Skaльпель» существует в российском клубном пространстве с 2001 года. Впервые они вышли на сцену 10 октября 2001 года, и с тех пор, не щадя сил, доказывают, что музыке лондонских денди 70-х годов прошлого века, которая сопровождала их гонки на мотороллерах «Vespa», время - не помеха. На счету у группы сотни концертов, километры гастролей, радиопередачи, релизы и стабильно растущая аудитория.

RelizMAN

Post 30-Jan-2020 19:05

[Quote]

Good Times / Как зверь
Количество релизов (альбомов / синглов / EP/ сборников): 1
Жанр: Ska Punk
Страна-производитель диска: Россия
Год издания диска: 2016
Издатель (лейбл): Self released
Страна: Россия
Аудиокодек: FLAC
Тип рипа: image+.cue
Битрейт аудио: lossless
Продолжительность: 33:09
Источник: собственный рип
Наличие сканов в содержимом раздачи: да
Треклист:
01. Интро
02. Пой
03. Кискино диско
04. Части Светы
05. Бабунадобить
06. Коробок
07. Как зверь
08. Хорошо
09. Отец
10. Спасибо,что живой

Лог создания рипа

Exact Audio Copy V1.3 from 2. September 2016
Отчёт EAC об извлечении, выполненном 23. января 2020, 21:26
Good Times / Как зверь
Дисковод: ATAPI iHAS124 W Adapter: 1 ID: 0
Режим чтения : ДостоверностьИспользование точного потока : ДаОтключение кэша аудио : ДаИспользование указателей C2 : Нет
Коррекция смещения при чтении : 48Способность читать области Lead-in и Lead-out : НетЗаполнение пропущенных сэмплов тишиной : ДаУдаление блоков с тишиной в начале и конце : НетПри вычислениях CRC использовались нулевые сэмплы : ДаИнтерфейс : Встроенный Win32-интерфейс для Win NT/2000
Выходной формат : Пользовательский кодировщикВыбранный битрейт : 128 kBit/sКачество : ВысокийДобавление ID3-тега : ДаУтилита сжатия : C:\Program Files (x86)\Exact Audio Copy\Flac\flac.exeДополнительные параметры : -V -8 -T "Date=%year%" -T "Genre=%genre%" %source%
TOC извлечённого CD
Трек | Старт | Длительность | Начальный сектор | Конечный сектор --------------------------------------------------------------------- 1 | 0:00.00 | 1:12.59 | 0 | 5458 2 | 1:12.59 | 3:47.35 | 5459 | 22518 3 | 5:00.19 | 3:53.04 | 22519 | 39997 4 | 8:53.23 | 4:11.42 | 39998 | 58864 5 | 13:04.65 | 3:40.55 | 58865 | 75419 6 | 16:45.45 | 3:45.52 | 75420 | 92346 7 | 20:31.22 | 2:57.13 | 92347 | 105634 8 | 23:28.35 | 2:58.03 | 105635 | 118987 9 | 26:26.38 | 3:10.61 | 118988 | 133298 10 | 29:37.24 | 3:31.35 | 133299 | 149158
Характеристики диапазона извлечения и сообщения об ошибках
Выбранный диапазон
Имя файла D:\New Folder\Good Times - 2016 - Как зверь.wav
Пиковый уровень 98.8 % Скорость извлечения 3.6 X Качество диапазона 99.9 % CRC теста 140ED0FC CRC копии 140ED0FC Копирование... OK
Ошибок не произошло
AccurateRip: сводка
Трек 1 отсутствует в базе данныхТрек 2 отсутствует в базе данныхТрек 3 отсутствует в базе данныхТрек 4 отсутствует в базе данныхТрек 5 отсутствует в базе данныхТрек 6 отсутствует в базе данныхТрек 7 отсутствует в базе данныхТрек 8 отсутствует в базе данныхТрек 9 отсутствует в базе данныхТрек 10 отсутствует в базе данных
Ни одного трека нет в базе AccurateRip
Конец отчёта
---- CUETools DB Plugin V2.1.6
[CTDB TOCID: tMlceUGN_jqflNFfjIo7_Ip9eEY-] foundSubmit result: tMlceUGN_jqflNFfjIo7_Ip9eEY- has been confirmedTrack | CTDB Status 1 | (1/2) Accurately ripped 2 | (1/2) Accurately ripped 3 | (2/2) Accurately ripped 4 | (2/2) Accurately ripped 5 | (2/2) Accurately ripped 6 | (2/2) Accurately ripped 7 | (2/2) Accurately ripped 8 | (2/2) Accurately ripped 9 | (2/2) Accurately ripped 10 | (2/2) Accurately ripped
==== Контрольная сумма отчёта DF958CD19A8426BD127CEA5619192C2791031250BBF85CEB40DA68B6990470EE ====

Содержание индексной карты (.CUE&#41;

REM DISCID 7907C40AREM COMMENT "ExactAudioCopy v1.3"PERFORMER "Good Times"TITLE "Как зверь"REM COMPOSER ""FILE "Good Times - 2016 - Как зверь.flac" WAVE  TRACK 01 AUDIO    TITLE "Intro"    PERFORMER "Good Times"    REM COMPOSER ""    INDEX 01 00:00:00  TRACK 02 AUDIO    TITLE "Пой"    PERFORMER "Good Times"    REM COMPOSER ""    INDEX 01 01:12:59  TRACK 03 AUDIO    TITLE "Кискино диско"    PERFORMER "Good Times"    REM COMPOSER ""    INDEX 01 05:00:19  TRACK 04 AUDIO    TITLE "Части светы"    PERFORMER "Good Times"    REM COMPOSER ""    INDEX 01 08:53:23  TRACK 05 AUDIO    TITLE "Бабунадобить"    PERFORMER "Good Times"    REM COMPOSER ""    INDEX 01 13:04:65  TRACK 06 AUDIO    TITLE "Коробок"    PERFORMER "Good Times"    REM COMPOSER ""    INDEX 01 16:45:45  TRACK 07 AUDIO    TITLE "Как зверь"    PERFORMER "Good Times"    REM COMPOSER ""    INDEX 01 20:31:22  TRACK 08 AUDIO    TITLE "Хорошо"    PERFORMER "Good Times"    REM COMPOSER ""    INDEX 01 23:28:35  TRACK 09 AUDIO    TITLE "Отец"    PERFORMER "Good Times"    REM COMPOSER ""    INDEX 01 26:26:38  TRACK 10 AUDIO    TITLE "Спасибо, что живой"    PERFORMER "Good Times"    REM COMPOSER ""    INDEX 01 29:37:24

RelizMAN

Post 10-Nov-2019 07:50

[Quote]

Плаксы - Я и ты
Жанр: Rock, Ska
Носитель: WEB
Страна-производитель диска (релиза): РФ
Год издания: 2019
Аудиокодек: FLAC
Тип рипа: tracks
Битрейт аудио: Lossless
Продолжительность: 00:44:51
Источник: СП
Наличие сканов в содержимом раздачи: нет
Треклист:
01 - Моя правда
02 - Смешная
03 - Я и ты
04 - Рок
05 - Работа
06 - Мы едем
07 - В Сочи
08 - Тайна
09 - А про лоха ли ?
10 - Свидание
11 - Достала
12 - Страшненькая (Из к/ф "Ну здравствуй, Оксанка Соколова")
13 - Мария

auCDtect

CUE Corrector v. 8.3.5 / b. 928 (Aug. 14, 2019)————————————————————————————————————————————————————————————————————————Плаксы / Я и ты
Folder: Плаксы - 2019 - Я и тыAudio files: 01 - Моя правда.flac [03:23.000; FLAC • 1008 kbps • 16 bit \ 44100 Hz • stereo; 24.40 MB (25 580 784 B)] 02 - Смешная.flac [04:52.733; FLAC • 1018 kbps • 16 bit \ 44100 Hz • stereo; 35.55 MB (37 279 561 B)] 03 - Я и ты.flac [03:59.880; FLAC • 1010 kbps • 16 bit \ 44100 Hz • stereo; 28.89 MB (30 291 314 B)] 04 - Рок.flac [03:07.853; FLAC • 1044 kbps • 16 bit \ 44100 Hz • stereo; 23.38 MB (24 519 517 B)] 05 - Работа.flac [03:33.453; FLAC • 941 kbps • 16 bit \ 44100 Hz • stereo; 23.95 MB (25 110 245 B)] 06 - Мы едем.flac [04:03.120; FLAC • 1037 kbps • 16 bit \ 44100 Hz • stereo; 30.07 MB (31 531 907 B)] 07 - В Сочи.flac [02:54.573; FLAC • 1009 kbps • 16 bit \ 44100 Hz • stereo; 21.01 MB (22 035 123 B)] 08 - Тайна.flac [02:25.973; FLAC • 1026 kbps • 16 bit \ 44100 Hz • stereo; 17.85 MB (18 721 191 B)] 09 - А про лоха ли .flac [03:42.387; FLAC • 1025 kbps • 16 bit \ 44100 Hz • stereo; 27.18 MB (28 495 106 B)] 10 - Свидание.flac [02:15.107; FLAC • 1031 kbps • 16 bit \ 44100 Hz • stereo; 16.62 MB (17 423 184 B)] 11 - Достала.flac [03:57.520; FLAC • 1022 kbps • 16 bit \ 44100 Hz • stereo; 28.94 MB (30 344 213 B)] 12 - Страшненькая (Из к-ф ''Ну здравствуй, Оксанка Соколова'').flac [03:19.493; FLAC • 1029 kbps • 16 bit \ 44100 Hz • stereo; 24.49 MB (25 675 366 B)] 13 - Мария.flac [03:15.587; FLAC • 1017 kbps • 16 bit \ 44100 Hz • stereo; 23.72 MB (24 868 974 B)]
Accuracy: -m8
File 01 - Моя правда - 100% CDDAFile 02 - Смешная - 100% CDDAFile 03 - Я и ты - 100% CDDAFile 04 - Рок - 100% CDDAFile 05 - Работа - 99% CDDAFile 06 - Мы едем - 100% CDDAFile 07 - В Сочи - 95% MPEGFile 08 - Тайна - 100% CDDAFile 09 - А про лоха ли - 100% CDDAFile 10 - Свидание - 100% CDDAFile 11 - Достала - 100% CDDAFile 12 - Страшненькая (Из к-ф ''Ну здравствуй, Оксанка Соколова'') - 100% CDDAFile 13 - Мария - 100% CDDA————— Summary: —————These tracks looks like CDDA with probability 100%.————————————————————————————————————————————————————————————————————————
ANALYZER: auCDtect: CD records authenticity detector, version 0.8.2 Copyright (c) 2004 Oleg Berngardt. All rights reserved. Copyright (c) 2004 Alexander Djourik. All rights reserved.
Time elapsed: 2 m 48 sLog created at November 09, 2019 18:41:05
=== 1B9E268858EC060163C9A8387C42337FE23ED142F00AD67D4475B491F15F8246 ===

RelizMAN

Post 05-Sep-2019 11:40

[Quote]

Distemper / Мир, разделённый пополам
Жанр: Ska Punk
Страна-производитель диска: Россия
Год издания диска: 2017
Издатель (лейбл): Distemper Records
Страна: Россия
Аудиокодек: FLAC
Тип рипа: image+.cue
Битрейт аудио: lossless
Продолжительность: 45:16
Источник: собственный рип
Наличие сканов в содержимом раздачи: да
Треклист:
1. Дрогнул мир монотонный
2. Мы у жизни не просим прощения
3. Буря
4. Самое лучшее время
5. Дуракам везёт
6. Грубее, чем ты
7. Я люблю этот мир
8. Держи меня покрепче за руку
9. Клан всемирных пьяниц
10. Две вселенные
11. Все пиздят
12. Мир, разделённый пополам

Лог создания рипа

Exact Audio Copy V1.3 from 2. September 2016
Отчёт EAC об извлечении, выполненном 4. сентября 2019, 0:50
Distemper / Мир, разделённый пополам
Дисковод: ATAPI iHAS124 W Adapter: 1 ID: 0
Режим чтения : ДостоверностьИспользование точного потока : ДаОтключение кэша аудио : ДаИспользование указателей C2 : Нет
Коррекция смещения при чтении : 48Способность читать области Lead-in и Lead-out : НетЗаполнение пропущенных сэмплов тишиной : ДаУдаление блоков с тишиной в начале и конце : НетПри вычислениях CRC использовались нулевые сэмплы : ДаИнтерфейс : Встроенный Win32-интерфейс для Win NT/2000
Выходной формат : Пользовательский кодировщикВыбранный битрейт : 128 kBit/sКачество : ВысокийДобавление ID3-тега : ДаУтилита сжатия : C:\Program Files (x86)\Exact Audio Copy\Flac\flac.exeДополнительные параметры : -V -8 -T "Date=%year%" -T "Genre=%genre%" %source%
TOC извлечённого CD
Трек | Старт | Длительность | Начальный сектор | Конечный сектор --------------------------------------------------------------------- 1 | 0:00.00 | 4:14.66 | 0 | 19115 2 | 4:14.66 | 3:18.44 | 19116 | 34009 3 | 7:33.35 | 4:48.51 | 34010 | 55660 4 | 12:22.11 | 3:12.66 | 55661 | 70126 5 | 15:35.02 | 4:32.28 | 70127 | 90554 6 | 20:07.30 | 2:46.70 | 90555 | 103074 7 | 22:54.25 | 3:53.38 | 103075 | 120587 8 | 26:47.63 | 3:00.00 | 120588 | 134087 9 | 29:47.63 | 3:50.24 | 134088 | 151361 10 | 33:38.12 | 3:54.35 | 151362 | 168946 11 | 37:32.47 | 3:19.62 | 168947 | 183933 12 | 40:52.34 | 4:23.19 | 183934 | 203677
Характеристики диапазона извлечения и сообщения об ошибках
Выбранный диапазон
Имя файла C:\Users\Евгений\Desktop\Distemper - 2017 - Мир, разделённый пополам.wav
Пиковый уровень 98.8 % Скорость извлечения 7.4 X Качество диапазона 100.0 % CRC теста E1883571 CRC копии E1883571 Копирование... OK
Ошибок не произошло
AccurateRip: сводка
Трек 1 отсутствует в базе данныхТрек 2 отсутствует в базе данныхТрек 3 отсутствует в базе данныхТрек 4 отсутствует в базе данныхТрек 5 отсутствует в базе данныхТрек 6 отсутствует в базе данныхТрек 7 отсутствует в базе данныхТрек 8 отсутствует в базе данныхТрек 9 отсутствует в базе данныхТрек 10 отсутствует в базе данныхТрек 11 отсутствует в базе данныхТрек 12 отсутствует в базе данных
Ни одного трека нет в базе AccurateRip
Конец отчёта
---- CUETools DB Plugin V2.1.6
[CTDB TOCID: y.h_iyv7KBifWzmqF4NjVnarJ7A-] database access error: Невозможно разрешить удаленное имя: 'db.cuetools.net'
==== Контрольная сумма отчёта E96E2E7E62465AB6B911A605E5610FAA567A8EA0A225AE8A8EA9B39865CA7CB3 ====

Содержание индексной карты (.CUE&#41;

REM DATE 2017REM DISCID A50A9B0CREM COMMENT "ExactAudioCopy v1.3"PERFORMER "Distemper"TITLE "Мир, разделённый пополам"REM COMPOSER ""FILE "Distemper - 2017 - Мир, разделённый пополам.flac" WAVE  TRACK 01 AUDIO    TITLE "Дрогнул мир монотонный"    PERFORMER "Distemper"    REM COMPOSER ""    INDEX 01 00:00:00  TRACK 02 AUDIO    TITLE "Мы у жизни не просмм прощения"    PERFORMER "Distemper"    REM COMPOSER ""    INDEX 01 04:14:66  TRACK 03 AUDIO    TITLE "Буря"    PERFORMER "Distemper"    REM COMPOSER ""    INDEX 01 07:33:35  TRACK 04 AUDIO    TITLE "Самое лучшее время"    PERFORMER "Distemper"    REM COMPOSER ""    INDEX 01 12:22:11  TRACK 05 AUDIO    TITLE "Дуракам везет"    PERFORMER "Distemper"    REM COMPOSER ""    INDEX 01 15:35:02  TRACK 06 AUDIO    TITLE "Грубее, чем ты"    PERFORMER "Distemper"    REM COMPOSER ""    INDEX 01 20:07:30  TRACK 07 AUDIO    TITLE "Я люблю этот мир"    PERFORMER "Distemper"    REM COMPOSER ""    INDEX 01 22:54:25  TRACK 08 AUDIO    TITLE "Держи меня покрепче за руку"    PERFORMER "Distemper"    REM COMPOSER ""    INDEX 01 26:47:63  TRACK 09 AUDIO    TITLE "Клан всемирных пьяниц"    PERFORMER "Distemper"    REM COMPOSER ""    INDEX 01 29:47:63  TRACK 10 AUDIO    TITLE "Две вселенные"    PERFORMER "Distemper"    REM COMPOSER ""    INDEX 01 33:38:12  TRACK 11 AUDIO    TITLE "Все пиздят"    PERFORMER "Distemper"    REM COMPOSER ""    INDEX 01 37:32:47  TRACK 12 AUDIO    TITLE "Мир, разделённый пополам"    PERFORMER "Distemper"    REM COMPOSER ""    INDEX 01 40:52:34

RelizMAN

Post 17-Jun-2019 19:25

[Quote]

Assenizator'ы / Анальные шарики
Жанр: Ska Punk
Носитель: CDR
Страна-производитель диска: Россия
Год издания диска: 2017
Издатель (лейбл): Romuald Distro
Номер по каталогу: RD: 029
Страна: Россия
Аудиокодек: FLAC
Тип рипа: image+.cue
Битрейт аудио: lossless
Продолжительность: 12:01
Источник: собственный рип
Наличие сканов в содержимом раздачи: да
Треклист:
1. Анальные шарики
2. На старт, внимание, фарш!
3. Не забывай меня
4. Рутc, бляди, Рутс

Лог создания рипа

Exact Audio Copy V1.3 from 2. September 2016
Отчёт EAC об извлечении, выполненном 4. июня 2019, 23:02
Assenizator'ы / Анальные шарики
Дисковод: ATAPI iHAS124 W Adapter: 1 ID: 0
Режим чтения : ДостоверностьИспользование точного потока : ДаОтключение кэша аудио : ДаИспользование указателей C2 : Нет
Коррекция смещения при чтении : 48Способность читать области Lead-in и Lead-out : НетЗаполнение пропущенных сэмплов тишиной : ДаУдаление блоков с тишиной в начале и конце : НетПри вычислениях CRC использовались нулевые сэмплы : ДаИнтерфейс : Встроенный Win32-интерфейс для Win NT/2000
Выходной формат : Пользовательский кодировщикВыбранный битрейт : 128 kBit/sКачество : ВысокийДобавление ID3-тега : ДаУтилита сжатия : C:\Program Files (x86)\Exact Audio Copy\Flac\flac.exeДополнительные параметры : -V -8 -T "Date=%year%" -T "Genre=%genre%" %source%
TOC извлечённого CD
Трек | Старт | Длительность | Начальный сектор | Конечный сектор --------------------------------------------------------------------- 1 | 0:00.00 | 3:50.00 | 0 | 17249 2 | 3:50.00 | 2:44.37 | 17250 | 29586 3 | 6:34.37 | 2:26.00 | 29587 | 40536 4 | 9:00.37 | 3:00.56 | 40537 | 54092
Характеристики диапазона извлечения и сообщения об ошибках
Выбранный диапазон
Имя файла C:\Users\Евгений\Desktop\Assenizator'ы - 2017 - Анальные шарики.wav
Пиковый уровень 54.2 % Скорость извлечения 5.9 X Качество диапазона 100.0 % CRC теста 85344CC6 CRC копии 85344CC6 Копирование... OK
Ошибок не произошло
Конец отчёта
---- CUETools DB Plugin V2.1.6
[CTDB TOCID: 3e5AXow5L.aXeKJ4ZdocYtSVwlE-] disk not present in databaseSubmit result: 3e5AXow5L.aXeKJ4ZdocYtSVwlE- has been uploaded
==== Контрольная сумма отчёта 8DD1D7D1BDB81F600D7F58E88C349EF5509ED93D63D3CC073C2D63A167F7A3BC ====

Содержание индексной карты (.CUE&#41;

REM DATE 2017REM DISCID 2602D104REM COMMENT "ExactAudioCopy v1.3"PERFORMER "Assenizator'ы"TITLE "Анальные шарики"REM COMPOSER ""FILE "Assenizator'ы - 2017 - Анальные шарики.flac" WAVE  TRACK 01 AUDIO    TITLE "Анальные шарики"    PERFORMER "Assenizator'ы"    REM COMPOSER ""    INDEX 01 00:00:00  TRACK 02 AUDIO    TITLE "На старт, внимание, фарш!"    PERFORMER "Assenizator'ы"    REM COMPOSER ""    INDEX 01 03:50:00  TRACK 03 AUDIO    TITLE "Не забывай меня"    PERFORMER "Assenizator'ы"    REM COMPOSER ""    INDEX 01 06:34:37  TRACK 04 AUDIO    TITLE "Рутc, бляди, рутс"    PERFORMER "Assenizator'ы"    REM COMPOSER ""    INDEX 01 09:00:37

RelizMAN

Post 09-May-2019 19:15

[Quote]

St. Petersburg Ska-Jazz Review / St. Petersburg Ska-Jazz Review
Жанр: Jazz-Rock, Ska, Rocksteady, Swing, Bossa Nova
Страна-производитель диска: Россия
Год издания диска: 2002
Издатель (лейбл): Zvezda Records
Номер по каталогу: ZV008CD
Страна: Россия, Санкт-Петербург
Аудиокодек: FLAC
Тип рипа: tracks+.cue
Битрейт аудио: lossless
Продолжительность: 53:12.547 (140 791 308 samples)
Источник: CD
Наличие сканов в содержимом раздачи: да
Треклист:
01. Trip Back To Childhood [0:03:08.19]
02. Four [0:03:05.69]
03. Night On The Bus [0:03:49.40]
04. St. Petersburg Ska-Jazz Review [0:03:14.06]
05. John Johnes [0:03:51.51]
06. Pollution [0:02:51.68]
07. King Solomon [0:04:03.27]
08. Anarchy In The UK [0:02:58.37]
09. Dr. Ring Ding [0:03:51.46]
10. Corcovado [0:04:16.17]
11. Sidewinder [0:05:32.65]
12. More [0:02:31.32]
13. Umka [0:09:57.14]

Лог создания рипа

Exact Audio Copy V1.3 from 2. September 2016
EAC extraction logfile from 8. May 2019, 9:52
St. Petersburg Ska-Jazz Review / St. Petersburg Ska-Jazz Review
Used drive : MATSHITADVD-RAM UJ8B0AW Adapter: 1 ID: 0
Read mode : SecureUtilize accurate stream : YesDefeat audio cache : YesMake use of C2 pointers : No
Read offset correction : 102Overread into Lead-In and Lead-Out : NoFill up missing offset samples with silence : YesDelete leading and trailing silent blocks : NoNull samples used in CRC calculations : YesUsed interface : Native Win32 interface for Win NT & 2000Gap handling : Appended to previous track
Used output format : User Defined EncoderSelected bitrate : 1024 kBit/sQuality : HighAdd ID3 tag : NoCommand line compressor : C:\Program Files (x86)\Exact Audio Copy\FLAC\FLAC.EXEAdditional command line options : -V -8 -T "Genre=%genre%" -T "Artist=%artist%" -T "Title=%title%" -T "Album=%albumtitle%" -T "Date=%year%" -T "Tracknumber=%tracknr%" -T "Comment=%comment%" %source%
TOC of the extracted CD
Track | Start | Length | Start sector | End sector --------------------------------------------------------- 1 | 0:00.00 | 3:08.19 | 0 | 14118 2 | 3:08.19 | 3:05.69 | 14119 | 28062 3 | 6:14.13 | 3:49.40 | 28063 | 45277 4 | 10:03.53 | 3:14.06 | 45278 | 59833 5 | 13:17.59 | 3:51.51 | 59834 | 77209 6 | 17:09.35 | 2:51.68 | 77210 | 90102 7 | 20:01.28 | 4:03.27 | 90103 | 108354 8 | 24:04.55 | 2:58.37 | 108355 | 121741 9 | 27:03.17 | 3:51.46 | 121742 | 139112 10 | 30:54.63 | 4:16.17 | 139113 | 158329 11 | 35:11.05 | 5:32.65 | 158330 | 183294 12 | 40:43.70 | 2:31.32 | 183295 | 194651 13 | 43:15.27 | 9:57.14 | 194652 | 239440
Track 1
Filename D:\Music\My torrents\St. Petersburg Ska-Jazz Review\[2002] St. Petersburg Ska-Jazz Review\01. St. Petersburg Ska-Jazz Review - Trip Back To Childhood.wav
Pre-gap length 0:00:02.00
Peak level 98.8 % Extraction speed 1.0 X Track quality 99.9 % Test CRC 456E70ED Copy CRC 456E70ED Cannot be verified as accurate (confidence 4) [5953964F], AccurateRip returned [072A2387] (AR v2) Copy OK
Track 2
Filename D:\Music\My torrents\St. Petersburg Ska-Jazz Review\[2002] St. Petersburg Ska-Jazz Review\02. St. Petersburg Ska-Jazz Review - Four.wav
Peak level 98.8 % Extraction speed 1.1 X Track quality 99.9 % Test CRC 7BFC7A02 Copy CRC 7BFC7A02 Cannot be verified as accurate (confidence 3) [8D89785A], AccurateRip returned [E18F151B] (AR v2) Copy OK
Track 3
Filename D:\Music\My torrents\St. Petersburg Ska-Jazz Review\[2002] St. Petersburg Ska-Jazz Review\03. St. Petersburg Ska-Jazz Review - Night On The Bus.wav
Peak level 98.8 % Extraction speed 1.4 X Track quality 100.0 % Test CRC 6DAE7086 Copy CRC 6DAE7086 Cannot be verified as accurate (confidence 4) [3738773F], AccurateRip returned [F2905A4B] (AR v2) Copy OK
Track 4
Filename D:\Music\My torrents\St. Petersburg Ska-Jazz Review\[2002] St. Petersburg Ska-Jazz Review\04. St. Petersburg Ska-Jazz Review - St. Petersburg Ska-Jazz Review.wav
Peak level 100.0 % Extraction speed 1.4 X Track quality 100.0 % Test CRC 4874A792 Copy CRC 4874A792 Cannot be verified as accurate (confidence 4) [267287BA], AccurateRip returned [410DF4BB] (AR v2) Copy OK
Track 5
Filename D:\Music\My torrents\St. Petersburg Ska-Jazz Review\[2002] St. Petersburg Ska-Jazz Review\05. St. Petersburg Ska-Jazz Review - John Johnes.wav
Peak level 98.8 % Extraction speed 1.6 X Track quality 100.0 % Test CRC C7D5B038 Copy CRC C7D5B038 Cannot be verified as accurate (confidence 4) [F4C9D371], AccurateRip returned [385A3826] (AR v2) Copy OK
Track 6
Filename D:\Music\My torrents\St. Petersburg Ska-Jazz Review\[2002] St. Petersburg Ska-Jazz Review\06. St. Petersburg Ska-Jazz Review - Pollution.wav
Peak level 98.8 % Extraction speed 1.6 X Track quality 100.0 % Test CRC 4E7FBE2B Copy CRC 4E7FBE2B Cannot be verified as accurate (confidence 4) [18E2876E], AccurateRip returned [1642718C] (AR v2) Copy OK
Track 7
Filename D:\Music\My torrents\St. Petersburg Ska-Jazz Review\[2002] St. Petersburg Ska-Jazz Review\07. St. Petersburg Ska-Jazz Review - King Solomon.wav
Peak level 98.8 % Extraction speed 1.5 X Track quality 99.9 % Test CRC F32E4B45 Copy CRC F32E4B45 Cannot be verified as accurate (confidence 4) [D57059A7], AccurateRip returned [BC7C7F21] (AR v2) Copy OK
Track 8
Filename D:\Music\My torrents\St. Petersburg Ska-Jazz Review\[2002] St. Petersburg Ska-Jazz Review\08. St. Petersburg Ska-Jazz Review - Anarchy In The UK.wav
Peak level 98.8 % Extraction speed 1.7 X Track quality 100.0 % Test CRC F70A23C4 Copy CRC F70A23C4 Cannot be verified as accurate (confidence 4) [219D89E6], AccurateRip returned [BCDA3EF5] (AR v2) Copy OK
Track 9
Filename D:\Music\My torrents\St. Petersburg Ska-Jazz Review\[2002] St. Petersburg Ska-Jazz Review\09. St. Petersburg Ska-Jazz Review - Dr. Ring Ding.wav
Peak level 98.8 % Extraction speed 1.9 X Track quality 100.0 % Test CRC 580FA30A Copy CRC 580FA30A Cannot be verified as accurate (confidence 4) [DD12C7BC], AccurateRip returned [127969B5] (AR v2) Copy OK
Track 10
Filename D:\Music\My torrents\St. Petersburg Ska-Jazz Review\[2002] St. Petersburg Ska-Jazz Review\10. St. Petersburg Ska-Jazz Review - Corcovado.wav
Peak level 88.1 % Extraction speed 2.0 X Track quality 100.0 % Test CRC 33A69CD7 Copy CRC 33A69CD7 Cannot be verified as accurate (confidence 4) [7CD368EA], AccurateRip returned [804DF9CC] (AR v2) Copy OK
Track 11
Filename D:\Music\My torrents\St. Petersburg Ska-Jazz Review\[2002] St. Petersburg Ska-Jazz Review\11. St. Petersburg Ska-Jazz Review - Sidewinder.wav
Peak level 98.8 % Extraction speed 2.1 X Track quality 100.0 % Test CRC CF90B8C0 Copy CRC CF90B8C0 Cannot be verified as accurate (confidence 4) [A78A568F], AccurateRip returned [E1CD427A] (AR v2) Copy OK
Track 12
Filename D:\Music\My torrents\St. Petersburg Ska-Jazz Review\[2002] St. Petersburg Ska-Jazz Review\12. St. Petersburg Ska-Jazz Review - More.wav
Peak level 96.6 % Extraction speed 2.0 X Track quality 100.0 % Test CRC 8BDBEFDF Copy CRC 8BDBEFDF Cannot be verified as accurate (confidence 4) [27ABFF07], AccurateRip returned [964650A1] (AR v2) Copy OK
Track 13
Filename D:\Music\My torrents\St. Petersburg Ska-Jazz Review\[2002] St. Petersburg Ska-Jazz Review\13. St. Petersburg Ska-Jazz Review - Umka.wav
Peak level 99.9 % Extraction speed 2.5 X Track quality 100.0 % Test CRC C16044D3 Copy CRC C16044D3 Cannot be verified as accurate (confidence 3) [672BC56A], AccurateRip returned [1BB08EA2] (AR v2) Copy OK
No tracks could be verified as accurateYou may have a different pressing from the one(s) in the database
No errors occurred
End of status report
---- CUETools DB Plugin V2.1.6
[CTDB TOCID: q0ePtQTgaJRqqrdDgJOIaSK_kz0-] foundSubmit result: q0ePtQTgaJRqqrdDgJOIaSK_kz0- has been confirmedTrack | CTDB Status 1 | (6/7) Accurately ripped 2 | (6/7) Accurately ripped 3 | (6/7) Accurately ripped 4 | (6/7) Accurately ripped 5 | (6/7) Accurately ripped 6 | (6/7) Accurately ripped 7 | (6/7) Accurately ripped 8 | (6/7) Accurately ripped 9 | (6/7) Accurately ripped 10 | (6/7) Accurately ripped 11 | (6/7) Accurately ripped 12 | (6/7) Accurately ripped 13 | (5/7) Accurately ripped
==== Log checksum B9BB7BE1CA2B4901B5D857D73B0799375C3BE5D6BB650A64F79DB416203EDD32 ====

Содержание индексной карты (.CUE&#41;

REM GENRE "Jazz-Rock, Ska, Rocksteady, Swing, Bossa Nova"REM DATE 2002REM DISCID A90C780DREM COMMENT "ExactAudioCopy v1.3"PERFORMER "St. Petersburg Ska-Jazz Review"TITLE "St. Petersburg Ska-Jazz Review"REM COMPOSER "Various"FILE "01. St. Petersburg Ska-Jazz Review - Trip Back To Childhood.flac" WAVE  TRACK 01 AUDIO    TITLE "Trip Back To Childhood"    PERFORMER "St. Petersburg Ska-Jazz Review"    REM COMPOSER "Григорий Зонтов"    INDEX 01 00:00:00FILE "02. St. Petersburg Ska-Jazz Review - Four.flac" WAVE  TRACK 02 AUDIO    TITLE "Four"    PERFORMER "St. Petersburg Ska-Jazz Review"    REM COMPOSER "Miles Davis"    INDEX 01 00:00:00FILE "03. St. Petersburg Ska-Jazz Review - Night On The Bus.flac" WAVE  TRACK 03 AUDIO    TITLE "Night On The Bus"    PERFORMER "St. Petersburg Ska-Jazz Review"    REM COMPOSER "Роман Парыгин"    INDEX 01 00:00:00FILE "04. St. Petersburg Ska-Jazz Review - St. Petersburg Ska-Jazz Review.flac" WAVE  TRACK 04 AUDIO    TITLE "St. Petersburg Ska-Jazz Review"    PERFORMER "St. Petersburg Ska-Jazz Review"    REM COMPOSER "Константин Лимонов"    INDEX 01 00:00:00FILE "05. St. Petersburg Ska-Jazz Review - John Johnes.flac" WAVE  TRACK 05 AUDIO    TITLE "John Johnes"    PERFORMER "St. Petersburg Ska-Jazz Review"    REM COMPOSER "Derrick Harriott"    INDEX 01 00:00:00FILE "06. St. Petersburg Ska-Jazz Review - Pollution.flac" WAVE  TRACK 06 AUDIO    TITLE "Pollution"    PERFORMER "St. Petersburg Ska-Jazz Review"    REM COMPOSER "Роман Парыгин"    INDEX 01 00:00:00FILE "07. St. Petersburg Ska-Jazz Review - King Solomon.flac" WAVE  TRACK 07 AUDIO    TITLE "King Solomon"    PERFORMER "St. Petersburg Ska-Jazz Review"    REM COMPOSER "Tommy McCook"    INDEX 01 00:00:00FILE "08. St. Petersburg Ska-Jazz Review - Anarchy In The UK.flac" WAVE  TRACK 08 AUDIO    TITLE "Anarchy In The UK"    PERFORMER "St. Petersburg Ska-Jazz Review"    REM COMPOSER "Matlock, Rotten, Cook, Jones"    INDEX 01 00:00:00FILE "09. St. Petersburg Ska-Jazz Review - Dr. Ring Ding.flac" WAVE  TRACK 09 AUDIO    TITLE "Dr. Ring Ding"    PERFORMER "St. Petersburg Ska-Jazz Review"    REM COMPOSER "Roland Alphonso"    INDEX 01 00:00:00FILE "10. St. Petersburg Ska-Jazz Review - Corcovado.flac" WAVE  TRACK 10 AUDIO    TITLE "Corcovado"    PERFORMER "St. Petersburg Ska-Jazz Review"    REM COMPOSER "Antonio Carlos Jobim"    INDEX 01 00:00:00FILE "11. St. Petersburg Ska-Jazz Review - Sidewinder.flac" WAVE  TRACK 11 AUDIO    TITLE "Sidewinder"    PERFORMER "St. Petersburg Ska-Jazz Review"    REM COMPOSER "Lee Morgan"    INDEX 01 00:00:00FILE "12. St. Petersburg Ska-Jazz Review - More.flac" WAVE  TRACK 12 AUDIO    TITLE "More"    PERFORMER "St. Petersburg Ska-Jazz Review"    REM COMPOSER "Nino Oliviero, Riz Ortolani"    INDEX 01 00:00:00FILE "13. St. Petersburg Ska-Jazz Review - Umka.flac" WAVE  TRACK 13 AUDIO    TITLE "Umka"    PERFORMER "St. Petersburg Ska-Jazz Review"    REM COMPOSER "Евгений Крылатов, Юрий Яковлев"    INDEX 01 00:00:00

Лог проверки качества

AUDIOCHECKER v2.0 beta (build 457) - by Dester - [email protected]~~~~~~~~~~~~~~~~~~~~~~~~~~~~~~~~~~-=== DO NOT EDIT THIS FILE! ===-
Path: ...\[2002] St. Petersburg Ska-Jazz Review
01 -=- 01. St. Petersburg Ska-Jazz Review - Trip Back To Childhood.flac -=- CDDA (100%)02 -=- 02. St. Petersburg Ska-Jazz Review - Four.flac -=- CDDA (100%)03 -=- 03. St. Petersburg Ska-Jazz Review - Night On The Bus.flac -=- CDDA (100%)04 -=- 04. St. Petersburg Ska-Jazz Review - St. Petersburg Ska-Jazz Review.flac -=- CDDA (100%)05 -=- 05. St. Petersburg Ska-Jazz Review - John Johnes.flac -=- CDDA (100%)06 -=- 06. St. Petersburg Ska-Jazz Review - Pollution.flac -=- CDDA (100%)07 -=- 07. St. Petersburg Ska-Jazz Review - King Solomon.flac -=- CDDA (99%)08 -=- 08. St. Petersburg Ska-Jazz Review - Anarchy In The UK.flac -=- CDDA (100%)09 -=- 09. St. Petersburg Ska-Jazz Review - Dr. Ring Ding.flac -=- CDDA (100%)10 -=- 10. St. Petersburg Ska-Jazz Review - Corcovado.flac -=- CDDA (100%)11 -=- 11. St. Petersburg Ska-Jazz Review - Sidewinder.flac -=- CDDA (100%)12 -=- 12. St. Petersburg Ska-Jazz Review - More.flac -=- CDDA (100%)13 -=- 13. St. Petersburg Ska-Jazz Review - Umka.flac -=- CDDA (100%)
Summary 99,92% CDDA
206437812

Замер динамического диапазона (DR&#41;

foobar2000 1.3.10 / Замер динамического диапазона (DR) 1.1.1
Дата отчёта: 2019-05-08 09:58:34
--------------------------------------------------------------------------------
Анализ: St. Petersburg Ska-Jazz Review / St. Petersburg Ska-Jazz Review
--------------------------------------------------------------------------------
DR Пики RMS Продолжительность трека
--------------------------------------------------------------------------------
DR11 -0.10 дБ -12.49 дБ 3:08 01-Trip Back To Childhood
DR11 -0.10 дБ -11.90 дБ 3:06 02-Four
DR12 -0.10 дБ -13.44 дБ 3:50 03-Night On The Bus
DR10 0.00 дБ -11.46 дБ 3:14 04-St. Petersburg Ska-Jazz Review
DR11 -0.10 дБ -11.80 дБ 3:52 05-John Johnes
DR11 -0.10 дБ -12.89 дБ 2:52 06-Pollution
DR10 -0.10 дБ -11.98 дБ 4:03 07-King Solomon
DR10 -0.10 дБ -11.36 дБ 2:58 08-Anarchy In The UK
DR12 -0.10 дБ -12.82 дБ 3:52 09-Dr. Ring Ding
DR10 -1.10 дБ -12.43 дБ 4:16 10-Corcovado
DR11 -0.10 дБ -12.50 дБ 5:33 11-Sidewinder
DR10 -0.30 дБ -11.24 дБ 2:31 12-More
DR12 0.00 дБ -16.53 дБ 9:57 13-Umka
--------------------------------------------------------------------------------
Количество треков: 13
Реальные значения DR: DR11
Частота: 44100 Гц
Каналов: 2
Разрядность: 16
Битрейт: 784 кбит/с
Кодек: FLAC
================================================================================
torrent "перезалит" 09 мая 2019 года. изменен формат раздачи

RelizMAN

Post 07-May-2019 19:35

[Quote]

M.A.D. Band / (Коллекция 4 alb)
Жанр: SkaPunk
Страна-производитель диска: Россия
Год издания диска: 2006 - 2018
Страна: Россия
Аудиокодек: MP3
Тип рипа: tracks
Битрейт аудио: 320 kbps
Продолжительность: 02:03:09
Треклист:

2006 - ...а вот и мы!!!

01. Москва-ска 02:27
02. Ворона 03:10
03. Гангстерская 02:35
04. Бабушка 03:02
05. Сантехник 02:17
06. Страусы 02:29
07. Лётчик 03:02
08. Вот это да! 01:44
09. Девочка 02:53
10. Помехи 02:29
11. Урод 02:02
12. Гагарин 03:46
13. Телефон 01:40
14. Deja vu 01:58
15. Бред 03:10
16. Выходные прошли 02:44
17. Московский супермен 02:57
00:44:33

2009 - Больше голоса в мониторы

01. Тико-Тико 01:38
02. Город 02:23
03. Явления 03:06
04. Радио 01:57
05. Я лучший 02:04
06. Муха 03:19
07. Сантехник 02:25
08. Капризы 03:22
09. О ментовском и гомосексуальном 03:04
10. Вурдалак 02:24
11. Валентина Терешкова 02:29
12. Авитаминоз 02:45
13. Про Пруписа 01:57
14. Гагарин 03:27
15. Блюз от Щеры 01:43
00:38:11

2015 - 27 (EP&#41;

01. Верю в себя 02:47
02. 27 02:45
03. Зомби 03:18
00:08:51

2018 - Палата №6

01. Палата №6 02:57
02. Madness 03:00
03. Ядерная пустыня 03:23
04. Не унывай! 02:30
05. Время 03:44
06. А вы бы поняли меня? 04:02
07. Столичная 03:36
08. Зло (feat. Чика Ди, I.F.K., Мэдди GLORY HUNTERS) 03:19
09. Москва-ска 02:12
10. Верю в себя! 02:48
00:31:34

Об исполнителе (группе&#41;

https://ru.wikipedia.org/wiki/M.A.D._Band

RelizMAN

Post 23-Jul-2018 23:20

[Quote]


ValieDollz BrassCore Band

РакетыПланетыБриллианты




• Жанр: Ska Punk | BrassCore
• Страна исполнителя: RF
• Год издания: 2018
• Аудиокодек: MP3
• Тип рипа: tracks
• Битрейт аудио: 320 kbps
• Продолжительность: 00:16:02
• Наличие сканов: front


01 - От Планеты До Планеты (00:03:35)
02 - Бриллианты (00:03:52)
03 - Ракеты на старт (00:03:53)
04 - Не уходи (00:04:40)


-

RelizMAN

Post 08-May-2018 21:15

[Quote]

Рви Меха Оркестр (Новосибирск) / Discography (4 CD) - 2007-2013
Количество релизов (альбомов): 4
Жанр: Ska
Страна: Russia
Аудиокодек: FLAC
Тип рипа: image+.cue
Битрейт аудио: lossless

Об исполнителе (группе&#41;

Цитата с официального ресурса группы - "Российская музыкальная группа из Новосибирска. Известна, в частности, горячим коктейлем Балканской, восточно-европейской музыки, ска, латино и реггей. Острая сатира и мат в текстах делают звук истинно праздничным."

2007 Моряки и Олигархи

Страна-производитель диска: Russia
Год издания диска: 2007
Продолжительность: 50:55
Источник: собственный рип
Наличие сканов в содержимом раздачи: да
Треклист:
01. Шашлычок           [3:44]02. Небо грозило бедой [3:12]03. Мечта              [3:58]04. Прозрачное небо    [4:45]05. Кавказ             [3:55]06. Моряки и олигархи  [3:40]07. Мобильный телефон  [6:02]08. Маньяк             [3:40]09. Лёд                [5:46]10. Маракасы           [4:35]11. Снег               [3:35]12. Дорога             [4:04]Bonus13. Моряки И Олигархи (Video Clip)-

Лог создания рипа

Exact Audio Copy V1.3 from 2. September 2016
Отчёт EAC об извлечении, выполненном 11. августа 2017, 23:37
Рви Меха Оркестр / Моряки и Олигархи
Дисковод: ASUS SDRW-08D2S-U Adapter: 1 ID: 1
Режим чтения : ДостоверностьИспользование точного потока : ДаОтключение кэша аудио : ДаИспользование указателей C2 : Нет
Коррекция смещения при чтении : 6Способность читать области Lead-in и Lead-out : НетЗаполнение пропущенных сэмплов тишиной : ДаУдаление блоков с тишиной в начале и конце : НетПри вычислениях CRC использовались нулевые сэмплы : ДаИнтерфейс : Встроенный Win32-интерфейс для Win NT/2000
Выходной формат : Пользовательский кодировщикВыбранный битрейт : 1024 kBit/sКачество : ВысокийДобавление ID3-тега : НетУтилита сжатия : C:\Program Files\Exact Audio Copy\FLAC\FLAC.EXEДополнительные параметры : -0 -V -T "ARTIST=%artist%" -T "ALBUM=%albumtitle%" -T "DATE=%year%" -T "GENRE=
%genre%" -T "COMMENT=%comment%" -T "ALBUMARTIST=%albuminterpret%" -T "DISCNUMBER=%cdnumber%" -T
"TOTALDISCS=%totalcds%" -T "TOTALTRACKS=%numtracks%" %hascover%--picture="%coverfile%"%hascover% %source% -o
%dest%
TOC извлечённого CD
Трек | Старт | Длительность | Начальный сектор | Конечный сектор --------------------------------------------------------------------- 1 | 0:00.00 | 3:44.06 | 0 | 16805 2 | 3:44.06 | 3:11.51 | 16806 | 31181 3 | 6:55.57 | 3:58.31 | 31182 | 49062 4 | 10:54.13 | 4:44.70 | 49063 | 70432 5 | 15:39.08 | 3:55.06 | 70433 | 88063 6 | 19:34.14 | 3:39.65 | 88064 | 104553 7 | 23:14.04 | 6:01.54 | 104554 | 131682 8 | 29:15.58 | 3:40.37 | 131683 | 148219 9 | 32:56.20 | 5:45.51 | 148220 | 174145 10 | 38:41.71 | 4:34.54 | 174146 | 194749 11 | 43:16.50 | 3:34.45 | 194750 | 210844 12 | 46:51.20 | 4:03.53 | 210845 | 229122 13 | 53:26.73 | 12:11.00 | 240523 | 295347
Характеристики диапазона извлечения и сообщения об ошибках
Выбранный диапазон
Имя файла J:\_Music\Рви Меха Оркестр\2007 - Рви Меха Оркестр - Моряки и Олигархи.wav
Пиковый уровень 100.0 % Скорость извлечения 4.6 X Качество диапазона 100.0 % CRC копии 3FE90DC1 Копирование... OK
Ошибок не произошло
AccurateRip: сводка
Трек 1 отсутствует в базе данныхТрек 2 отсутствует в базе данныхТрек 3 отсутствует в базе данныхТрек 4 отсутствует в базе данныхТрек 5 отсутствует в базе данныхТрек 6 отсутствует в базе данныхТрек 7 отсутствует в базе данныхТрек 8 отсутствует в базе данныхТрек 9 отсутствует в базе данныхТрек 10 отсутствует в базе данныхТрек 11 отсутствует в базе данныхТрек 12 отсутствует в базе данных
Ни одного трека нет в базе AccurateRip
Конец отчёта
==== Контрольная сумма отчёта 8DBCB17C9984ACD9F960AED35B1D78F5069EE3AE66B08979DC61763C3A232EE6 ====

Содержание индексной карты (.CUE&#41;

REM GENRE SkaREM DATE 2007REM DISCID C30F610DREM COMMENT "ExactAudioCopy v1.3"PERFORMER "Рви Меха Оркестр"TITLE "Моряки и Олигархи"FILE "2007 - Рви Меха Оркестр - Моряки и Олигархи.flac" WAVE  TRACK 01 AUDIO    TITLE "Шашлычок"    PERFORMER "Рви Меха Оркестр"    INDEX 01 00:00:00  TRACK 02 AUDIO    TITLE "Небо грозило бедой"    PERFORMER "Рви Меха Оркестр"    INDEX 01 03:44:06  TRACK 03 AUDIO    TITLE "Мечта"    PERFORMER "Рви Меха Оркестр"    INDEX 01 06:55:57  TRACK 04 AUDIO    TITLE "Прозрачное небо"    PERFORMER "Рви Меха Оркестр"    INDEX 01 10:54:13  TRACK 05 AUDIO    TITLE "Кавказ"    PERFORMER "Рви Меха Оркестр"    INDEX 01 15:39:08  TRACK 06 AUDIO    TITLE "Моряки и олигархи"    PERFORMER "Рви Меха Оркестр"    INDEX 01 19:34:14  TRACK 07 AUDIO    TITLE "Мобильный телефон"    PERFORMER "Рви Меха Оркестр"    INDEX 01 23:14:04  TRACK 08 AUDIO    TITLE "Маньяк"    PERFORMER "Рви Меха Оркестр"    INDEX 01 29:15:58  TRACK 09 AUDIO    TITLE "Лёд"    PERFORMER "Рви Меха Оркестр"    INDEX 01 32:56:20  TRACK 10 AUDIO    TITLE "Маракасы"    PERFORMER "Рви Меха Оркестр"    INDEX 01 38:41:71  TRACK 11 AUDIO    TITLE "Снег"    PERFORMER "Рви Меха Оркестр"    INDEX 01 43:16:50  TRACK 12 AUDIO    TITLE "Дорога"    PERFORMER "Рви Меха Оркестр"    INDEX 01 46:51:20

Моряки И Олигархи.avi - отчёт MediaInfo

ОбщееПолное имя                               : D:\Моряки И Олигархи.aviФормат                                   : AVIФормат/Информация                        : Audio Video InterleaveРазмер файла                             : 107 МбайтПродолжительность                        : 3 м. 39 с.Общий поток                              : 4064 Кбит/сек
ВидеоИдентификатор : 0Формат : MPEG-4 VisualПараметр BVOP формата : 1Параметр QPel формата : НетПараметр GMC формата : Без точки переходаПараметр матрицы формата : Default (H.263)Режим смешивания : Сжатый битовый потокИдентификатор кодека : DX50Идентификатор кодека/Подсказка : DivX 5Продолжительность : 3 м. 39 с.Битрейт : 4000 Кбит/секШирина : 720 пикселейВысота : 576 пикселейСоотношение сторон : 5:4Частота кадров : 25,000 кадров/секСтандарт вещания : PALЦветовое пространство : YUVСубдискретизация насыщенности : 4:2:0Битовая глубина : 8 битТип развёртки : ЧересстрочнаяПорядок развёртки : Верхнее поле первоеМетод сжатия : С потерямиБит/(Пиксели*Кадры) : 0.386Размер потока : 103 Мбайт (97%)Библиотека кодирования : DivX 5.0.5 Beta(Tahanea) (UTC 2003-01)
АудиоИдентификатор : 1Формат : MPEG AudioВерсия формата : Version 1Профиль формата : Layer 3Идентификатор кодека : 55Идентификатор кодека/Подсказка : MP3Продолжительность : 3 м. 39 с.Вид битрейта : ПостоянныйБитрейт : 128 Кбит/секКаналы : 2 каналаЧастота : 48,0 КГцМетод сжатия : С потерямиРазмер потока : 3,36 Мбайт (3%)Выравнивание : Разделение по промежуткамПродолжительность промежутка : 500 мс. (12,50 видеокадров)Время предзагрузки промежутка : 750 мс.

Моряки И Олигархи.avi - скриншоты

Лог проверки качества

-----------------------
DON'T MODIFY THIS FILE
-----------------------
PERFORMER: auCDtect Task Manager, ver. 1.6.0 RC1 build 1.6.0.1Copyright (c) 2008-2010 y-soft. All rights reservedhttp://y-soft.org
ANALYZER: auCDtect: CD records authenticity detector, version 0.8.2Copyright (c) 2004 Oleg Berngardt. All rights reserved.Copyright (c) 2004 Alexander Djourik. All rights reserved.
FILE: 2007 - Рви Меха Оркестр - Моряки и Олигархи.flac Size: 390040897 Hash: 1468103DA4491441A1078BEDA42286AC Accuracy: -m0 Conclusion: CDDA 99% Signature: B310765566ABF367684A19D2C7A9EFDD3DD2A015

Скриншот спектра частот

2009 Ключ на 32

Страна-производитель диска: Russia
Год издания диска: 2009
Продолжительность: 34:14
Источник: собственный рип
Наличие сканов в содержимом раздачи: да
Треклист:
01. Сантехник        [3:04]02. Рэггей           [4:22]03. На Оби           [3:36]04. Беня Ладин       [4:39]05. Остров           [2:13]06. Ключ на 32       [2:16]07. Девушка из ПТУ   [4:07]08. Лето             [2:20]09. Медведы          [3:06]10. Мотороллер       [2:08]Bonus11. Здрасте, дорогие [2:22]
-

Лог создания рипа

Exact Audio Copy V1.3 from 2. September 2016
Отчёт EAC об извлечении, выполненном 11. августа 2017, 23:10
Рви Меха Оркестр / Ключ на 32
Дисковод: ASUS SDRW-08D2S-U Adapter: 1 ID: 1
Режим чтения : ДостоверностьИспользование точного потока : ДаОтключение кэша аудио : ДаИспользование указателей C2 : Нет
Коррекция смещения при чтении : 6Способность читать области Lead-in и Lead-out : НетЗаполнение пропущенных сэмплов тишиной : ДаУдаление блоков с тишиной в начале и конце : НетПри вычислениях CRC использовались нулевые сэмплы : ДаИнтерфейс : Встроенный Win32-интерфейс для Win NT/2000
Выходной формат : Пользовательский кодировщикВыбранный битрейт : 1024 kBit/sКачество : ВысокийДобавление ID3-тега : НетУтилита сжатия : C:\Program Files\Exact Audio Copy\FLAC\FLAC.EXEДополнительные параметры : -0 -V -T "ARTIST=%artist%" -T "ALBUM=%albumtitle%" -T "DATE=%year%" -T "GENRE=
%genre%" -T "COMMENT=%comment%" -T "ALBUMARTIST=%albuminterpret%" -T "DISCNUMBER=%cdnumber%" -T
"TOTALDISCS=%totalcds%" -T "TOTALTRACKS=%numtracks%" %hascover%--picture="%coverfile%"%hascover% %source% -o
%dest%
TOC извлечённого CD
Трек | Старт | Длительность | Начальный сектор | Конечный сектор --------------------------------------------------------------------- 1 | 0:00.00 | 3:04.37 | 0 | 13836 2 | 3:04.37 | 4:22.03 | 13837 | 33489 3 | 7:26.40 | 3:36.14 | 33490 | 49703 4 | 11:02.54 | 4:39.16 | 49704 | 70644 5 | 15:41.70 | 2:12.54 | 70645 | 80598 6 | 17:54.49 | 2:15.71 | 80599 | 90794 7 | 20:10.45 | 4:07.32 | 90795 | 109351 8 | 24:18.02 | 2:20.22 | 109352 | 119873 9 | 26:38.24 | 3:05.48 | 119874 | 133796 10 | 29:43.72 | 2:08.20 | 133797 | 143416 11 | 31:52.17 | 2:21.45 | 143417 | 154036
Характеристики диапазона извлечения и сообщения об ошибках
Выбранный диапазон
Имя файла J:\_Music\Рви Меха Оркестр\2009 - Рви Меха Оркестр - Ключ на 32.wav
Пиковый уровень 100.0 % Скорость извлечения 1.8 X Качество диапазона 100.0 % CRC копии 62402839 Копирование... OK
Ошибок не произошло
AccurateRip: сводка
Трек 1 отсутствует в базе данныхТрек 2 отсутствует в базе данныхТрек 3 отсутствует в базе данныхТрек 4 отсутствует в базе данныхТрек 5 отсутствует в базе данныхТрек 6 отсутствует в базе данныхТрек 7 отсутствует в базе данныхТрек 8 отсутствует в базе данныхТрек 9 отсутствует в базе данныхТрек 10 отсутствует в базе данныхТрек 11 отсутствует в базе данных
Ни одного трека нет в базе AccurateRip
Конец отчёта
==== Контрольная сумма отчёта 80D2754727441EC8670894BEF03E1AE5452128FF94B6B90D5703144EF77BF91E ====

Содержание индексной карты (.CUE&#41;

REM GENRE SkaREM DATE 2009REM DISCID 8B08050BREM COMMENT "ExactAudioCopy v1.3"PERFORMER "Рви Меха Оркестр"TITLE "Ключ на 32"FILE "2009 - Рви Меха Оркестр - Ключ на 32.flac" WAVE  TRACK 01 AUDIO    TITLE "Сантехник"    PERFORMER "Рви Меха Оркестр"    INDEX 01 00:00:00  TRACK 02 AUDIO    TITLE "Рэггей"    PERFORMER "Рви Меха Оркестр"    INDEX 00 03:02:37    INDEX 01 03:04:37  TRACK 03 AUDIO    TITLE "На Оби"    PERFORMER "Рви Меха Оркестр"    INDEX 00 07:24:40    INDEX 01 07:26:40  TRACK 04 AUDIO    TITLE "Беня Ладин"    PERFORMER "Рви Меха Оркестр"    INDEX 01 11:02:54  TRACK 05 AUDIO    TITLE "Остров"    PERFORMER "Рви Меха Оркестр"    INDEX 00 15:39:70    INDEX 01 15:41:70  TRACK 06 AUDIO    TITLE "Ключ на 32"    PERFORMER "Рви Меха Оркестр"    INDEX 00 17:52:49    INDEX 01 17:54:49  TRACK 07 AUDIO    TITLE "Девушка из ПТУ"    PERFORMER "Рви Меха Оркестр"    INDEX 00 20:08:45    INDEX 01 20:10:45  TRACK 08 AUDIO    TITLE "Лето"    PERFORMER "Рви Меха Оркестр"    INDEX 00 24:16:02    INDEX 01 24:18:02  TRACK 09 AUDIO    TITLE "Медведы"    PERFORMER "Рви Меха Оркестр"    INDEX 00 26:36:24    INDEX 01 26:38:24  TRACK 10 AUDIO    TITLE "Мотороллер"    PERFORMER "Рви Меха Оркестр"    INDEX 00 29:41:72    INDEX 01 29:43:72  TRACK 11 AUDIO    TITLE "БОНУС: Здрасте, дорогие"    PERFORMER "Рви Меха Оркестр"    INDEX 00 31:50:17    INDEX 01 31:52:17

Лог проверки качества

-----------------------
DON'T MODIFY THIS FILE
-----------------------
PERFORMER: auCDtect Task Manager, ver. 1.6.0 RC1 build 1.6.0.1Copyright (c) 2008-2010 y-soft. All rights reservedhttp://y-soft.org
ANALYZER: auCDtect: CD records authenticity detector, version 0.8.2Copyright (c) 2004 Oleg Berngardt. All rights reserved.Copyright (c) 2004 Alexander Djourik. All rights reserved.
FILE: 2009 - Рви Меха Оркестр - Ключ на 32.flac Size: 282209415 Hash: F057B439C91D6258265039FBF3B59222 Accuracy: -m0 Conclusion: CDDA 100% Signature: 543FA4DACA5724ECEF694EF717BB44EE7891FAEA

Скриншот спектра частот

2011 10 оборотов

Страна-производитель диска: Russia
Год издания диска: 2011
Продолжительность: 37:18
Источник: собственный рип
Наличие сканов в содержимом раздачи: да
Треклист:
01. Одесса       [2:52]02. Клубная      [2:53]03. Уг           [2:12]04. Весна        [2:18]05. Шофер        [3:23]06. Дядя Вася    [2:37]07. Время        [5:47]08. Gipsy dance  [2:27]09. Парашютисты  [4:08]10. Мерри Попинс [2:12]11. Ракия        [3:25]12. Манеа        [3:05]-

Лог создания рипа

Exact Audio Copy V1.3 from 2. September 2016
Отчёт EAC об извлечении, выполненном 11. августа 2017, 23:52
Рви Меха Оркестр / 10 оборотов
Дисковод: ASUS SDRW-08D2S-U Adapter: 1 ID: 1
Режим чтения : ДостоверностьИспользование точного потока : ДаОтключение кэша аудио : ДаИспользование указателей C2 : Нет
Коррекция смещения при чтении : 6Способность читать области Lead-in и Lead-out : НетЗаполнение пропущенных сэмплов тишиной : ДаУдаление блоков с тишиной в начале и конце : НетПри вычислениях CRC использовались нулевые сэмплы : ДаИнтерфейс : Встроенный Win32-интерфейс для Win NT/2000
Выходной формат : Пользовательский кодировщикВыбранный битрейт : 1024 kBit/sКачество : ВысокийДобавление ID3-тега : НетУтилита сжатия : C:\Program Files\Exact Audio Copy\FLAC\FLAC.EXEДополнительные параметры : -0 -V -T "ARTIST=%artist%" -T "ALBUM=%albumtitle%" -T "DATE=%year%" -T "GENRE=
%genre%" -T "COMMENT=%comment%" -T "ALBUMARTIST=%albuminterpret%" -T "DISCNUMBER=%cdnumber%" -T
"TOTALDISCS=%totalcds%" -T "TOTALTRACKS=%numtracks%" %hascover%--picture="%coverfile%"%hascover% %source% -o
%dest%
TOC извлечённого CD
Трек | Старт | Длительность | Начальный сектор | Конечный сектор --------------------------------------------------------------------- 1 | 0:00.00 | 2:51.41 | 0 | 12865 2 | 2:51.41 | 2:52.69 | 12866 | 25834 3 | 5:44.35 | 2:12.35 | 25835 | 35769 4 | 7:56.70 | 2:17.59 | 35770 | 46103 5 | 10:14.54 | 3:22.46 | 46104 | 61299 6 | 13:37.25 | 2:36.68 | 61300 | 73067 7 | 16:14.18 | 5:46.41 | 73068 | 99058 8 | 22:00.59 | 2:26.67 | 99059 | 110075 9 | 24:27.51 | 4:08.28 | 110076 | 128703 10 | 28:36.04 | 2:11.59 | 128704 | 138587 11 | 30:47.63 | 3:25.31 | 138588 | 153993 12 | 34:13.19 | 3:04.49 | 153994 | 167842
Характеристики диапазона извлечения и сообщения об ошибках
Выбранный диапазон
Имя файла J:\_Music\Рви Меха Оркестр\2011 - Рви Меха Оркестр - 10 оборотов.wav
Пиковый уровень 100.0 % Скорость извлечения 4.3 X Качество диапазона 100.0 % CRC копии 9E163378 Копирование... OK
Ошибок не произошло
AccurateRip: сводка
Трек 1 отсутствует в базе данныхТрек 2 отсутствует в базе данныхТрек 3 отсутствует в базе данныхТрек 4 отсутствует в базе данныхТрек 5 отсутствует в базе данныхТрек 6 отсутствует в базе данныхТрек 7 отсутствует в базе данныхТрек 8 отсутствует в базе данныхТрек 9 отсутствует в базе данныхТрек 10 отсутствует в базе данныхТрек 11 отсутствует в базе данныхТрек 12 отсутствует в базе данных
Ни одного трека нет в базе AccurateRip
Конец отчёта
==== Контрольная сумма отчёта 4A207562B5EE55E9B3AEF780A74787BE8EA3951619A8714C7E3C2749D44C43A6 ====

Содержание индексной карты (.CUE&#41;

REM GENRE SkaREM DATE 2011REM DISCID B108BD0CREM COMMENT "ExactAudioCopy v1.3"PERFORMER "Рви Меха Оркестр"TITLE "10 оборотов"FILE "2011 - Рви Меха Оркестр - 10 оборотов.flac" WAVE  TRACK 01 AUDIO    TITLE "Одесса"    PERFORMER "Рви Меха Оркестр"    INDEX 01 00:00:00  TRACK 02 AUDIO    TITLE "Клубная"    PERFORMER "Рви Меха Оркестр"    INDEX 01 02:51:41  TRACK 03 AUDIO    TITLE "Уг"    PERFORMER "Рви Меха Оркестр"    INDEX 01 05:44:35  TRACK 04 AUDIO    TITLE "Весна"    PERFORMER "Рви Меха Оркестр"    INDEX 01 07:56:70  TRACK 05 AUDIO    TITLE "Шофер"    PERFORMER "Рви Меха Оркестр"    INDEX 01 10:14:54  TRACK 06 AUDIO    TITLE "Дядя Вася"    PERFORMER "Рви Меха Оркестр"    INDEX 01 13:37:25  TRACK 07 AUDIO    TITLE "Время"    PERFORMER "Рви Меха Оркестр"    INDEX 01 16:14:18  TRACK 08 AUDIO    TITLE "Gipsy dance"    PERFORMER "Рви Меха Оркестр"    INDEX 01 22:00:59  TRACK 09 AUDIO    TITLE "Парашютисты"    PERFORMER "Рви Меха Оркестр"    INDEX 01 24:27:51  TRACK 10 AUDIO    TITLE "Мерри Попинс"    PERFORMER "Рви Меха Оркестр"    INDEX 01 28:36:04  TRACK 11 AUDIO    TITLE "Ракия"    PERFORMER "Рви Меха Оркестр"    INDEX 01 30:47:63  TRACK 12 AUDIO    TITLE "Манеа"    PERFORMER "Рви Меха Оркестр"    INDEX 01 34:13:19

Лог проверки качества

-----------------------
DON'T MODIFY THIS FILE
-----------------------
PERFORMER: auCDtect Task Manager, ver. 1.6.0 RC1 build 1.6.0.1Copyright (c) 2008-2010 y-soft. All rights reservedhttp://y-soft.org
ANALYZER: auCDtect: CD records authenticity detector, version 0.8.2Copyright (c) 2004 Oleg Berngardt. All rights reserved.Copyright (c) 2004 Alexander Djourik. All rights reserved.
FILE: 2011 - Рви Меха Оркестр - 10 оборотов.flac Size: 305657887 Hash: D9D9A872984F2B12EA973DC2276176DC Accuracy: -m0 Conclusion: CDDA 100% Signature: A29CC73DC9E9AB583B1C87C20D8DA7E572A43829

Скриншот спектра частот

2013 Жизнь

Страна-производитель диска: Russia
Год издания диска: 2013
Продолжительность: 59:56
Источник: собственный рип
Наличие сканов в содержимом раздачи: да
Треклист:
01. Русская рулетка                                 [3:15]02. Панков бригада                                  [2:56]03. Чёрная кошка, белый кот                         [3:16]04. Цыган и смерть                                  [2:38]05. Танцевальная музыка (cover Че-данс & 1,5 Pavlo) [3:31]06. Эмигранты                                       [2:29]07. Танго                                           [3:54]08. Ё*** жизнь                                      [2:58]09. Восьмиклассница                                 [3:46]10. Дельтаплан                                      [4:11]11. Лимончики                                       [3:37]12. Дай на маленькую                                [5:35]13. Квас                                            [2:42]14. Новый год                                       [2:39]15. Прозрачное небо                                 [4:52]16. Понеслась *** по кочкам                         [3:31]17. Саня останется с нами (cover ROKER JOKER)       [4:06]
-

Лог создания рипа

Exact Audio Copy V1.3 from 2. September 2016
Отчёт EAC об извлечении, выполненном 12. августа 2017, 0:18
Рви Меха Оркестр / Жизнь
Дисковод: ASUS SDRW-08D2S-U Adapter: 1 ID: 1
Режим чтения : ДостоверностьИспользование точного потока : ДаОтключение кэша аудио : ДаИспользование указателей C2 : Нет
Коррекция смещения при чтении : 6Способность читать области Lead-in и Lead-out : НетЗаполнение пропущенных сэмплов тишиной : ДаУдаление блоков с тишиной в начале и конце : НетПри вычислениях CRC использовались нулевые сэмплы : ДаИнтерфейс : Встроенный Win32-интерфейс для Win NT/2000
Выходной формат : Пользовательский кодировщикВыбранный битрейт : 1024 kBit/sКачество : ВысокийДобавление ID3-тега : НетУтилита сжатия : C:\Program Files\Exact Audio Copy\FLAC\FLAC.EXEДополнительные параметры : -0 -V -T "ARTIST=%artist%" -T "ALBUM=%albumtitle%" -T "DATE=%year%" -T "GENRE=
%genre%" -T "COMMENT=%comment%" -T "ALBUMARTIST=%albuminterpret%" -T "DISCNUMBER=%cdnumber%" -T
"TOTALDISCS=%totalcds%" -T "TOTALTRACKS=%numtracks%" %hascover%--picture="%coverfile%"%hascover% %source% -o
%dest%
TOC извлечённого CD
Трек | Старт | Длительность | Начальный сектор | Конечный сектор --------------------------------------------------------------------- 1 | 0:00.00 | 3:15.31 | 0 | 14655 2 | 3:15.31 | 2:56.36 | 14656 | 27891 3 | 6:11.67 | 3:16.13 | 27892 | 42604 4 | 9:28.05 | 2:37.43 | 42605 | 54422 5 | 12:05.48 | 3:30.54 | 54423 | 70226 6 | 15:36.27 | 2:28.43 | 70227 | 81369 7 | 18:04.70 | 3:54.02 | 81370 | 98921 8 | 21:58.72 | 2:57.43 | 98922 | 112239 9 | 24:56.40 | 3:46.34 | 112240 | 129223 10 | 28:42.74 | 4:10.46 | 129224 | 148019 11 | 32:53.45 | 3:36.62 | 148020 | 164281 12 | 36:30.32 | 5:35.07 | 164282 | 189413 13 | 42:05.39 | 2:42.02 | 189414 | 201565 14 | 44:47.41 | 2:38.44 | 201566 | 213459 15 | 47:26.10 | 4:52.03 | 213460 | 235362 16 | 52:18.13 | 3:30.69 | 235363 | 251181 17 | 55:49.07 | 4:06.36 | 251182 | 269667
Характеристики диапазона извлечения и сообщения об ошибках
Выбранный диапазон
Имя файла J:\_Music\Рви Меха Оркестр\2013 - Рви Меха Оркестр - Жизнь.wav
Пиковый уровень 100.0 % Скорость извлечения 4.7 X Качество диапазона 99.9 % CRC копии BB2E8BEA Копирование... OK
Ошибок не произошло
AccurateRip: сводка
Трек 1 отсутствует в базе данныхТрек 2 отсутствует в базе данныхТрек 3 отсутствует в базе данныхТрек 4 отсутствует в базе данныхТрек 5 отсутствует в базе данныхТрек 6 отсутствует в базе данныхТрек 7 отсутствует в базе данныхТрек 8 отсутствует в базе данныхТрек 9 отсутствует в базе данныхТрек 10 отсутствует в базе данныхТрек 11 отсутствует в базе данныхТрек 12 отсутствует в базе данныхТрек 13 отсутствует в базе данныхТрек 14 отсутствует в базе данныхТрек 15 отсутствует в базе данныхТрек 16 отсутствует в базе данныхТрек 17 отсутствует в базе данных
Ни одного трека нет в базе AccurateRip
Конец отчёта
==== Контрольная сумма отчёта C106C17401BC9A419422B7D959EE8D4AC051B4C0A526FDA6D2D4E2E6AEC9CF3A ====

Содержание индексной карты (.CUE&#41;

REM GENRE SkaREM DATE 2013REM DISCID 010E0B11REM COMMENT "ExactAudioCopy v1.3"PERFORMER "Рви Меха Оркестр"TITLE "Жизнь"FILE "2013 - Рви Меха Оркестр - Жизнь.flac" WAVE  TRACK 01 AUDIO    TITLE "Русская рулетка"    PERFORMER "Рви Меха Оркестр"    INDEX 01 00:00:00  TRACK 02 AUDIO    TITLE "Панков бригада"    PERFORMER "Рви Меха Оркестр"    INDEX 01 03:15:31  TRACK 03 AUDIO    TITLE "Чёрная кошка, белый кот"    PERFORMER "Рви Меха Оркестр"    INDEX 01 06:11:67  TRACK 04 AUDIO    TITLE "Цыган и смерть"    PERFORMER "Рви Меха Оркестр"    INDEX 01 09:28:05  TRACK 05 AUDIO    TITLE "Танцевальная музыка (cover Че-данс & 1,5 Pavlo)"    PERFORMER "Рви Меха Оркестр"    INDEX 01 12:05:48  TRACK 06 AUDIO    TITLE "Эмигранты"    PERFORMER "Рви Меха Оркестр"    INDEX 01 15:36:27  TRACK 07 AUDIO    TITLE "Танго"    PERFORMER "Рви Меха Оркестр"    INDEX 01 18:04:70  TRACK 08 AUDIO    TITLE "Ё*** жизнь"    PERFORMER "Рви Меха Оркестр"    INDEX 01 21:58:72  TRACK 09 AUDIO    TITLE "Восьмиклассница"    PERFORMER "Рви Меха Оркестр"    INDEX 01 24:56:40  TRACK 10 AUDIO    TITLE "Дельтаплан"    PERFORMER "Рви Меха Оркестр"    INDEX 01 28:42:74  TRACK 11 AUDIO    TITLE "Лимончики"    PERFORMER "Рви Меха Оркестр"    INDEX 01 32:53:45  TRACK 12 AUDIO    TITLE "Дай на маленькую"    PERFORMER "Рви Меха Оркестр"    INDEX 01 36:30:32  TRACK 13 AUDIO    TITLE "Квас"    PERFORMER "Рви Меха Оркестр"    INDEX 01 42:05:39  TRACK 14 AUDIO    TITLE "Новый год"    PERFORMER "Рви Меха Оркестр"    INDEX 01 44:47:41  TRACK 15 AUDIO    TITLE "Прозрачное небо"    PERFORMER "Рви Меха Оркестр"    INDEX 01 47:26:10  TRACK 16 AUDIO    TITLE "Понеслась *** по кочкам"    PERFORMER "Рви Меха Оркестр"    INDEX 01 52:18:13  TRACK 17 AUDIO    TITLE "Саня останется с нами (cover ROKER JOKER)"    PERFORMER "Рви Меха Оркестр"    INDEX 01 55:49:07

Лог проверки качества

-----------------------
DON'T MODIFY THIS FILE
-----------------------
PERFORMER: auCDtect Task Manager, ver. 1.6.0 RC1 build 1.6.0.1Copyright (c) 2008-2010 y-soft. All rights reservedhttp://y-soft.org
ANALYZER: auCDtect: CD records authenticity detector, version 0.8.2Copyright (c) 2004 Oleg Berngardt. All rights reserved.Copyright (c) 2004 Alexander Djourik. All rights reserved.
FILE: 2013 - Рви Меха Оркестр - Жизнь.flac Size: 467018779 Hash: 0990A9E4D7B23770CAFE47D19E5B38BB Accuracy: -m0 Conclusion: CDDA 100% Signature: A2CD6378FA94734D4683B74E739D6BDBFC85BDE2

Скриншот спектра частот

RelizMAN

Post 23-Apr-2018 07:50

[Quote]

Assenizator'ы (Assenizators) / Дискография
Жанр: Ska-core
Страна исполнителя (группы): Россия
Год издания: 2001-2017
Аудиокодек: MP3
Тип рипа: tracks
Битрейт аудио: 320 kbps
Продолжительность: 02:53:150
Наличие сканов в содержимом раздачи: да
Треклист:

2001 - Грязная Работа (8 / 22&#58;39&#41;


[2:52] 01. Assenizator'ы - Танцуй
[2:29] 02. Assenizator'ы - Худей Со Мной
[3:56] 03. Assenizator'ы - Пятница
[3:30] 04. Assenizator'ы - Песня Об Отрицательном Воздействии Internet'А На Психику Особей Женского Пола
[2:37] 05. Assenizator'ы - Рикки
[2:53] 06. Assenizator'ы - Пятница Mixed By Dj Volt
[4:05] 07. Assenizator'ы - Песня Об Отрицательном Воздействии Internet'А На Психику Особей Женского Пола Mixed By Dj Shugalovo Torch
[0:18] 08. Assenizator'ы - Пятница Mixed By Shugalovo Torch

2003 - Вы-SKA-чки (13 / 38&#58;00&#41;


[4:25] 01. Assenizator'ы - Скатертью Дорога
[2:35] 02. Assenizator'ы - Одиночество
[2:39] 03. Assenizator'ы - Молдова
[3:11] 04. Assenizator'ы - Сатанисты
[3:08] 05. Assenizator'ы - Сделай Мне Больно
[1:55] 06. Assenizator'ы - Ненавижу
[3:14] 07. Assenizator'ы - Мазки
[3:14] 08. Assenizator'ы - Марс
[3:26] 09. Assenizator'ы - Мат
[2:51] 10. Assenizator'ы - S&M
[3:06] 11. Assenizator'ы - Ветер
[1:36] 12. Assenizator'ы - Частушки
[2:41] 13. Assenizator'ы - Похмелье

2007 - Uglyculture (16 / 42&#58;53&#41;


[1:50] 1. Assenizator'ы ‎ - Что-то умерло во мне
[3:23] 2. Assenizator'ы ‎ - Мулатка
[2:21] 3. Assenizator'ы ‎ - Не щелкай
[2:16] 4. Assenizator'ы ‎ - Get Yourself Beer!
[3:07] 5. Assenizator'ы ‎ - Немой
[3:25] 6. Assenizator'ы ‎ - Неважно
[2:15] 7. Assenizator'ы ‎ - Quite Riot
[3:51] 8. Assenizator'ы ‎ - Порно звезда
[2:38] 9. Assenizator'ы ‎ - Ваня
[2:37] 10. Assenizator'ы ‎ - Who's Gonna Pay
[2:15] 11. Assenizator'ы ‎ - Пираты
[3:30] 12. Assenizator'ы ‎ - Хавай
[3:42] 13. Assenizator'ы ‎ - Why Did You Leave Me
[0:26] 14. Assenizator'ы ‎ - Слушай треш
[2:21] 15. Assenizator'ы ‎ - Behave Youself Right
[2:56] 16. Assenizator'ы ‎ - Дай на маленькую

2008 - Split Yourself Apart (20 / 58&#58;18&#41;


[3:05] 01. Assenizators - Hooligans
[2:57] 02. Assenizators - Kick Their Ass
[3:01] 03. Assenizators - Cemetry
[4:08] 04. Assenizators - Ded
[2:29] 05. Assenizators - Hava Nagila
[2:20] 06. Rejected - Two Sides
[1:52] 07. Rejected - Outta Control
[2:16] 08. Rejected - Small Town Punx
[2:59] 09. Rejected - Four Shots
[2:07] 10. Rejected - Disappointment
[2:42] 11. Relentless - Devil's Game
[3:21] 12. Relentless - Same Old Street
[2:58] 13. Relentless - End Of The Line
[2:28] 14. Relentless - My Love
[3:09] 15. Relentless - What Did I Gave
[2:34] 16. Смех - Телефон
[3:38] 17. Смех - Истра
[4:31] 18. Смех - Еще Раз
[1:59] 19. Смех - Три Дыры
[3:44] 20. Смех - Верь Мне

2017 - Анальные Шарики (4 / 12&#58;02&#41;


[3:50] 1. Assenizator'ы - Анальные шарики
[2:45] 2. Assenizator'ы - На старт, внимание, фарш
[2:26] 3. Assenizator'ы - Не забывай меня
[3:01] 4. Assenizator'ы - Рутс, бляди рутс
Cкиты с альбома Вы-Ska-чки включены в треки

RelizMAN

Post 21-Mar-2018 22:40

[Quote]

Distemper / Best of brass time
Жанр: Ska Punk
Страна-производитель диска: Russia
Год издания диска: 2018
Страна: Russia
Аудиокодек: MP3
Тип рипа: tracks
Битрейт аудио: 320 kbps
Продолжительность: 01:01
Источник: WEB
Наличие сканов в содержимом раздачи: нет
Треклист:
01. Мир создан для тебя
02. Начинаем отдыхать
03. Всё или ничего
04. Кончились наркотики
05. Доброе утро
06. В зеркалах моей надежды
07. Смести приоритеты
08. Ураган
09. Блеск в глазах
10. На на на
11. До утра гуляет город
12. Тайна
13. Я умираю для тебя
14. Мечта
15. Подумай кто твои друзья
16. Гордость
17. If the Kids Are United

Об альбоме (сборнике&#41;

Переигранные заново песни

RelizMAN

Post 17-Mar-2018 14:35

[Quote]

Markscheider Kunst: Krasivosleva (Красиво слева)
Жанр: Ska, Afro-cuban jazz
Носитель: CD
Страна-производитель диска: Россия
Год издания: 2001
Издатель (лейбл): Gala Records
Номер по каталогу: GL 10276
Страна исполнителя (группы): Россия
Аудиокодек: FLAC (*.flac)
Тип рипа: tracks+.cue
Битрейт аудио: lossless
Продолжительность: 00:43:05
Источник (релизер): собственный рип
Наличие сканов в содержимом раздачи: да (jpeg 600 dpi)
www.mkunst.ru
01. Krasivo sleva (Красиво слева) (03:03)
02. Moryak (Моряк) (04:08)
03. Reka (Река) (03:33)
04. Tanec (Танец) (02:26)
05. Babushka (Бабушка) (03:15)
06. Vstrecha (Встреча) (03:53)
07. Zambie (Замбия) (04:30)
08. Mokili (Мокили) (05:00)
09. Zumu-zumu (Зуму-зуму) (07:27)
10. Nashe delo (Наше дело) (05:50)

Лог создания рипа

Exact Audio Copy V1.0 beta 3 from 29. August 2011
EAC extraction logfile from 3. February 2015, 21:00
Markscheider Kunst / Krasivosleva [GL 10276]
Used drive : ASUS DRW-22B3S Adapter: 3 ID: 1
Read mode : SecureUtilize accurate stream : YesDefeat audio cache : YesMake use of C2 pointers : No
Read offset correction : 6Overread into Lead-In and Lead-Out : NoFill up missing offset samples with silence : YesDelete leading and trailing silent blocks : NoNull samples used in CRC calculations : YesUsed interface : Native Win32 interface for Win NT & 2000Gap handling : Appended to previous track
Used output format : User Defined EncoderSelected bitrate : 768 kBit/sQuality : HighAdd ID3 tag : NoCommand line compressor : C:\Program Files\Exact Audio Copy\FLAC\FLAC.EXEAdditional command line options : -V -8 -T "Genre=%genre%" -T "Artist=%artist%" -T "Title=%title%" -T "Album=%albumtitle%" -T "Date=%year%" -T "Tracknumber=%tracknr%" -T "Comment=%comment%" %source%
TOC of the extracted CD
Track | Start | Length | Start sector | End sector --------------------------------------------------------- 1 | 0:00.00 | 3:03.27 | 0 | 13751 2 | 3:03.27 | 4:08.24 | 13752 | 32375 3 | 7:11.51 | 3:33.28 | 32376 | 48378 4 | 10:45.04 | 2:25.65 | 48379 | 59318 5 | 13:10.69 | 3:14.67 | 59319 | 73935 6 | 16:25.61 | 3:53.11 | 73936 | 91421 7 | 20:18.72 | 4:29.71 | 91422 | 111667 8 | 24:48.68 | 5:00.14 | 111668 | 134181 9 | 29:49.07 | 7:27.11 | 134182 | 167717 10 | 37:16.18 | 5:49.59 | 167718 | 193951
Track 1
Filename H:\g.y.m\Markscheider Kunst - Krasivosleva (2001) [GL 10276]\01. Krasivo sleva.wav
Pre-gap length 0:00:02.00
Peak level 98.2 % Extraction speed 1.7 X Track quality 100.0 % Test CRC E40196A9 Copy CRC E40196A9 Accurately ripped (confidence 5) [1456B064] (AR v1) Copy OK
Track 2
Filename H:\g.y.m\Markscheider Kunst - Krasivosleva (2001) [GL 10276]\02. Moryak.wav
Peak level 98.2 % Extraction speed 1.4 X Track quality 99.9 % Test CRC AC3C7019 Copy CRC AC3C7019 Accurately ripped (confidence 5) [11AAC446] (AR v1) Copy OK
Track 3
Filename H:\g.y.m\Markscheider Kunst - Krasivosleva (2001) [GL 10276]\03. Reka.wav
Peak level 98.2 % Extraction speed 2.1 X Track quality 100.0 % Test CRC CE798C2F Copy CRC CE798C2F Accurately ripped (confidence 5) [BB4159C7] (AR v1) Copy OK
Track 4
Filename H:\g.y.m\Markscheider Kunst - Krasivosleva (2001) [GL 10276]\04. Tanec.wav
Peak level 98.2 % Extraction speed 2.1 X Track quality 100.0 % Test CRC F34F0AA9 Copy CRC F34F0AA9 Accurately ripped (confidence 5) [DC49923F] (AR v1) Copy OK
Track 5
Filename H:\g.y.m\Markscheider Kunst - Krasivosleva (2001) [GL 10276]\05. Babushka.wav
Peak level 98.2 % Extraction speed 1.6 X Track quality 99.9 % Test CRC 28048DA0 Copy CRC 28048DA0 Accurately ripped (confidence 5) [A7C720CA] (AR v1) Copy OK
Track 6
Filename H:\g.y.m\Markscheider Kunst - Krasivosleva (2001) [GL 10276]\06. Vstrecha.wav
Peak level 98.2 % Extraction speed 2.5 X Track quality 100.0 % Test CRC 281FA1DD Copy CRC 281FA1DD Accurately ripped (confidence 5) [41BBB529] (AR v1) Copy OK
Track 7
Filename H:\g.y.m\Markscheider Kunst - Krasivosleva (2001) [GL 10276]\07. Zambie.wav
Peak level 98.2 % Extraction speed 2.7 X Track quality 100.0 % Test CRC 58F14A45 Copy CRC 58F14A45 Accurately ripped (confidence 5) [DC61E206] (AR v1) Copy OK
Track 8
Filename H:\g.y.m\Markscheider Kunst - Krasivosleva (2001) [GL 10276]\08. Mokili.wav
Peak level 98.2 % Extraction speed 2.9 X Track quality 100.0 % Test CRC B40FDE06 Copy CRC B40FDE06 Accurately ripped (confidence 5) [08C07575] (AR v1) Copy OK
Track 9
Filename H:\g.y.m\Markscheider Kunst - Krasivosleva (2001) [GL 10276]\09. Zumu-zumu.wav
Peak level 98.2 % Extraction speed 3.3 X Track quality 100.0 % Test CRC 17CFB814 Copy CRC 17CFB814 Accurately ripped (confidence 5) [035116F0] (AR v1) Copy OK
Track 10
Filename H:\g.y.m\Markscheider Kunst - Krasivosleva (2001) [GL 10276]\10. Nashe delo.wav
Peak level 98.2 % Extraction speed 3.4 X Track quality 100.0 % Test CRC 2C01555D Copy CRC 2C01555D Accurately ripped (confidence 5) [F2C42A12] (AR v1) Copy OK
All tracks accurately ripped
No errors occurred
End of status report
==== Log checksum 26EE59599D8F5B22791FAE22E16660A919A840E628466583823036FE7109F420 ====

Содержание индексной карты (.CUE&#41;

REM GENRE SkaREM DATE 2001REM DISCID 890A1A0AREM COMMENT "ExactAudioCopy v1.0b3"PERFORMER "Markscheider Kunst"TITLE "Krasivosleva [GL 10276]"FILE "01. Krasivo sleva.wav" WAVE  TRACK 01 AUDIO    TITLE "Krasivo sleva"    PERFORMER "Markscheider Kunst"    INDEX 01 00:00:00FILE "02. Moryak.wav" WAVE  TRACK 02 AUDIO    TITLE "Moryak"    PERFORMER "Markscheider Kunst"    INDEX 01 00:00:00FILE "03. Reka.wav" WAVE  TRACK 03 AUDIO    TITLE "Reka"    PERFORMER "Markscheider Kunst"    INDEX 01 00:00:00FILE "04. Tanec.wav" WAVE  TRACK 04 AUDIO    TITLE "Tanec"    PERFORMER "Markscheider Kunst"    INDEX 01 00:00:00FILE "05. Babushka.wav" WAVE  TRACK 05 AUDIO    TITLE "Babushka"    PERFORMER "Markscheider Kunst"    INDEX 01 00:00:00FILE "06. Vstrecha.wav" WAVE  TRACK 06 AUDIO    TITLE "Vstrecha"    PERFORMER "Markscheider Kunst"    INDEX 01 00:00:00FILE "07. Zambie.wav" WAVE  TRACK 07 AUDIO    TITLE "Zambie"    PERFORMER "Markscheider Kunst"    INDEX 01 00:00:00FILE "08. Mokili.wav" WAVE  TRACK 08 AUDIO    TITLE "Mokili"    PERFORMER "Markscheider Kunst"    INDEX 01 00:00:00FILE "09. Zumu-zumu.wav" WAVE  TRACK 09 AUDIO    TITLE "Zumu-zumu"    PERFORMER "Markscheider Kunst"    INDEX 01 00:00:00FILE "10. Nashe delo.wav" WAVE  TRACK 10 AUDIO    TITLE "Nashe delo"    PERFORMER "Markscheider Kunst"    INDEX 01 00:00:00

Лог проверки качества

AUDIOCHECKER v2.0 beta (build 457) - by Dester - [email protected]~~~~~~~~~~~~~~~~~~~~~~~~~~~~~~~~~~-=== DO NOT EDIT THIS FILE! ===-
Path: ...\Markscheider Kunst - Krasivosleva (2001) [GL 10276]
01 -=- 01. Krasivo sleva.flac -=- CDDA (100%)02 -=- 02. Moryak.flac -=- CDDA (100%)03 -=- 03. Reka.flac -=- CDDA (100%)04 -=- 04. Tanec.flac -=- CDDA (99%)05 -=- 05. Babushka.flac -=- CDDA (100%)06 -=- 06. Vstrecha.flac -=- CDDA (100%)07 -=- 07. Zambie.flac -=- CDDA (100%)08 -=- 08. Mokili.flac -=- CDDA (100%)09 -=- 09. Zumu-zumu.flac -=- CDDA (100%)10 -=- 10. Nashe delo.flac -=- CDDA (99%)
Summary 99,80% CDDA
123251924

RelizMAN

Post 17-Mar-2018 14:35

[Quote]

Markscheider Kunst: Брадобрей
Жанр: Ska, Afro-cuban jazz
Носитель: CDS
Страна-производитель диска (релиза): Россия
Год издания: 2014
Издатель (лейбл): Bomba-Piter
Номер по каталогу: BP 06-14
Страна исполнителя (группы): Россия
Аудиокодек: FLAC (*.flac)
Тип рипа: tracks+.cue
Битрейт аудио: lossless
Продолжительность: 00:07:53
Источник (релизер): собственный рип
Наличие сканов в содержимом раздачи: да (jpeg 600 dpi)
Треклист:
01. Брадобрей (04:21)
02. Жара (03:32)

Лог создания рипа

Exact Audio Copy V1.1 from 23. June 2015
EAC extraction logfile from 6. August 2015, 2:18
Markscheider Kunst / Брадобрей (CDS) [BP 06-14]
Used drive : ASUS DRW-22B3S Adapter: 1 ID: 0
Read mode : SecureUtilize accurate stream : YesDefeat audio cache : YesMake use of C2 pointers : No
Read offset correction : 6Overread into Lead-In and Lead-Out : NoFill up missing offset samples with silence : YesDelete leading and trailing silent blocks : NoNull samples used in CRC calculations : YesUsed interface : Native Win32 interface for Win NT & 2000Gap handling : Appended to previous track
Used output format : User Defined EncoderSelected bitrate : 768 kBit/sQuality : HighAdd ID3 tag : NoCommand line compressor : C:\Program Files\Exact Audio Copy\FLAC\FLAC.EXEAdditional command line options : -V -8 -T "Genre=%genre%" -T "Artist=%artist%" -T "Title=%title%" -T "Album=%albumtitle%" -T "Date=%year%" -T "Tracknumber=%tracknr%" -T "Comment=%comment%" %source%
TOC of the extracted CD
Track | Start | Length | Start sector | End sector --------------------------------------------------------- 1 | 0:00.00 | 4:20.68 | 0 | 19567 2 | 4:20.68 | 3:31.40 | 19568 | 35432
Track 1
Filename H:\g.y.m\Markscheider Kunst - Брадобрей (CDS) (2014) [BP 06-14]\01. Брадобрей.wav
Pre-gap length 0:00:02.00
Peak level 99.4 % Extraction speed 4.7 X Track quality 99.9 % Test CRC 28D20AC9 Copy CRC 28D20AC9 Track not present in AccurateRip database Copy OK
Track 2
Filename H:\g.y.m\Markscheider Kunst - Брадобрей (CDS) (2014) [BP 06-14]\02. Жара.wav
Pre-gap length 0:00:02.00
Peak level 99.4 % Extraction speed 6.0 X Track quality 100.0 % Test CRC 80B22FD5 Copy CRC 80B22FD5 Track not present in AccurateRip database Copy OK
None of the tracks are present in the AccurateRip database
No errors occurred
End of status report
==== Log checksum 0EE5B0BC24C7CA9D55FAEB4A9AF4C145A9F96D74BA9A4E20DC4D7FF1D2952641 ====

Содержание индексной карты (.CUE&#41;

REM GENRE SkaREM DATE 2014REM DISCID 0C01D802REM COMMENT "ExactAudioCopy v1.1"PERFORMER "Markscheider Kunst"TITLE "Брадобрей (CDS) [BP 06-14]"FILE "01. Брадобрей.wav" WAVE  TRACK 01 AUDIO    TITLE "Брадобрей"    PERFORMER "Markscheider Kunst"    FLAGS DCP    INDEX 01 00:00:00  TRACK 02 AUDIO    TITLE "Жара"    PERFORMER "Markscheider Kunst"    FLAGS DCP    INDEX 00 04:18:68FILE "02. Жара.wav" WAVE    INDEX 01 00:00:00

Лог проверки качества

-----------------------
DON'T MODIFY THIS FILE
-----------------------
PERFORMER: auCDtect Task Manager, ver. 1.5.1RC6 build 1.5.1.7Copyright (c) 2008-2010 y-soft. All rights reservedhttp://y-soft.org
ANALYZER: auCDtect: CD records authenticity detector, version 0.8.2Copyright (c) 2004 Oleg Berngardt. All rights reserved.Copyright (c) 2004 Alexander Djourik. All rights reserved.
FILE: 01. Брадобрей.flac Size: 31713307 Hash: DA8AACDEDB566E10C4B25108EE04B98E Accuracy: -m0 Conclusion: CDDA 100% Signature: F9992146129955E6CF0069575D3940C29D5A0669FILE: 02. Жара.flac Size: 24799607 Hash: 961DED3F7B785A42C70B4C05F71410AD Accuracy: -m0 Conclusion: CDDA 100% Signature: 16FA77304EE4400D6DD37FBB57658C8AD7C3068B
 

Current time is: 02-Jul 19:39

All times are UTC + 3