Search found 500 matches

Author Message

RelizMAN

Post 27-Jun-2020 16:25

[Quote]

Ugis Praulins
Исполнитель: Ugis Praulins
Год издания: 1999, 2018
Жанр: Enigmatic / Gregorianic
Аудиокодек: FLAC (*.flac)
Тип рипа: tracks
Носитель: WEB
Источник: интернет (неизвестен)
Продолжительность: 01:59:32

1999 - Odi Et Amo

01. Odi Et Amo
02. Fiat Lux
03. Eden
04. Quare Fremuerunt Gentes
05. O Beata Trinitas
06. Rorando Coeli
07. Ad Dianam
08. Ave, Color Vini Clari
09. Qui Creavit Coelum
10. Pangue Lingua
11. Chorus Novae Ierusalem
12. Ave Maris Stella
13. Libera Me
Total time: 00:51:46

Отчет AudioChecker

AUDIOCHECKER v2.0 beta (build 457) - by Dester - [email protected]~~~~~~~~~~~~~~~~~~~~~~~~~~~~~~~~~~-=== НЕ РЕДАКТИРУЙТЕ ЭТОТ ФАЙЛ! ===-
Путь: ...\1999 - Odi Et Amo
01 -=- 01. Odi Et Amo.wav -=- CDDA (100%)02 -=- 02. Fiat Lux.wav -=- CDDA (100%)03 -=- 03. Eden.wav -=- CDDA (100%)04 -=- 04. Quare Fremuerunt Gentes.wav -=- CDDA (100%)05 -=- 05. O Beata Trinitas.wav -=- CDDA (100%)06 -=- 06. Rorando Coeli.wav -=- CDDA (100%)07 -=- 07. Ad Dianam.wav -=- CDDA (100%)08 -=- 08. Ave, Color Vini Clari.wav -=- CDDA (100%)09 -=- 09. Qui Creavit Coelum.wav -=- CDDA (100%)10 -=- 10. Pangue Lingua.wav -=- CDDA (100%)11 -=- 11. Chorus Novae Ierusalem.wav -=- CDDA (99%)12 -=- 12. Ave Maris Stella.wav -=- CDDA (100%)13 -=- 13. Libera Me.wav -=- CDDA (100%)
Сводка 99,92% CDDA
21217748

2018 - Odi Et Amo 2.0

01. Odi Et Amo
02. Fiat Lux
03. Eden
04. Sibyl
05. Quare Fremuerunt Gentes
06. O Beata Trinitas
07. Vidi
08. Rorando Coeli
09. Ad Dianam
10. Qui Me Amat
11. Ave Color Vini Clari
12. Qui Creavit Coelum
13. Pange Lingua
14. Ode Ad Apollinem
15. Chorus Novae Jerusalem
16. Ave Maris Stella
17. St. George
18. Libera Me
Total time: 01:07:46

Отчет AudioChecker

AUDIOCHECKER v2.0 beta (build 457) - by Dester - [email protected]~~~~~~~~~~~~~~~~~~~~~~~~~~~~~~~~~~-=== НЕ РЕДАКТИРУЙТЕ ЭТОТ ФАЙЛ! ===-
Путь: ...\Ugis Praulins – Odi Et Amo 2.0
01 -=- 01. Odi Et Amo.flac -=- CDDA (100%)02 -=- 02. Fiat Lux.flac -=- CDDA (100%)03 -=- 03. Eden.flac -=- CDDA (100%)04 -=- 04. Sibyl.flac -=- ERROR05 -=- 05. Quare Fremuerunt Gentes.flac -=- CDDA (100%)06 -=- 06. O Beata Trinitas.flac -=- CDDA (85%)07 -=- 07. Vidi.flac -=- CDDA (100%)08 -=- 08. Rorando Coeli.flac -=- CDDA (92%)09 -=- 09. Ad Dianam.flac -=- CDDA (100%)10 -=- 10. Qui Me Amat.flac -=- CDDA (100%)11 -=- 11. Ave Color Vini Clari.flac -=- CDDA (99%)12 -=- 12. Qui Creavit Coelum.flac -=- CDDA (100%)13 -=- 13. Pange Lingua.flac -=- CDDA (85%)14 -=- 14. Ode Ad Apollinem.flac -=- CDDA (100%)15 -=- 15. Chorus Novae Jerusalem.flac -=- CDDA (100%)16 -=- 16. Ave Maris Stella.flac -=- CDDA (100%)17 -=- 17. St. George.flac -=- CDDA (100%)18 -=- 18. Libera me.flac -=- CDDA (42%)
Сводка 94,29% CDDA
227751044

RelizMAN

Post 19-Jun-2020 03:05

[Quote]

-Gandalf Magic Theatre- Genre: New Age
Originally released: 1983
Country: Austria
CD: Germany, WEA Music Austria, 2292-40293-2, (1990)
Audio: FLAC (image+.cue)
Total Time: 51:45
Source: own rip
Scans: 600 dpi .jpg-1. Entrance: The Corridor of the Seven Doors (5:48)
2. 1st Door: Reflections From Childhood (4:05)
3. 2nd Door: Castles of Sand (13:12)
4. 3rd Door: Loss of Identity in the Labyrinth of Delusions (3:15)
5. 4th Door: The Magic Mirror (3:51)
6. 5th Door: Beyond the Wall of Ignorance (7:31)
7. 6th Door: Peace of Mind (4:52)
8. 7th Door: The Fountain of Real Joy (5:32)
9. Exit (3:36)
-

Log

Exact Audio Copy V1.3 from 2. September 2016
EAC extraction logfile from 13. June 2020, 19:31
Gandalf / Magic Theatre (2292-40293-2)
Used drive : HL-DT-STDVDRAM GE20NU11 Adapter: 1 ID: 0
Read mode : SecureUtilize accurate stream : YesDefeat audio cache : YesMake use of C2 pointers : No
Read offset correction : 667Overread into Lead-In and Lead-Out : NoFill up missing offset samples with silence : YesDelete leading and trailing silent blocks : NoNull samples used in CRC calculations : YesUsed interface : Native Win32 interface for Win NT & 2000
Used output format : User Defined EncoderSelected bitrate : 896 kBit/sQuality : HighAdd ID3 tag : NoCommand line compressor : C:\Program Files\Exact Audio Copy\Flac\flac.exeAdditional command line options : -V -8 -T "Date=%year%" -T "Genre=%genre%" %source%
TOC of the extracted CD
Track | Start | Length | Start sector | End sector --------------------------------------------------------- 1 | 0:00.00 | 5:48.42 | 0 | 26141 2 | 5:48.42 | 4:05.28 | 26142 | 44544 3 | 9:53.70 | 13:12.35 | 44545 | 103979 4 | 23:06.30 | 3:15.27 | 103980 | 118631 5 | 26:21.57 | 3:51.40 | 118632 | 135996 6 | 30:13.22 | 7:31.13 | 135997 | 169834 7 | 37:44.35 | 4:52.15 | 169835 | 191749 8 | 42:36.50 | 5:32.42 | 191750 | 216691 9 | 48:09.17 | 3:36.03 | 216692 | 232894
Range status and errors
Selected range
Filename Z:\OdW\Gandalf - 1983 - Magic Theatre (2292-40293-2)\Gandalf - Magic Theatre (2292-40293-2).wav
Peak level 99.9 % Extraction speed 7.2 X Range quality 100.0 % Test CRC 58B7C0FF Copy CRC 58B7C0FF Copy OK
No errors occurred
AccurateRip summary
Track 1 accurately ripped (confidence 22) [5A5A2170] (AR v2)Track 2 accurately ripped (confidence 22) [60172DD3] (AR v2)Track 3 accurately ripped (confidence 22) [C71C365C] (AR v2)Track 4 accurately ripped (confidence 22) [B64803B1] (AR v2)Track 5 accurately ripped (confidence 22) [F5B26650] (AR v2)Track 6 accurately ripped (confidence 22) [A668084C] (AR v2)Track 7 accurately ripped (confidence 21) [CFF09B88] (AR v2)Track 8 accurately ripped (confidence 21) [9C5F539A] (AR v2)Track 9 accurately ripped (confidence 20) [FE078B67] (AR v2)
All tracks accurately ripped
End of status report
---- CUETools DB Plugin V2.1.6
[CTDB TOCID: uHVs2lb3KMkEUDLlB5EzHoweJuc-] foundSubmit result: uHVs2lb3KMkEUDLlB5EzHoweJuc- has been confirmedTrack | CTDB Status 1 | (69/70) Accurately ripped 2 | (69/70) Accurately ripped 3 | (69/70) Accurately ripped 4 | (68/70) Accurately ripped 5 | (69/70) Accurately ripped 6 | (69/70) Accurately ripped 7 | (69/70) Accurately ripped 8 | (69/70) Accurately ripped 9 | (69/70) Accurately ripped
==== Log checksum 04EDE9421EBC8D38A9191EAED84342F11087E0ADDA9F484EC3E26AEF7368BC45 ====

.cue

REM GENRE "New Age"REM DATE 1983REM DISCID 890C2109REM COMMENT "ExactAudioCopy v1.3"PERFORMER "Gandalf"TITLE "Magic Theatre (2292-40293-2)"REM COMPOSER ""FILE "Gandalf - Magic Theatre (2292-40293-2).flac" WAVE  TRACK 01 AUDIO    TITLE "Entrance: The Corridor of the Seven Doors"    PERFORMER "Gandalf"    REM COMPOSER ""    INDEX 01 00:00:00  TRACK 02 AUDIO    TITLE "1st Door: Reflections From Childhood"    PERFORMER "Gandalf"    REM COMPOSER ""    INDEX 01 05:48:42  TRACK 03 AUDIO    TITLE "2nd Door: Castles of Sand"    PERFORMER "Gandalf"    REM COMPOSER ""    INDEX 00 09:51:65    INDEX 01 09:53:70  TRACK 04 AUDIO    TITLE "3rd Door: Loss of Identity in the Labyrinth of Delusions"    PERFORMER "Gandalf"    REM COMPOSER ""    INDEX 01 23:06:30  TRACK 05 AUDIO    TITLE "4th Door: The Magic Mirror"    PERFORMER "Gandalf"    REM COMPOSER ""    INDEX 00 26:19:11    INDEX 01 26:21:57  TRACK 06 AUDIO    TITLE "5th Door: Beyond the Wall of Ignorance"    PERFORMER "Gandalf"    REM COMPOSER ""    INDEX 01 30:13:22  TRACK 07 AUDIO    TITLE "6th Door: Peace of Mind"    PERFORMER "Gandalf"    REM COMPOSER ""    INDEX 01 37:44:35  TRACK 08 AUDIO    TITLE "7th Door: The Fountain of Real Joy"    PERFORMER "Gandalf"    REM COMPOSER ""    INDEX 01 42:36:50  TRACK 09 AUDIO    TITLE "Exit"    PERFORMER "Gandalf"    REM COMPOSER ""    INDEX 01 48:09:17

.accurip

[CUETools log; Date: 18.06.2020 23:04:23; Version: 2.1.5][CTDB TOCID: uHVs2lb3KMkEUDLlB5EzHoweJuc-] found.Track | CTDB Status  1   | (70/71) Accurately ripped  2   | (70/71) Accurately ripped  3   | (70/71) Accurately ripped  4   | (69/71) Accurately ripped  5   | (70/71) Accurately ripped  6   | (70/71) Accurately ripped  7   | (70/71) Accurately ripped  8   | (70/71) Accurately ripped  9   | (70/71) Accurately ripped[AccurateRip ID: 0012ed94-0089870d-890c2109] found.Track   [  CRC   |   V2   ] Status 01     [1b6aabcd|5a5a2170] (09+22/38) Accurately ripped 02     [e8b68eea|60172dd3] (10+22/39) Accurately ripped 03     [4e1809ab|c71c365c] (10+22/39) Accurately ripped 04     [620c60eb|b64803b1] (10+22/39) Accurately ripped 05     [b2755d16|f5b26650] (10+22/39) Accurately ripped 06     [28d493cf|a668084c] (10+22/37) Accurately ripped 07     [bb3eae47|cff09b88] (10+21/38) Accurately ripped 08     [a8284333|9c5f539a] (10+21/36) Accurately ripped 09     [da97f103|fe078b67] (10+20/37) Accurately rippedOffsetted by -882: 01     [8c04c521] (02/38) Accurately ripped 02     [6ebc4e91] (02/39) Accurately ripped 03     [e74f8b30] (02/39) Accurately ripped 04     [9d1c3bdd] (02/39) Accurately ripped 05     [b3020a7b] (02/39) Accurately ripped 06     [f8c512d2] (02/37) Accurately ripped 07     [74266358] (02/38) Accurately ripped 08     [3ab794e2] (02/36) Accurately ripped 09     [721e4b0d] (02/37) Accurately rippedOffsetted by -828: 01     [d6d00fe8] (00/38) No match (V2 was not tested) 02     [bf083bdc] (00/39) No match (V2 was not tested) 03     [2e64f21a] (00/39) No match (V2 was not tested) 04     [bca0d839] (00/39) No match (V2 was not tested) 05     [3831094f] (00/39) No match (V2 was not tested) 06     [b3fc0b2b] (00/37) No match (V2 was not tested) 07     [1559f3b1] (00/38) No match (V2 was not tested) 08     [ce517435] (00/36) No match (V2 was not tested) 09     [c9000cfb] (00/37) No match (V2 was not tested)
Track Peak [ CRC32 ] [W/O NULL] [ LOG ] -- 99,9 [58B7C0FF] [57216A81] CRC32 01 99,9 [A3E329D7] [FFCDAAF2] 02 54,1 [49C4E714] [248AD240] 03 76,3 [F4684D84] [9AC83F95] 04 92,0 [48B73781] [36FB9827] 05 71,4 [4D0FF703] [0AC930D6] 06 54,2 [869E3C6D] [AE84FC72] 07 95,2 [EFADC95B] [FA618158] 08 65,4 [2EF05BCE] [97808C45] 09 69,1 [4B542559] [3DDF6C9E]
-

CD, Matrix, Back



RelizMAN

Post 10-Jun-2020 02:50

[Quote]

Deep Forest / Deep Forest
Жанр: Electronic, Ambient, World music
Носитель: CD
Страна-производитель диска (релиза): USA
Год издания: 1992
Издатель (лейбл): 550 Music
Номер по каталогу: BK 57840
Страна исполнителя (группы): France
Аудиокодек: FLAC (*.flac)
Тип рипа: image+.cue
Продолжительность: 00:46:49
Источник: собственный рип
Наличие сканов в содержимом раздачи: да
Треклист:
1. Deep Forest (5:34)
2. Sweet Lullaby (3:53)
3. Hunting (3:27)
4. Night Bird (4:18)
5. The First Twilight (3:18)
6. Savana Dance (4:25)
7. Desert Walk (5:14)
8. White Whisper (5:45)
9. The Second Twilight (1:24)
10. Sweet Lullaby (Ambient Mix) (3:41)
11. Forest Hymn (5:50)

Лог создания рипа

Exact Audio Copy V1.0 beta 3 from 29. August 2011
EAC extraction logfile from 5. September 2019, 23:32
Deep Forest / Deep Forest
Used drive : PIONEER BD-RW BDR-TD03 Adapter: 0 ID: 1
Read mode : SecureUtilize accurate stream : YesDefeat audio cache : YesMake use of C2 pointers : No
Read offset correction : 667Overread into Lead-In and Lead-Out : NoFill up missing offset samples with silence : YesDelete leading and trailing silent blocks : NoNull samples used in CRC calculations : YesUsed interface : Native Win32 interface for Win NT & 2000
Used output format : User Defined EncoderSelected bitrate : 768 kBit/sQuality : HighAdd ID3 tag : NoCommand line compressor : C:\Program Files (x86)\Exact Audio Copy\FLAC\FLAC.EXEAdditional command line options : -V -8 -T "Date=%year%" -T "Genre=%genre%" %source%
TOC of the extracted CD
Track | Start | Length | Start sector | End sector --------------------------------------------------------- 1 | 0:00.00 | 5:34.00 | 0 | 25049 2 | 5:34.00 | 3:53.50 | 25050 | 42574 3 | 9:27.50 | 3:27.35 | 42575 | 58134 4 | 12:55.10 | 4:18.07 | 58135 | 77491 5 | 17:13.17 | 3:18.03 | 77492 | 92344 6 | 20:31.20 | 4:25.10 | 92345 | 112229 7 | 24:56.30 | 5:14.10 | 112230 | 135789 8 | 30:10.40 | 5:45.65 | 135790 | 161729 9 | 35:56.30 | 1:24.45 | 161730 | 168074 10 | 37:21.00 | 3:41.30 | 168075 | 184679 11 | 41:02.30 | 5:50.00 | 184680 | 210929
Range status and errors
Selected range
Filename C:\Users\Deris\Desktop\kpnemo.eu\Deep4est92\Deep Forest - Deep Forest.wav
Peak level 97.7 % Extraction speed 1.8 X Range quality 99.9 % Test CRC 67D2F231 Copy CRC 67D2F231 Copy OK
No errors occurred
AccurateRip summary
Track 1 accurately ripped (confidence 15) [AFFE735D] (AR v2)Track 2 accurately ripped (confidence 15) [B540CEF4] (AR v2)Track 3 accurately ripped (confidence 16) [5AB9ACDA] (AR v2)Track 4 accurately ripped (confidence 15) [E4E731B4] (AR v2)Track 5 accurately ripped (confidence 16) [4F086C53] (AR v2)Track 6 accurately ripped (confidence 16) [77512EC0] (AR v2)Track 7 accurately ripped (confidence 15) [C8FC9C6B] (AR v2)Track 8 accurately ripped (confidence 16) [95C87423] (AR v2)Track 9 accurately ripped (confidence 16) [8991225E] (AR v2)Track 10 accurately ripped (confidence 16) [983E6362] (AR v2)Track 11 accurately ripped (confidence 14) [024532CA] (AR v2)
All tracks accurately ripped
End of status report
---- CUETools DB Plugin V2.1.3
[CTDB TOCID: BAi9peo5VWfXJ5NUn1OqjjsSLWs-] found, Submit result: BAi9peo5VWfXJ5NUn1OqjjsSLWs- has been confirmed[31c33474] (121/128) Accurately ripped[0ed28459] (001/128) No match[ba97e269] (001/128) No match[8015690f] (001/128) No match[1f0dc218] (001/128) No match[9c43f0be] (001/128) No match[11b15acf] (001/128) No match[1a7481c4] (001/128) No match
==== Log checksum 92B754799CD93F32C486A487EFBED1FDBAADF9090ED317A323CE5CE89E3A23A4 ====

Содержание индексной карты (.CUE)

REM GENRE ElectronicaREM DATE 1993REM DISCID 960AFC0BREM COMMENT "ExactAudioCopy v1.0b3"PERFORMER "Deep Forest"TITLE "Deep Forest"FILE "Deep Forest - Deep Forest.flac" WAVE  TRACK 01 AUDIO    TITLE "Deep Forest"    PERFORMER "Deep Forest"    INDEX 01 00:00:00  TRACK 02 AUDIO    TITLE "Sweet Lullaby"    PERFORMER "Deep Forest"    INDEX 01 05:34:00  TRACK 03 AUDIO    TITLE "Hunting"    PERFORMER "Deep Forest"    INDEX 01 09:27:50  TRACK 04 AUDIO    TITLE "Night Bird"    PERFORMER "Deep Forest"    INDEX 01 12:55:10  TRACK 05 AUDIO    TITLE "The First Twilight"    PERFORMER "Deep Forest"    INDEX 01 17:13:17  TRACK 06 AUDIO    TITLE "Savana Dance"    PERFORMER "Deep Forest"    INDEX 01 20:31:20  TRACK 07 AUDIO    TITLE "Desert Walk"    PERFORMER "Deep Forest"    INDEX 01 24:56:30  TRACK 08 AUDIO    TITLE "White Whisper"    PERFORMER "Deep Forest"    INDEX 01 30:10:40  TRACK 09 AUDIO    TITLE "The Second Twilight"    PERFORMER "Deep Forest"    INDEX 01 35:56:30  TRACK 10 AUDIO    TITLE "Sweet Lullaby (Ambient Mix)"    PERFORMER "Deep Forest"    INDEX 01 37:21:00  TRACK 11 AUDIO    TITLE "Forest Hymn"    PERFORMER "Deep Forest"    INDEX 00 41:02:05    INDEX 01 41:02:30

Об исполнителе (группе)

Deep Forest - музыкальная группа, состоящая из двух французских музыкантов Eric Mouquet и Michel Sanchez. Фактически музыканты Deep Forest единолично создали столь популярный сегодня стиль world music. Deep Forest первым среди тяготеющих к рок-этносу групп придал прежде пунктирным и хаотическим вкраплениям элементов world music законченную, совершенную форму, эталоном которой можно считать выдающийся хит группы Sweet Lullaby. История гласит, что Deep Forest начался с возвращения Sanchezа из Африки, где он занимался изучением структур и гармонии африканской музыки - методом проб и ошибок Sanchez и Mouquet искали необходимый для их проекта саунд, пробовали различные формы как лидирующего так и бэк-вокала, и в конце концов остановились на модели, для которой характерны выведенный на передний план голос, который плавает по ткани композиций, опираясь на гармонические структуры стилизованной народной музыки Заира, Камеруна и Центральной Африканской Республики.
Дебютный сингл дуэта Sweet Lullaby (1992) стал международным бестселлером, выведя на лидирующие позиции европейских хит-парадов и первый полнометражный альбом Deep Forest. Альбом был номинирован на Grammy Award как Best World Music Album в 1994 году. Было продано более 3 миллионов копий альбома. Альбом стал платиновым в США, Франции и Новой Зеландии, дважды платиновым в Австралии и Греции, и золотым в Великобритании и Норвегии.

RelizMAN

Post 08-Jun-2020 12:55

[Quote]

The John Tesh Project / Pure Movies
Жанр: New Age
Носитель: WEB
Год издания: 1998
Страна исполнителя (группы): USA
Аудиокодек: FLAC (*.flac)
Тип рипа: tracks
Продолжительность: 01:04:53
Источник: интернет (неизвестен)
Наличие сканов в содержимом раздачи: нет
Треклист:
01. Because You Loved Me
02. My Heart Will Go On
03. Love Theme From St. Elmo's Fire
04. Look What You've Done To Me
05. When I Fall In Love
06. A Whole New World
07. Do You Know Where You're Going To
08. Can You Feel The Love Tonight
09. I Will Always Love You
10. Somewhere Out There
11. Almost Paradise
12. (Everything I Do) I Do It For You
13. Tears In Heaven
14. Up Where We Belong
15. The Glory Of Love
16. It Must Have Been Love

скрытый текст

Started at: понедельник, 08. 06. 2020. - 13:52.24
16 files found
01 -===- G:\Audio\Instrumental Ethnic New Age\The John Tesh Project [New Age]\The John Tesh Project - 1998 - Pure Movies [CD]\01. Because You Loved Me.flac
Extracted successfully
Conclusion: this track is CDDA with probability 94%
Tempfile successfully deleted.
02 -===- G:\Audio\Instrumental Ethnic New Age\The John Tesh Project [New Age]\The John Tesh Project - 1998 - Pure Movies [CD]\02. My Heart Will Go On.flac
Extracted successfully
Conclusion: this track is CDDA with probability 85%
Tempfile successfully deleted.
03 -===- G:\Audio\Instrumental Ethnic New Age\The John Tesh Project [New Age]\The John Tesh Project - 1998 - Pure Movies [CD]\03. Love Theme From St. Elmo's Fire.flac
Extracted successfully
Conclusion: this track is CDDA with probability 100%
Tempfile successfully deleted.
04 -===- G:\Audio\Instrumental Ethnic New Age\The John Tesh Project [New Age]\The John Tesh Project - 1998 - Pure Movies [CD]\04. Look What You've Done To Me.flac
Extracted successfully
Conclusion: this track is CDDA with probability 92%
Tempfile successfully deleted.
05 -===- G:\Audio\Instrumental Ethnic New Age\The John Tesh Project [New Age]\The John Tesh Project - 1998 - Pure Movies [CD]\05. When I Fall In Love.flac
Extracted successfully
Conclusion: this track is CDDA with probability 100%
Tempfile successfully deleted.
06 -===- G:\Audio\Instrumental Ethnic New Age\The John Tesh Project [New Age]\The John Tesh Project - 1998 - Pure Movies [CD]\06. A Whole New World.flac
Extracted successfully
Conclusion: could not qualify the source of this track
Tempfile successfully deleted.
07 -===- G:\Audio\Instrumental Ethnic New Age\The John Tesh Project [New Age]\The John Tesh Project - 1998 - Pure Movies [CD]\07. Do You Know Where You're Going To.flac
Extracted successfully
Conclusion: this track is CDDA with probability 100%
Tempfile successfully deleted.
08 -===- G:\Audio\Instrumental Ethnic New Age\The John Tesh Project [New Age]\The John Tesh Project - 1998 - Pure Movies [CD]\08. Can You Feel The Love Tonight.flac
Extracted successfully
Conclusion: this track is CDDA with probability 86%
Tempfile successfully deleted.
09 -===- G:\Audio\Instrumental Ethnic New Age\The John Tesh Project [New Age]\The John Tesh Project - 1998 - Pure Movies [CD]\09. I Will Always Love You.flac
Extracted successfully
Conclusion: this track is CDDA with probability 100%
Tempfile successfully deleted.
10 -===- G:\Audio\Instrumental Ethnic New Age\The John Tesh Project [New Age]\The John Tesh Project - 1998 - Pure Movies [CD]\10. Somewhere Out There.flac
Extracted successfully
Conclusion: this track is CDDA with probability 100%
Tempfile successfully deleted.
11 -===- G:\Audio\Instrumental Ethnic New Age\The John Tesh Project [New Age]\The John Tesh Project - 1998 - Pure Movies [CD]\11. Almost Paradise.flac
Extracted successfully
Conclusion: this track is CDDA with probability 100%
Tempfile successfully deleted.
12 -===- G:\Audio\Instrumental Ethnic New Age\The John Tesh Project [New Age]\The John Tesh Project - 1998 - Pure Movies [CD]\12. (Everything I Do) I Do It For You.flac
Extracted successfully
Conclusion: this track is CDDA with probability 100%
Tempfile successfully deleted.
13 -===- G:\Audio\Instrumental Ethnic New Age\The John Tesh Project [New Age]\The John Tesh Project - 1998 - Pure Movies [CD]\13. Tears In Heaven.flac
Extracted successfully
Conclusion: could not qualify the source of this track
Tempfile successfully deleted.
14 -===- G:\Audio\Instrumental Ethnic New Age\The John Tesh Project [New Age]\The John Tesh Project - 1998 - Pure Movies [CD]\14. Up Where We Belong.flac
Extracted successfully
Conclusion: this track is CDDA with probability 100%
Tempfile successfully deleted.
15 -===- G:\Audio\Instrumental Ethnic New Age\The John Tesh Project [New Age]\The John Tesh Project - 1998 - Pure Movies [CD]\15. The Glory Of Love.flac
Extracted successfully
Conclusion: this track is CDDA with probability 100%
Tempfile successfully deleted.
16 -===- G:\Audio\Instrumental Ethnic New Age\The John Tesh Project [New Age]\The John Tesh Project - 1998 - Pure Movies [CD]\16. It Must Have Been Love.flac
Extracted successfully
Conclusion: this track is CDDA with probability 99%
Tempfile successfully deleted.
Finished at: понедельник, 08. 06. 2020. - 13:56.58 (operation time: 0:04.33)

RelizMAN

Post 06-Jun-2020 16:35

[Quote]

Sangit Om
Исполнитель: Sangit Om
Год издания: 1988 - 2018
Жанр: New Age
Аудиокодек: FLAC (*.flac)
Тип рипа: tracks
Носитель: WEB
Источник: интернет (неизвестен)
Продолжительность: 10:05:48

1988 - True Stories

01. Indian Spring
02. Bamboo Moon
03. Daydream
04. My Song
05. Pan's Return
06. The Caravan
07. When The Rain Falls
08. Forever Child
Total time: 00:46:34

1991 - Dimensions Of Life

01. No Beginning
02. Falling Stars
03. Tristezza
04. Playing Child
05. The Whales' Secret Garden
06. Circle
07. Dimensions Of Life
08. Remembrance
09. Inner Treasure
Total time: 00:46:34

1994 - Bamboo Moon

01. Seven Steps
02. Bamboo Dream
03. Pan's Farewell
04. Little Princess
05. East Wind
06. Liliom
07. The Jungle
08. Waves
Total time: 00:55:13

1997 - Inspiration

01. The Sound Of Wisdom
02. Dance On Chinese Wall
03. Melting In One
04. Inspiration Well
05. La Strada
06. Finally Together
07. Some Song To Sing
08. SANGIT OM - Rainbow Clouds
Total time: 00:51:13

2000 - The Feng Shui Effect

01. Heaven – Helpful Friends
02. Wind – Wealth
03. Fire – Fame
04. Water – Career
05. Earth – Marriage
06. Mountain – Wisdom
07. Lake – Children
08. Thunder – Family
Total time: 00:55:46

2003 - The Spirit Of Tai Chi

01. West (Tui)
02. East (Chen)
03. South (Li)
04. North (Kan)
Total time: 00:59:43

2007 - Songs From The Heart

01. Down By The Sally Gardens
02. Into Yam
03. Ta Bengalika Sou Matia
04. Agua Fresca
05. Sereno
06. She Moved Through The Fair
07. Milo Mou Kokkino
08. Dat Du Min Leevsten Bist
09. Yahoori Yahoor
10. Stopa Kai Sto Ksanaleo
11. Wan Wagninkte
Total time: 00:58:40

2008 - Qi Gong

01. Qui
02. The Sun
03. The Crane
04. The Bear
05. The Deer
06. The Moon
07. Lotus Jewel
08. The Tiger
09. The Monkey
10. Shen
11. Letting Go
Total time: 01:04:28

2009 - The Spirit Of Yoga

01. The Open Door
02. Raga Bhoopali
03. Yamuna (Mantra)
04. The Inner Flame
05. In Balance
06. Kali Durgai (Mantra)
07. Raga Bhairavi
08. Nataraj
09. Raga Kafi
10. Bhakti
11. Raga Abhogi
12. The Open Sky
Total time: 01:01:52

2018 - East And West

01. Anatoli Kai Dysi
02. Aman
03. O Psevtis Kosmos
04. Astra Mi Me Malonete
05. Wild Flower
06. Stala Ti Stala
07. Stopa Kai To Ksanaleo
08. Megali Leksi
09. Melachrino Mou Oneiro
10. Monos Mou
11. Rodo Mou
Total time: 00:49:04

2018 - Time For Christmas

01. Sing We Now Of Christmas
02. What Child Is This
03. Joseph Lieber Joseph Mein
04. Les Anges
05. We Three Kings
06. Maria Durch Ein' Dornwald Ging
07. Fum Fum Fum
08. Vom Himmel Hoch Da Komm Ich Her
09. O Come, O Come, Emmanuel
10. God Rest Ye Merry Gentlemen
11. Still, Still, Still
12. The First Noel
Total time: 00:56:42

Отчет AudioChecker

AUDIOCHECKER v2.0 beta (build 457) - by Dester - [email protected]~~~~~~~~~~~~~~~~~~~~~~~~~~~~~~~~~~-=== НЕ РЕДАКТИРУЙТЕ ЭТОТ ФАЙЛ! ===-
Путь: ...\1988 - True Stories
001 -=- 01. Indian Spring.flac -=- CDDA (100%)002 -=- 02. Bamboo Moon.flac -=- CDDA (100%)003 -=- 03. Daydream.flac -=- CDDA (100%)004 -=- 04. My Song.flac -=- CDDA (100%)005 -=- 05. Pan's Return.flac -=- CDDA (100%)006 -=- 06. The Caravan.flac -=- CDDA (100%)007 -=- 07. When The Rain Falls.flac -=- CDDA (100%)008 -=- 08. Forever Child.flac -=- CDDA (99%)
Сводка 99,88% CDDA
264908756
Путь: ...\1991 - Dimensions Of Life
001 -=- 01. No Beginning.flac -=- ERROR002 -=- 02. Falling Stars.flac -=- CDDA (100%)003 -=- 03. Tristezza.flac -=- ERROR004 -=- 04. Playing Child.flac -=- CDDA (76%)005 -=- 05. The Whales' Secret Garden.flac -=- MPEG (95%)006 -=- 06. Circle.flac -=- CDDA (100%)007 -=- 07. Dimensions Of Life.flac -=- CDDA (100%)008 -=- 08. Remembrance.flac -=- CDDA (49%)009 -=- 09. Inner Treasure.flac -=- MPEG (95%)
Сводка 62,14% CDDA
5817924
Путь: ...\1994 - Bamboo Moon
001 -=- 01. Seven Steps.flac -=- CDDA (100%)002 -=- 02. Bamboo Dream.flac -=- CDDA (100%)003 -=- 03. Pan's Farewell.flac -=- CDDA (100%)004 -=- 04. Little Princess.flac -=- CDDA (100%)005 -=- 05. East Wind.flac -=- CDDA (100%)006 -=- 06. Liliom.flac -=- CDDA (100%)007 -=- 07. The Jungle.flac -=- CDDA (100%)008 -=- 08. Waves.flac -=- CDDA (100%)
Сводка 100,00% CDDA
182651268
Путь: ...\1997 - Inspiration
001 -=- 01. The Sound Of Wisdom.flac -=- CDDA (99%)002 -=- 02. Dance On Chinese Wall.flac -=- CDDA (100%)003 -=- 03. Melting In One.flac -=- CDDA (100%)004 -=- 04. Inspiration Well.flac -=- CDDA (100%)005 -=- 05. La Strada.flac -=- CDDA (100%)006 -=- 06. Finally Together.flac -=- CDDA (99%)007 -=- 07. Some Song To Sing.flac -=- CDDA (58%)008 -=- 08. Rainbow Clouds.flac -=- CDDA (100%)
Сводка 94,50% CDDA
204054756
Путь: ...\2000 - The Feng Shui Effect
001 -=- 01. Heaven – Helpful Friends.flac -=- CDDA (100%)002 -=- 02. Wind – Wealth.flac -=- CDDA (100%)003 -=- 03. Fire – Fame.flac -=- CDDA (100%)004 -=- 04. Water – Career.flac -=- CDDA (100%)005 -=- 05. Earth – Marriage.flac -=- CDDA (100%)006 -=- 06. Mountain – Wisdom.flac -=- CDDA (94%)007 -=- 07. Lake – Children.flac -=- CDDA (100%)008 -=- 08. Thunder – Family.flac -=- CDDA (100%)
Сводка 99,25% CDDA
25129668
Путь: ...\2003 - The Spirit Of Tai Chi
001 -=- 01. West (Tui).flac -=- CDDA (100%)002 -=- 02. East (Chen).flac -=- CDDA (100%)003 -=- 03. South (Li).flac -=- CDDA (100%)004 -=- 04. North (Kan).flac -=- CDDA (100%)
Сводка 100,00% CDDA
158781604
Путь: ...\2007 - Songs From The Heart
001 -=- 01. Down By The Sally Gardens.flac -=- CDDA (94%)002 -=- 02. Into Yam.flac -=- CDDA (100%)003 -=- 03. Ta Bengalika Sou Matia.flac -=- CDDA (100%)004 -=- 04. Agua Fresca.flac -=- CDDA (100%)005 -=- 05. Sereno.flac -=- CDDA (100%)006 -=- 06. She Moved Through The Fair.flac -=- CDDA (100%)007 -=- 07. Milo Mou Kokkino.flac -=- CDDA (100%)008 -=- 08. Dat Du Min Leevsten Bist.flac -=- CDDA (100%)009 -=- 09. Yahoori Yahoor.flac -=- CDDA (58%)010 -=- 10. Stopa Kai Sto Ksanaleo.flac -=- CDDA (100%)011 -=- 11. Wan Wagninkte.flac -=- MPEG (95%)
Сводка 87,00% CDDA
32805556
Путь: ...\2008 - Qi Gong
001 -=- 01. Qui.flac -=- CDDA (100%)002 -=- 02. The Sun.flac -=- CDDA (100%)003 -=- 03. The Crane.flac -=- CDDA (100%)004 -=- 04. The Bear.flac -=- CDDA (100%)005 -=- 05. The Deer.flac -=- CDDA (100%)006 -=- 06. The Moon.flac -=- CDDA (100%)007 -=- 07. Lotus Jewel.flac -=- CDDA (100%)008 -=- 08. The Tiger.flac -=- CDDA (100%)009 -=- 09. The Monkey.flac -=- CDDA (100%)010 -=- 10. Shen.flac -=- CDDA (100%)011 -=- 11. Letting Go.flac -=- CDDA (99%)
Сводка 99,91% CDDA
109667748
Путь: ...\2009 - The Spirit Of Yoga
001 -=- 01. The Open Door.flac -=- CDDA (100%)002 -=- 02. Raga Bhoopali.flac -=- MPEG (100%)003 -=- 03. Yamuna (Mantra).flac -=- CDDA (100%)004 -=- 04. The Inner Flame.flac -=- CDDA (94%)005 -=- 05. In Balance.flac -=- MPEG (100%)006 -=- 06. Kali Durgai (Mantra).flac -=- CDDA (100%)007 -=- 07. Raga Bhairavi.flac -=- MPEG (100%)008 -=- 08. Nataraj.flac -=- CDDA (86%)009 -=- 09. Raga Kafi.flac -=- MPEG (100%)010 -=- 10. Bhakti.flac -=- CDDA (100%)011 -=- 11. Raga Abhogi.flac -=- MPEG (100%)012 -=- 12. The Open Sky.flac -=- CDDA (100%)
Сводка 56,67% CDDA
256306180
Путь: ...\2018 - East And West
001 -=- 01. Anatoli Kai Dysi.flac -=- CDDA (100%)002 -=- 02. Aman.flac -=- CDDA (87%)003 -=- 03. O Psevtis Kosmos.flac -=- CDDA (99%)004 -=- 04. Astra Mi Me Malonete.flac -=- CDDA (100%)005 -=- 05. Wild Flower.flac -=- CDDA (99%)006 -=- 06. Stala Ti Stala.flac -=- CDDA (100%)007 -=- 07. Stopa Kai To Ksanaleo.flac -=- CDDA (100%)008 -=- 08. Megali Leksi.flac -=- CDDA (100%)009 -=- 09. Melachrino Mou Oneiro.flac -=- CDDA (100%)010 -=- 10. Monos Mou.flac -=- CDDA (99%)011 -=- 11. Rodo Mou.flac -=- CDDA (100%)
Сводка 98,55% CDDA
113601092
Путь: ...\2018 - Time For Christmas
001 -=- 01. Sing We Now Of Christmas.flac -=- CDDA (100%)002 -=- 02. What Child Is This.flac -=- CDDA (100%)003 -=- 03. Joseph Lieber Joseph Mein.flac -=- CDDA (100%)004 -=- 04. Les Anges.flac -=- CDDA (100%)005 -=- 05. We Three Kings.flac -=- CDDA (43%)006 -=- 06. Maria Durch Ein' Dornwald Ging.flac -=- CDDA (100%)007 -=- 07. Fum Fum Fum.flac -=- CDDA (100%)008 -=- 08. Vom Himmel Hoch Da Komm Ich Her.flac -=- CDDA (100%)009 -=- 09. O Come, O Come, Emmanuel.flac -=- CDDA (100%)010 -=- 10. God Rest Ye Merry Gentlemen.flac -=- CDDA (100%)011 -=- 11. Still, Still, Still.flac -=- CDDA (100%)012 -=- 12. The First Noel.flac -=- CDDA (100%)
Сводка 95,25% CDDA
260561636
Дополнительная информация: До полной дискографии не хватает альбомов:
* "1992 - Changing" (залил на трекер в mp3) https://rutracker.org/forum/viewtopic.php?t=5905012,
* "1999 - Midwinter's Dream" (в раздаче имеется переиздание "2018 - Time For Christmas"),
* "2001 - Time To Say Good Night".

RelizMAN

Post 31-May-2020 12:20

[Quote]

OLIVER SHANTI Seven Years In Tibet (Buda Bar)
Исполнитель: Oliver Shanti
Альбом: Seven Years In Tibet (Buda Bar)
Жанр: New Age/Meditative
Год издания: 2012
Носитель: WEB https://www.deezer.com/ru/album/121958582
Источник: Deezer.com
Аудиокодек: FLAC (*.flac)
Тип рипа: tracks
Продолжительность: 00:31:37
Треклист:
01. Seven Years in Tibet
02. River Of Souls
03. Macao
04. Angels In The Sky
05. Love Of God
06. Nirvana

Отчет AudioChecker

AUDIOCHECKER v2.0 beta (build 457) - by Dester - [email protected]~~~~~~~~~~~~~~~~~~~~~~~~~~~~~~~~~~-=== НЕ РЕДАКТИРУЙТЕ ЭТОТ ФАЙЛ! ===-
Путь: ...\Oliver Shanti - Buda Bar (Seven Years in Tibet)
1 -=- 1 - Seven Years in Tibet.flac -=- CDDA (99%)2 -=- 2 - River of Souls.flac -=- CDDA (100%)3 -=- 3 - Macao.flac -=- CDDA (100%)4 -=- 4 - Angels in the sky.flac -=- CDDA (100%)5 -=- 5 - Love of God.flac -=- CDDA (100%)6 -=- 6 - Nirvana.flac -=- CDDA (100%)
Сводка 99,83% CDDA
127724196

RelizMAN

Post 23-May-2020 10:05

[Quote]

付娜&高志坚 — 面对面3(古筝VS大提琴)
Fu Na & Gao Zhijian — Face To Face 3 (Guzheng VS Cello)
- Жанр: Instrumental
Носитель: CD
Страна: Китай
Год издания: 2009
Аудиокодек: FLAC (*.flac)
Тип рипа: image+.cue
Продолжительность: 01:06:39
Источник: интернет
Наличие сканов в раздачe: only cover
-
Треклист:
01. 画心 Painted heart (电影《画皮》主题曲) 6:41
02. 晴雯曲 Qing wen melody (电视剧《红楼梦》插曲) 5:14
03. 杨柳青 Green of poplar and willow 5:24
04. 我的嫦娥 My Change (韩剧《正祖大王》片尾曲) 4:35
05. 岁月如歌 Song of the age (泰国电影《天生拳霸》主题曲) 6:11
06. 苍天 Empyrean (online 主题曲) 4:22
07. 我和你 You and me 4:41
08. 梦会 Together in the dream 6:11
09. 肯去承担爱 Bear love (电视剧《射雕英雄传》插曲) 4:23
10. 红线情 Love of red thread 5:01
11. 姻缘 Marriage affinity (韩剧《王的男人》主题曲) 4:38
12. 春梦 Dream in spring 4:33
13. 世间情 Love in life 4:45
-

CUE

REM DATE 2009PERFORMER "付娜&高志坚"TITLE "面对面3 大提琴VS古筝"REM DISCID A60F9F0DREM COMMENT "ExactAudioCopy v0.95b3"FILE "Face To Face III.flac" WAVE  TRACK 01 AUDIO    TITLE "画心 Painted heart (电影《画皮》主题曲)"    INDEX 01 00:00:00  TRACK 02 AUDIO    TITLE "晴雯曲 Qing wen melody (电视剧《红楼梦》插曲)"    INDEX 00 06:38:63    INDEX 01 06:40:63  TRACK 03 AUDIO    TITLE "杨柳青 Green of poplar and willow"    INDEX 00 11:52:66    INDEX 01 11:54:65  TRACK 04 AUDIO    TITLE "我的嫦娥 My Change (韩剧《正祖大王》片尾曲)"    INDEX 00 17:16:55    INDEX 01 17:18:54  TRACK 05 AUDIO    TITLE "岁月如歌 Song of the age (泰国电影《天生拳霸》主题曲)"    INDEX 00 21:51:71    INDEX 01 21:53:71  TRACK 06 AUDIO    TITLE "苍天 Empyrean (online 主题曲)"    INDEX 00 28:03:13    INDEX 01 28:05:13  TRACK 07 AUDIO    TITLE "我和你 You and me"    INDEX 00 32:24:63    INDEX 01 32:26:62  TRACK 08 AUDIO    TITLE "梦会 Together in the dream"    INDEX 00 37:05:55    INDEX 01 37:07:55  TRACK 09 AUDIO    TITLE "肯去承担爱 Bear love (电视剧《射雕英雄传》插曲)"    INDEX 00 43:16:20    INDEX 01 43:18:20  TRACK 10 AUDIO    TITLE "红线情 Love of red thread"    INDEX 00 47:39:22    INDEX 01 47:41:22  TRACK 11 AUDIO    TITLE "姻缘 Marriage affinity (韩剧《王的男人》主题曲)"    INDEX 00 52:40:43    INDEX 01 52:42:42  TRACK 12 AUDIO    TITLE "春梦 Dream in spring"    INDEX 00 57:18:32    INDEX 01 57:20:31  TRACK 13 AUDIO    TITLE "世间情 Love in life"    INDEX 00 61:51:52    INDEX 01 61:53:51

Лог проверки качества

-----------------------
DON'T MODIFY THIS FILE
-----------------------
PERFORMER: auCDtect Task Manager, ver. 1.6.0 RC1 build 1.6.0.1Copyright (c) 2008-2010 y-soft. All rights reservedhttp://y-soft.org
ANALYZER: auCDtect: CD records authenticity detector, version 0.8.2Copyright (c) 2004 Oleg Berngardt. All rights reserved.Copyright (c) 2004 Alexander Djourik. All rights reserved.
FILE: Face To Face III.flac Size: 350935612 Hash: 9FE22C052D231F23377C02763DE87DA8 Accuracy: -m0 Conclusion: CDDA 100% Signature: BDFD0FB9EA2DC361D3C299A0EC15272C2C6EC57F

Спектры частот

RelizMAN

Post 23-May-2020 10:05

[Quote]

付娜&黄江琴 — 面对面2(古筝VS二胡)
Fu Na & Huang Jiang Qin — Face To Face 2 (Guzheng VS Erhu)
- Жанр: Instrumental
Носитель: CD
Страна: Китай
Год издания: 2007
Аудиокодек: FLAC (*.flac)
Тип рипа: image+.cue
Продолжительность: 01:01:03
Источник: интернет
Наличие сканов в раздачe: да
-
Треклист:
01. 长相思 / Miss each other for long time 6:18
02. 贞观长歌 / Zhenguan long song 4:48
03. 大红灯笼高高挂 / The big red lantern hang up high 3:35
04. 戈薇与犬夜叉 / Gewei and quan yei cha 3:38
05. 猜调 / Guess tune 4:36
06. 菊花台 / Chrysanthemum stage 5:13
07. 红蔷薇 / Red rose 4:03
08. 万里长城永不倒 / The great wall never fall down 4:23
09. 一点凝烟 / Little congeal smoke 5:08
10. 秋怨 / Autumn resentment 5:20
11. 紫竹调 / Purple bamboo tune 5:18
12. 愿亲人早日养好伤 / I hope my family members convalesce soon 4:34
13. 唐伯虎点秋香 / Flirting scholar 4:10
-

CUE

REM GENRE HiFiREM DATE 2007PERFORMER "付娜&黄江琴"TITLE "面对面2 古筝VS二胡"FILE "Face To Face II.flac" WAVE  TRACK 01 AUDIO    TITLE "长相思 Miss each other for long time"    INDEX 01 00:00:00  TRACK 02 AUDIO    TITLE "贞观长歌 Zhenguan long song"    INDEX 01 06:17:47  TRACK 03 AUDIO    TITLE "大红灯笼高高挂 The big red lantern hang up high"    INDEX 01 11:05:16  TRACK 04 AUDIO    TITLE "戈薇与犬夜叉 Gewei and quan yei cha"    INDEX 00 14:37:64    INDEX 01 14:39:64  TRACK 05 AUDIO    TITLE "猜调 Guess tune"    INDEX 00 18:15:32    INDEX 01 18:17:32  TRACK 06 AUDIO    TITLE "菊花台 Chrysanthemum stage"    INDEX 00 22:51:08    INDEX 01 22:53:08  TRACK 07 AUDIO    TITLE "红蔷薇 Red rose"    INDEX 00 28:04:04    INDEX 01 28:06:04  TRACK 08 AUDIO    TITLE "万里长城永不倒 The great wall never fall down"    INDEX 00 32:07:13    INDEX 01 32:09:13  TRACK 09 AUDIO    TITLE "一点凝烟 Little congeal smoke"    INDEX 00 36:30:13    INDEX 01 36:32:13  TRACK 10 AUDIO    TITLE "秋怨 Autumn resentment"    INDEX 00 41:38:48    INDEX 01 41:40:48  TRACK 11 AUDIO    TITLE "紫竹调 Purple bamboo tune"    INDEX 00 46:59:00    INDEX 01 47:01:00  TRACK 12 AUDIO    TITLE "愿亲人早日养好伤 I hope my family members convalesce soon"    INDEX 00 52:17:30    INDEX 01 52:19:30  TRACK 13 AUDIO    TITLE "唐伯虎点秋香 Flirting scholar"    INDEX 00 56:51:25    INDEX 01 56:53:25

Лог проверки качества

-----------------------
DON'T MODIFY THIS FILE
-----------------------
PERFORMER: auCDtect Task Manager, ver. 1.6.0 RC1 build 1.6.0.1Copyright (c) 2008-2010 y-soft. All rights reservedhttp://y-soft.org
ANALYZER: auCDtect: CD records authenticity detector, version 0.8.2Copyright (c) 2004 Oleg Berngardt. All rights reserved.Copyright (c) 2004 Alexander Djourik. All rights reserved.
FILE: Face To Face II.flac Size: 351888821 Hash: C924E19057DCE50705358518D853980A Accuracy: -m0 Conclusion: CDDA 100% Signature: 7F864865C229A89195601F15CFFD47E1B696FE35

Спектры частот

RelizMAN

Post 23-May-2020 10:05

[Quote]

高志坚&小平 — 面对面1(大提琴VS吉他)
Gao Zhijian & Xiao Ping — Face To Face 1 (Cello VS Guitar)
- Жанр: Instrumental
Носитель: CD
Страна: Китай
Год издания: 2006
Аудиокодек: FLAC (*.flac)
Тип рипа: image+.cue
Продолжительность: 00:55:57
Источник: интернет
Наличие сканов в раздачe: да
-
Треклист:
01. 爱,是我唯一所求 / All I ask of you 4:28
02. 悲歌 / Cancion triste 5:14
03. 你培养我 / You raise me up 5:11
04. 天鹅 / Swan 2:59
05. 绝情谷(电视剧《神雕侠侣》插曲) / Valley of hopeless 4:03
06. 渔火闪闪 / Flashing fishing lights 4:13
07. 沉思曲 / Thought 5:35
08. 夜的第七章 / The seventh paragraph of night 3:51
09. 殇(电视剧《倩女幽魂》音乐) / Die young 2:57
10. 此恨绵绵(电影梁山伯与祝英台) / The hate is continuous 3:43
11. 再见我的爱 / Goodbye my love 4:11
12. 自从离别后 / Since leaving 4:27
13. 其实我真的很在乎 / I really care it 5:07
-

EAC log

Exact Audio Copy V1.0 beta 1 from 15. November 2010
EAC抓取日志文件创建于 : 10. 七月 2011, 11:20
高坚平(大提琴)&小平(吉他) / 大提琴VS小提琴(面对面系列作品No.1)
光驱型号:ASUS DVD-E818A Adapter: 3 ID: 0
抓轨模式 : 精确模式使用精确流 : 是屏蔽音频数据缓存 : 否使用C2纠错 : 是
读取偏移校正: : 6通读 Lead-In 和 Lead-Out : 否用静音填充抓取中丢失偏移的采样 : 是删除首尾静音块 : 否在CRC校验计算中使用空采样 : 是使用的接口 : 外部ASPI接口
输出格式 : 内部WAV例程采样格式 : 44.100 Hz; 16 Bit; 立体声
CD内容目录
音轨 | 开始 | 长度 | 开始扇区 | 结束扇区 -------------------------------------------- 1 | 0:00.00 | 4:27.56 | 0 | 20080 2 | 4:27.56 | 5:13.54 | 20081 | 43609 3 | 9:41.35 | 5:10.57 | 43610 | 66916 4 | 14:52.17 | 2:58.38 | 66917 | 80304 5 | 17:50.55 | 4:03.14 | 80305 | 98543 6 | 21:53.69 | 4:13.32 | 98544 | 117550 7 | 26:07.26 | 5:35.27 | 117551 | 142702 8 | 31:42.53 | 3:50.48 | 142703 | 160000 9 | 35:33.26 | 2:57.02 | 160001 | 173277 10 | 38:30.28 | 3:42.56 | 173278 | 189983 11 | 42:13.09 | 4:10.49 | 189984 | 208782 12 | 46:23.58 | 4:27.07 | 208783 | 228814 13 | 50:50.65 | 5:06.56 | 228815 | 251820
范围状态及错误
已选择范围
文件名 C:\Documents and Settings\Administrator\桌面\[pt80.com]高坚平(大提琴)&小平(吉他) - 大提琴VS小提琴(面对面系列作品No.1).wav
峰值电平 100.0 % 抓取速度 0.4 X 范围质量 99.3 % 复制 CRC 07976064 复制成功
没有错误发生
AccurateRip总结报告
音轨 1 精确抓取成功(可信的2) [8D8455C9]音轨 2 精确抓取成功(可信的2) [8B9F4200]音轨 3 精确抓取成功(可信的2) [F73AA73E]音轨 4 精确抓取成功(可信的2) [3C688B86]音轨 5 精确抓取成功(可信的2) [9B7A786F]音轨 6 精确抓取成功(可信的2) [59C397A1]音轨 7 精确抓取成功(可信的2) [786F9D5A]音轨 8 精确抓取成功(可信的2) [6CDA6CEF]音轨 9 精确抓取成功(可信的2) [B1CA700D]音轨 10 精确抓取成功(可信的2) [4DEC6557]音轨 11 精确抓取成功(可信的2) [6ADA88C2]音轨 12 精确抓取成功(可信的2) [C5CAF9AE]音轨 13 精确抓取成功(可信的2) [C1C70447]
所有音轨已精确抓取成功
以上状态报告到此结束
==== 记录校验和 6ED0EF13DC02E6DE7A00A2D21EC7D75387E23C4A023CC092F48579867A0514FD ====

CUE

REM DATE 2006REM DISCID B10D1D0DREM COMMENT "ExactAudioCopy v1.0b1"PERFORMER "高志坚(大提琴)&小平(吉他)"TITLE "面对面1(大提琴VS吉他)"FILE "CDImage.flac" WAVE  TRACK 01 AUDIO    TITLE "爱,是我唯一所求  All I ask of you"    PERFORMER "高志坚&小平"    INDEX 01 00:00:00  TRACK 02 AUDIO    TITLE "悲歌  Cancion triste"    PERFORMER "高志坚&小平"    INDEX 00 04:25:56    INDEX 01 04:27:56  TRACK 03 AUDIO    TITLE "你培养我  You raise me up"    PERFORMER "高志坚&小平"    INDEX 00 09:39:35    INDEX 01 09:41:35  TRACK 04 AUDIO    TITLE "天鹅  Swan"    PERFORMER "高志坚&小平"    INDEX 00 14:50:17    INDEX 01 14:52:17  TRACK 05 AUDIO    TITLE "绝情谷(电视剧《神雕侠侣》插曲)  Valley of hopeless"    PERFORMER "高志坚&小平"    INDEX 00 17:48:55    INDEX 01 17:50:55  TRACK 06 AUDIO    TITLE "渔火闪闪  Flashing fishing lights"    PERFORMER "高志坚&小平"    INDEX 00 21:51:69    INDEX 01 21:53:69  TRACK 07 AUDIO    TITLE "沉思曲  Thought"    PERFORMER "高志坚&小平"    INDEX 01 26:07:26  TRACK 08 AUDIO    TITLE "夜的第七章  The seventh paragraph of night"    PERFORMER "高志坚&小平"    INDEX 00 31:40:53    INDEX 01 31:42:53  TRACK 09 AUDIO    TITLE "殇(电视剧《倩女幽魂》音乐)  Die young"    PERFORMER "高志坚&小平"    INDEX 00 35:31:26    INDEX 01 35:33:26  TRACK 10 AUDIO    TITLE "此恨绵绵(电影梁山伯与祝英台)  The hate is continuous"    PERFORMER "高志坚&小平"    INDEX 00 38:28:28    INDEX 01 38:30:28  TRACK 11 AUDIO    TITLE "再见我的爱  Goodbye my love"    PERFORMER "高志坚&小平"    INDEX 00 42:11:09    INDEX 01 42:13:09  TRACK 12 AUDIO    TITLE "自从离别后  Since leaving"    PERFORMER "高志坚&小平"    INDEX 00 46:21:58    INDEX 01 46:23:58  TRACK 13 AUDIO    TITLE "其实我真的很在乎  I really care it"    PERFORMER "高志坚&小平"    INDEX 00 50:48:65    INDEX 01 50:50:65

RelizMAN

Post 23-May-2020 01:25

[Quote]

付娜、杨弦 — 金色奇迹
Fu Na & Yang Xian — Golden Miracle (Guzheng VS Saxophone Duologue)
- Жанр: Instrumental, Folk Jazz
Исполнители:
古筝:付娜 / Guzheng: Fu Na
萨克斯:杨弦 / Saxophone: Yang Xian
Носитель: CD
Страна: Китай
Год издания: 2014
Аудиокодек: FLAC (*.flac)
Тип рипа: image+.cue
Продолжительность: 00:52:26
Источник: интернет
Наличие сканов в раздачe: да
-
Треклист:
01. 倩女幽魂 The Ghost Story 3:47
02. 那些年 Those Years 5:55
03. 我愿意 I Do 4:14
04. 情书 Love Letter 4:55
05. 如果没有你 If Not Will You 4:16
06. 斯卡布罗集市 Scarborough Fair 4:31
07. 味道 Taste 4:15
08. 我可以抱你吗 Can I Hold You 4:00
09. 隐形的翅膀 Invisible Wings 4:07
10. 月满西楼 Full Moon Of West Building 4:14
11. 千言万语 A Thousand Words 4:04
12. 纸船 Paper Boats 4:09
-

CUE

REM GENRE InstrumentalREM DATE 2014PERFORMER "付娜 杨弦 (Fu Na & Yang Xian)"TITLE "金色奇迹 (Golden Miracle)"FILE "Golden Miracle.flac" WAVE  TRACK 01 AUDIO    TITLE "倩女幽魂 The Ghost Story"    PERFORMER "付娜 杨弦 (Fu Na & Yang Xian)"    FLAGS DCP    INDEX 01 00:00:00  TRACK 02 AUDIO    TITLE "那些年 Those Years"    PERFORMER "付娜 杨弦 (Fu Na & Yang Xian)"    FLAGS DCP    INDEX 00 03:44:55    INDEX 01 03:46:55  TRACK 03 AUDIO    TITLE "我愿意 I Do"    PERFORMER "付娜 杨弦 (Fu Na & Yang Xian)"    FLAGS DCP    INDEX 00 09:39:24    INDEX 01 09:41:24  TRACK 04 AUDIO    TITLE "情书 Love Letter"    PERFORMER "付娜 杨弦 (Fu Na & Yang Xian)"    FLAGS DCP    INDEX 00 13:53:31    INDEX 01 13:55:31  TRACK 05 AUDIO    TITLE "如果没有你 If Not Will You"    PERFORMER "付娜 杨弦 (Fu Na & Yang Xian)"    FLAGS DCP    INDEX 00 18:48:06    INDEX 01 18:50:06  TRACK 06 AUDIO    TITLE "斯卡布罗集市 Scarborough Fair"    PERFORMER "付娜 杨弦 (Fu Na & Yang Xian)"    FLAGS DCP    INDEX 00 23:04:18    INDEX 01 23:06:18  TRACK 07 AUDIO    TITLE "味道 Taste"    PERFORMER "付娜 杨弦 (Fu Na & Yang Xian)"    FLAGS DCP    INDEX 00 27:34:67    INDEX 01 27:36:67  TRACK 08 AUDIO    TITLE "我可以抱你吗 Can I Hold You"    PERFORMER "付娜 杨弦 (Fu Na & Yang Xian)"    FLAGS DCP    INDEX 00 31:50:24    INDEX 01 31:52:24  TRACK 09 AUDIO    TITLE "隐形的翅膀 Invisible Wings"    PERFORMER "付娜 杨弦 (Fu Na & Yang Xian)"    FLAGS DCP    INDEX 00 35:49:71    INDEX 01 35:51:71  TRACK 10 AUDIO    TITLE "月满西楼 Full Moon Of West Building"    PERFORMER "付娜 杨弦 (Fu Na & Yang Xian)"    FLAGS DCP    INDEX 00 39:56:63    INDEX 01 39:58:63  TRACK 11 AUDIO    TITLE "千言万语 A Thousand Words"    PERFORMER "付娜 杨弦 (Fu Na & Yang Xian)"    FLAGS DCP    INDEX 00 44:11:25    INDEX 01 44:13:25  TRACK 12 AUDIO    TITLE "纸船 Paper Boats"    PERFORMER "付娜 杨弦 (Fu Na & Yang Xian)"    FLAGS DCP    INDEX 00 48:15:15    INDEX 01 48:17:15

Лог проверки качества

-----------------------
DON'T MODIFY THIS FILE
-----------------------
PERFORMER: auCDtect Task Manager, ver. 1.6.0 RC1 build 1.6.0.1Copyright (c) 2008-2010 y-soft. All rights reservedhttp://y-soft.org
ANALYZER: auCDtect: CD records authenticity detector, version 0.8.2Copyright (c) 2004 Oleg Berngardt. All rights reserved.Copyright (c) 2004 Alexander Djourik. All rights reserved.
FILE: Golden Miracle.flac Size: 304101964 Hash: FF4AFA0E52707A273BAB1D78D788A50D Accuracy: -m0 Conclusion: CDDA 99% Signature: DB8D0E4586FF5E715DF637DB58388CAD6A9FCE61

Спектры частот

RelizMAN

Post 21-May-2020 21:05

[Quote]

胭花四乐
Rouge Hot Vol. II- Oriental Instruments Vs Occidental Music
- Жанр: Instrumental, Chamber, Modern Classical
Состав ансамбля:
缪晓铮: 琵琶 / Miao Xiaozheng: Pipa
何静: 二胡 / He Jing: Erhu
顾蓓蓓: 中阮 / Gu Beibei: Zhongruan
付娜: 古筝 / Fu Na: Guzheng
Носитель: CD
Страна: Китай
Год издания: 2008
Издатель (лейбл): 柏菲唱片 Perfect Music Production
Номер по каталогу: HZH-CD059
Аудиокодек: FLAC (*.flac)
Тип рипа: image+.cue
Продолжительность: 00:56:27
Источник: интернет
Наличие сканов в раздаче: да
-
Треклист:
01. 重逢有日 Somewhere, My Love 3:56
02. 神话 Myth 5:20
03. 卡门 Carmen 4:34
04. 温柔的倾诉 Speak Softly Love 4:11
05. 查尔达斯 Csárdás 5:32
06. 乘着歌声的翅膀 Auf Flügeln des Gesanges 4:44
07. 宁静的湖水 Peaceful Lake 4:05
08. 梦回欧罗巴 Europa 5:06
09. 橄榄项链 El Bimbo 3:27
10. 回忆 Memory 4:09
11. 思乡曲 Nostalgy 4:18
12. 春之歌 Song of Spring 2:58
13. 桑塔·露琪亚 Santa Lucia 4:06
-

EAC log

Exact Audio Copy V0.99 prebeta 5 from 4. May 2009
EAC 抓取日志文件从24. 三月 2013, 15:15
The Oriental Angels / 胭花四乐II
使用驱动器 :PIONEER DVD-RW DVR-111 Adapter: 0 ID: 1
读取模式 : 保护使用精确流 : 是废除音频缓冲 : 是使用 C2 指针 : 否
读取偏移校正 : 48读取 Lead-In 和 Lead-Out : 否用静音填充抓取中丢失偏移的采样 : 是去除首尾静音块 : 否在 CRC 计算中使用了空样本 : 否已用接口 : Win NT 及 2000 本地 Win32 接口
所用输出格式 : 内部 WAV 函数样本格式 : 44.100 Hz;16 Bit;立体声
被抓轨 CD 的 TOC
音轨 | 开始 | 长度 | 起始扇区 | 结尾扇区 -------------------------------------------------- 1 | 0:00.00 | 3:55.47 | 0 | 17671 2 | 3:55.47 | 5:20.31 | 17672 | 41702 3 | 9:16.03 | 4:33.53 | 41703 | 62230 4 | 13:49.56 | 4:11.13 | 62231 | 81068 5 | 18:00.69 | 5:32.22 | 81069 | 105990 6 | 23:33.16 | 4:44.24 | 105991 | 127314 7 | 28:17.40 | 4:04.68 | 127315 | 145682 8 | 32:22.33 | 5:06.28 | 145683 | 168660 9 | 37:28.61 | 3:26.69 | 168661 | 184179 10 | 40:55.55 | 4:09.18 | 184180 | 202872 11 | 45:04.73 | 4:17.68 | 202873 | 222215 12 | 49:22.66 | 2:58.25 | 222216 | 235590 13 | 52:21.16 | 4:05.51 | 235591 | 254016
范围状态及错误
已选择范围
文件名 E:\The Oriental Angels - 胭花四乐II.wav
峰值电平 100.0 % 范围质量 100.0 % 复制 CRC 188669C1 复制成功
没有错误发生
AccurateRip 概要
音轨 1 无法精确校验 (确认 1) [615A7D56], AccurateRip 返回 [B6F24EB0]音轨 2 无法精确校验 (确认 1) [CD26A460], AccurateRip 返回 [E1DEBA0E]音轨 3 无法精确校验 (确认 1) [B0971739], AccurateRip 返回 [F0AC527D]音轨 4 无法精确校验 (确认 1) [FAAA1D9D], AccurateRip 返回 [0E2E8ABD]音轨 5 无法精确校验 (确认 1) [42F04D43], AccurateRip 返回 [69AECDB4]音轨 6 无法精确校验 (确认 1) [5D34C5B0], AccurateRip 返回 [15576028]音轨 7 无法精确校验 (确认 1) [1BD757C7], AccurateRip 返回 [9045AC8C]音轨 8 无法精确校验 (确认 1) [E2C124C5], AccurateRip 返回 [7B360518]音轨 9 无法精确校验 (确认 1) [B177A6B2], AccurateRip 返回 [E4A3B069]音轨 10 无法精确校验 (确认 1) [E99D77C4], AccurateRip 返回 [5D1657CD]音轨 11 无法精确校验 (确认 1) [7B3AD5D0], AccurateRip 返回 [7B9FA37A]音轨 12 无法精确校验 (确认 1) [3C0DE588], AccurateRip 返回 [DCB0C912]音轨 13 无法精确校验 (确认 1) [C137B0A5], AccurateRip 返回 [4FEBF478]
没有音轨被精确验证你可能遇到在数据库中的一词多义
状态报告结尾

CUE

REM GENRE InstrumentalREM DATE 2008REM DISCID B70D3A0DPERFORMER "胭花四乐"TITLE "Rouge Hot Vol.II"FILE "Rouge Hot II.flac" WAVE  TRACK 01 AUDIO    TITLE "重逢有日 Somewhere, My Love"    INDEX 01 00:00:00  TRACK 02 AUDIO    TITLE "神话 Myth"    INDEX 00 03:53:47    INDEX 01 03:55:47  TRACK 03 AUDIO    TITLE "卡门 Carmen"    INDEX 00 09:14:03    INDEX 01 09:16:03  TRACK 04 AUDIO    TITLE "温柔的倾诉 Speak Softly Love"    INDEX 00 13:47:56    INDEX 01 13:49:56  TRACK 05 AUDIO    TITLE "查尔达斯 Csárdás"    INDEX 00 17:58:69    INDEX 01 18:00:69  TRACK 06 AUDIO    TITLE "乘着歌声的翅膀 Auf Flügeln des Gesanges"    INDEX 00 23:31:16    INDEX 01 23:33:16  TRACK 07 AUDIO    TITLE "宁静的湖水 Peaceful Lake"    INDEX 00 28:15:38    INDEX 01 28:17:40  TRACK 08 AUDIO    TITLE "梦回欧罗巴 Europa"    INDEX 00 32:20:30    INDEX 01 32:22:33  TRACK 09 AUDIO    TITLE "橄榄项链 El Bimbo"    INDEX 00 37:28:26    INDEX 01 37:28:61  TRACK 10 AUDIO    TITLE "回忆 Memory"    INDEX 00 40:53:55    INDEX 01 40:55:55  TRACK 11 AUDIO    TITLE "思乡曲 Nostalgy"    INDEX 00 45:02:73    INDEX 01 45:04:73  TRACK 12 AUDIO    TITLE "春之歌 Song of Spring"    INDEX 00 49:20:64    INDEX 01 49:22:66  TRACK 13 AUDIO    TITLE "桑塔·露琪亚 Santa Lucia"    INDEX 00 52:19:14    INDEX 01 52:21:16

RelizMAN

Post 21-May-2020 20:00

[Quote]

胭花四乐
Rouge Hot - Oriental Instruments Vs Occidental Music
- Жанр: Instrumental, Chamber, Modern Classical
Состав ансамбля:
缪晓铮: 琵琶 / Miao Xiaozheng: Pipa
何静: 二胡 / He Jing: Erhu
顾蓓蓓: 中阮 / Gu Beibei: Zhongruan
潘伟文: 扬琴 / Pan Weiwen: Yangqin
Носитель: CD
Страна: Китай
Год издания: 2005
Издатель (лейбл): 柏菲唱片 Perfect Music Production
Номер по каталогу: HZH-CD037
Аудиокодек: FLAC (*.flac)
Тип рипа: image+.cue
Продолжительность: 00:51:52
Источник: интернет
Наличие сканов в раздаче: да
-
Треклист:
01. 斯卡布罗市集 Scarborough Fair 5:25
02. 小步舞曲 Minuet 4:01
03. 重归故里 Torna a Surriento 3:48
04. 莫扎特第40号交响曲 Symphony No.40 (Mozart) 4:29
05. 月亮河 Moon River 4:33
06. 往日情怀 The Way We Were 3:33
07. 天鹅湖 Excerpts from Swan Lake 3:12
08. 小夜曲 Serenade 4:22
09. 卡萨布兰卡 Casablanca 5:00
10. 索尔维格之歌 Solveig's Song 4:37
11. 蓝色的爱 Love Is Blue 4:40
12. 骊歌 Farewell Song 4:13
-

EAC log

Exact Audio Copy V0.99 prebeta 5 from 4. May 2009
EAC 抓取日志文件从24. 三月 2013, 14:35
The Oriental Angels / 胭花四乐
使用驱动器 :PIONEER DVD-RW DVR-111 Adapter: 0 ID: 1
读取模式 : 保护使用精确流 : 是废除音频缓冲 : 是使用 C2 指针 : 否
读取偏移校正 : 48读取 Lead-In 和 Lead-Out : 否用静音填充抓取中丢失偏移的采样 : 是去除首尾静音块 : 否在 CRC 计算中使用了空样本 : 否已用接口 : Win NT 及 2000 本地 Win32 接口
所用输出格式 : 内部 WAV 函数样本格式 : 44.100 Hz;16 Bit;立体声
被抓轨 CD 的 TOC
音轨 | 开始 | 长度 | 起始扇区 | 结尾扇区 -------------------------------------------------- 1 | 0:00.00 | 5:25.31 | 0 | 24405 2 | 5:25.31 | 4:00.73 | 24406 | 42478 3 | 9:26.29 | 3:47.57 | 42479 | 59560 4 | 13:14.11 | 4:28.58 | 59561 | 79718 5 | 17:42.69 | 4:32.57 | 79719 | 100175 6 | 22:15.51 | 3:33.07 | 100176 | 116157 7 | 25:48.58 | 3:12.20 | 116158 | 130577 8 | 29:01.03 | 4:21.41 | 130578 | 150193 9 | 33:22.44 | 5:00.00 | 150194 | 172693 10 | 38:22.44 | 4:36.41 | 172694 | 193434 11 | 42:59.10 | 4:40.06 | 193435 | 214440 12 | 47:39.16 | 4:12.44 | 214441 | 233384
范围状态及错误
已选择范围
文件名 E:\The Oriental Angels - 胭花四乐.wav
峰值电平 100.0 % 范围质量 100.0 % 复制 CRC 6D1A8F3D 复制成功
没有错误发生
AccurateRip 概要
音轨 1 数据库中未见音轨 2 数据库中未见音轨 3 无法精确校验 (确认 2) [17F69F8D], AccurateRip 返回 [CC41759F]音轨 4 数据库中未见音轨 5 数据库中未见音轨 6 数据库中未见音轨 7 数据库中未见音轨 8 数据库中未见音轨 9 数据库中未见音轨 10 数据库中未见音轨 11 数据库中未见音轨 12 数据库中未见
1 音轨校验不准确11 音轨未出现在 AccruateRip 数据库中
没有音轨被精确验证你可能遇到在数据库中的一词多义
状态报告结尾

CUE

REM GENRE InstrumentalREM DATE 2005REM DISCID 9A0C270CPERFORMER "胭花四乐"TITLE "Rouge Hot"FILE "Rouge Hot.flac" WAVE  TRACK 01 AUDIO    TITLE "斯卡布罗市集 Scarborough Fair"    INDEX 01 00:00:00  TRACK 02 AUDIO    TITLE "小步舞曲 Minuet"    INDEX 00 05:23:31    INDEX 01 05:25:31  TRACK 03 AUDIO    TITLE "重归故里 Torna a Surriento"    INDEX 00 09:24:29    INDEX 01 09:26:29  TRACK 04 AUDIO    TITLE "莫扎特第40号交响曲 Symphony No.40 (Mozart)"    INDEX 00 13:12:11    INDEX 01 13:14:11  TRACK 05 AUDIO    TITLE "月亮河 Moon River"    INDEX 00 17:40:69    INDEX 01 17:42:69  TRACK 06 AUDIO    TITLE "往日情怀 The Way We Were"    INDEX 00 22:12:51    INDEX 01 22:15:51  TRACK 07 AUDIO    TITLE "天鹅湖 Excerpts from Swan Lake"    INDEX 00 25:46:57    INDEX 01 25:48:58  TRACK 08 AUDIO    TITLE "小夜曲 Serenade"    INDEX 00 28:59:03    INDEX 01 29:01:03  TRACK 09 AUDIO    TITLE "卡萨布兰卡 Casablanca"    INDEX 00 33:20:44    INDEX 01 33:22:44  TRACK 10 AUDIO    TITLE "索尔维格之歌 Solveig's Song"    INDEX 00 38:20:43    INDEX 01 38:22:44  TRACK 11 AUDIO    TITLE "蓝色的爱 Love Is Blue"    INDEX 00 42:57:09    INDEX 01 42:59:10  TRACK 12 AUDIO    TITLE "骊歌 Farewell Song"    INDEX 00 47:37:15    INDEX 01 47:39:16

RelizMAN

Post 15-May-2020 09:10

[Quote]

Kitaro / Silk Road I + Silk Road II (2 CD)
Жанр: New Age, Electronic, Ambient
Носитель: CD
Страна-производитель диска (релиза): West Germany
Год издания: 1986
Издатель (лейбл): Gramavision
Номер по каталогу: 18-7019-2
Страна исполнителя (группы): Japan
Аудиокодек: FLAC (*.flac)
Тип рипа: image+.cue
Продолжительность: 01:24:15
Источник: собственный рип
Наличие сканов в содержимом раздачи: да

CD1

Треклист
1. Silk Road Theme (4:11)
2. Bell Tower (2:27)
3. Heavenly Father (4:07)
4. The Great River (2:40)
5. The Great Wall Of China (1:52)
6. Flying Celestial Nymphs (4:31)
7. Silk Road Fantasy (4:39)
8. Shimmering Light (3:19)
9. Westbound (2:55)
10. Time (3:28)
11. Bodhisattva (2:05)
12. Everlasting Road (5:44)

Лог создания рипа CD1

Exact Audio Copy V1.1 from 23. June 2015
EAC extraction logfile from 12. May 2020, 12:17
Kitaro / Silk Road
Used drive : MATSHITADVD+-RW SW830 Adapter: 1 ID: 0
Read mode : SecureUtilize accurate stream : YesDefeat audio cache : YesMake use of C2 pointers : No
Read offset correction : 6Overread into Lead-In and Lead-Out : NoFill up missing offset samples with silence : YesDelete leading and trailing silent blocks : NoNull samples used in CRC calculations : YesUsed interface : Native Win32 interface for Win NT & 2000
Used output format : User Defined EncoderSelected bitrate : 768 kBit/sQuality : HighAdd ID3 tag : NoCommand line compressor : C:\Program Files (x86)\Exact Audio Copy\FLAC\FLAC.EXEAdditional command line options : -6 -V -T "ARTIST=%artist%" -T "TITLE=%title%" -T "ALBUM=%albumtitle%" -T "DATE=%year%" -T "TRACKNUMBER=%tracknr%" -T "GENRE=%genre%" -T "COMMENT=%comment%" -T "BAND=%albuminterpret%" -T "ALBUMARTIST=%albuminterpret%" -T "COMPOSER=%composer%" %haslyrics%--tag-from-file=LYRICS="%lyricsfile%"%haslyrics% -T "DISCNUMBER=%cdnumber%" -T "TOTALDISCS=%totalcds%" -T "TOTALTRACKS=%numtracks%" %hascover%--picture="%coverfile%"%hascover% %source% -o %dest%
TOC of the extracted CD
Track | Start | Length | Start sector | End sector --------------------------------------------------------- 1 | 0:00.32 | 4:11.63 | 32 | 18919 2 | 4:12.20 | 2:27.02 | 18920 | 29946 3 | 6:39.22 | 4:07.58 | 29947 | 48529 4 | 10:47.05 | 2:40.00 | 48530 | 60529 5 | 13:27.05 | 1:52.67 | 60530 | 68996 6 | 15:19.72 | 4:31.28 | 68997 | 89349 7 | 19:51.25 | 4:39.10 | 89350 | 110284 8 | 24:30.35 | 3:19.60 | 110285 | 125269 9 | 27:50.20 | 2:55.67 | 125270 | 138461 10 | 30:46.12 | 3:28.48 | 138462 | 154109 11 | 34:14.60 | 2:05.30 | 154110 | 163514 12 | 36:20.15 | 5:44.57 | 163515 | 189371
Range status and errors
Selected range
Filename C:\Users\Boris\Desktop\lossless-galaxy.ru\KitarSilk1+2\CD1\Kitaro - Silk Road.wav
Peak level 87.7 % Extraction speed 6.6 X Range quality 100.0 % Test CRC 0091CF1A Copy CRC 0091CF1A Copy OK
No errors occurred
AccurateRip summary
Track 1 accurately ripped (confidence 82) [680F2B2D] (AR v2)Track 2 accurately ripped (confidence 84) [316050E4] (AR v2)Track 3 accurately ripped (confidence 84) [453969D1] (AR v2)Track 4 accurately ripped (confidence 84) [730E918D] (AR v2)Track 5 accurately ripped (confidence 84) [91BA9EB1] (AR v2)Track 6 accurately ripped (confidence 84) [DC2D4505] (AR v2)Track 7 accurately ripped (confidence 83) [8B17D262] (AR v2)Track 8 accurately ripped (confidence 83) [A3B2391D] (AR v2)Track 9 accurately ripped (confidence 84) [27DD0426] (AR v2)Track 10 accurately ripped (confidence 83) [0E5A83CB] (AR v2)Track 11 accurately ripped (confidence 84) [002896E6] (AR v2)Track 12 accurately ripped (confidence 82) [465A1A03] (AR v2)
All tracks accurately ripped
End of status report
---- CUETools DB Plugin V2.1.6
[CTDB TOCID: ut970htW5oi44i536u5tkGCzBc8-] foundSubmit result: ut970htW5oi44i536u5tkGCzBc8- has been confirmedTrack | CTDB Status 1 | (139/141) Accurately ripped 2 | (141/141) Accurately ripped 3 | (141/141) Accurately ripped 4 | (141/141) Accurately ripped 5 | (141/141) Accurately ripped 6 | (140/141) Accurately ripped 7 | (139/141) Accurately ripped 8 | (140/141) Accurately ripped 9 | (139/141) Accurately ripped 10 | (139/141) Accurately ripped 11 | (135/141) Accurately ripped 12 | (133/141) Accurately ripped
==== Log checksum F7C22648C4AD9C31A88134D7727EA19C24BC107C8474B35ABE3770BF8E83CF6F ====

Содержание индексной карты (.CUE) CD1

REM GENRE "New Age"REM DATE 1985REM DISCID 9D09DC0CREM COMMENT "ExactAudioCopy v1.1"PERFORMER "Kitaro"TITLE "Silk Road"FILE "Kitaro - Silk Road.flac" WAVE  TRACK 01 AUDIO    TITLE "Silk Road Theme"    PERFORMER "Kitaro"    INDEX 00 00:00:00    INDEX 01 00:00:32  TRACK 02 AUDIO    TITLE "Bell Tower"    PERFORMER "Kitaro"    INDEX 01 04:12:20  TRACK 03 AUDIO    TITLE "Heavenly Father"    PERFORMER "Kitaro"    INDEX 01 06:39:22  TRACK 04 AUDIO    TITLE "The Great River"    PERFORMER "Kitaro"    INDEX 01 10:47:05  TRACK 05 AUDIO    TITLE "The Great Wall Of China"    PERFORMER "Kitaro"    INDEX 01 13:27:05  TRACK 06 AUDIO    TITLE "Flying Celestial Nymphs"    PERFORMER "Kitaro"    INDEX 01 15:19:72  TRACK 07 AUDIO    TITLE "Silk Road Fantasy"    PERFORMER "Kitaro"    INDEX 01 19:51:25  TRACK 08 AUDIO    TITLE "Shimmering Light"    PERFORMER "Kitaro"    INDEX 01 24:30:35  TRACK 09 AUDIO    TITLE "Westbound"    PERFORMER "Kitaro"    INDEX 01 27:50:20  TRACK 10 AUDIO    TITLE "Time"    PERFORMER "Kitaro"    INDEX 01 30:46:12  TRACK 11 AUDIO    TITLE "Bodhisattva"    PERFORMER "Kitaro"    INDEX 01 34:14:60  TRACK 12 AUDIO    TITLE "Everlasting Road"    PERFORMER "Kitaro"    INDEX 01 36:20:15

CD2

Треклист:
1. Peace (3:47)
2. Takla Makan Desert (3:16)
3. Eternal Spring (5:15)
4. Silver Moon (5:12)
5. Magical Sand Dance (5:32)
6. Year 40080 (4:25)
7. Time Travel (2:36)
8. Reincarnation (4:18)
9. Dawning (3:16)
10. Tienshan (4:40)

Лог создания рипа CD2

Exact Audio Copy V1.1 from 23. June 2015
EAC extraction logfile from 12. May 2020, 12:43
Kitaro / Silk Road CD2
Used drive : MATSHITADVD+-RW SW830 Adapter: 1 ID: 0
Read mode : SecureUtilize accurate stream : YesDefeat audio cache : YesMake use of C2 pointers : No
Read offset correction : 6Overread into Lead-In and Lead-Out : NoFill up missing offset samples with silence : YesDelete leading and trailing silent blocks : NoNull samples used in CRC calculations : YesUsed interface : Native Win32 interface for Win NT & 2000
Used output format : User Defined EncoderSelected bitrate : 768 kBit/sQuality : HighAdd ID3 tag : NoCommand line compressor : C:\Program Files (x86)\Exact Audio Copy\FLAC\FLAC.EXEAdditional command line options : -6 -V -T "ARTIST=%artist%" -T "TITLE=%title%" -T "ALBUM=%albumtitle%" -T "DATE=%year%" -T "TRACKNUMBER=%tracknr%" -T "GENRE=%genre%" -T "COMMENT=%comment%" -T "BAND=%albuminterpret%" -T "ALBUMARTIST=%albuminterpret%" -T "COMPOSER=%composer%" %haslyrics%--tag-from-file=LYRICS="%lyricsfile%"%haslyrics% -T "DISCNUMBER=%cdnumber%" -T "TOTALDISCS=%totalcds%" -T "TOTALTRACKS=%numtracks%" %hascover%--picture="%coverfile%"%hascover% %source% -o %dest%
TOC of the extracted CD
Track | Start | Length | Start sector | End sector --------------------------------------------------------- 1 | 0:00.32 | 3:47.30 | 32 | 17086 2 | 3:47.62 | 3:16.65 | 17087 | 31851 3 | 7:04.52 | 5:15.63 | 31852 | 55539 4 | 12:20.40 | 5:12.35 | 55540 | 78974 5 | 17:33.00 | 5:32.12 | 78975 | 103886 6 | 23:05.12 | 4:25.58 | 103887 | 123819 7 | 27:30.70 | 2:36.07 | 123820 | 135526 8 | 30:07.02 | 4:18.33 | 135527 | 154909 9 | 34:25.35 | 3:16.35 | 154910 | 169644 10 | 37:41.70 | 4:40.70 | 169645 | 190714
Range status and errors
Selected range
Filename C:\Users\Boris\Desktop\lossless-galaxy.ru\KitarSilk1+2\CD2\Kitaro - Silk Road CD2.wav
Peak level 83.1 % Extraction speed 6.6 X Range quality 100.0 % Test CRC 30FA49FF Copy CRC 30FA49FF Copy OK
No errors occurred
AccurateRip summary
Track 1 accurately ripped (confidence 40) [3430DFCF] (AR v2)Track 2 accurately ripped (confidence 41) [B439B637] (AR v2)Track 3 accurately ripped (confidence 41) [3F65C5C9] (AR v2)Track 4 accurately ripped (confidence 40) [26EB656F] (AR v2)Track 5 accurately ripped (confidence 39) [A64996FA] (AR v2)Track 6 accurately ripped (confidence 39) [5DC7BA23] (AR v2)Track 7 accurately ripped (confidence 41) [F9479C2A] (AR v2)Track 8 accurately ripped (confidence 40) [8AE6B356] (AR v2)Track 9 accurately ripped (confidence 41) [32268883] (AR v2)Track 10 accurately ripped (confidence 41) [41D06BA8] (AR v2)
All tracks accurately ripped
End of status report
---- CUETools DB Plugin V2.1.6
[CTDB TOCID: HOSV6Oe0EmvkYUZRS1GCJgz9cns-] foundSubmit result: HOSV6Oe0EmvkYUZRS1GCJgz9cns- has been confirmedTrack | CTDB Status 1 | (61/63) Accurately ripped 2 | (62/63) Accurately ripped 3 | (62/63) Accurately ripped 4 | (62/63) Accurately ripped 5 | (62/63) Accurately ripped 6 | (62/63) Accurately ripped 7 | (61/63) Accurately ripped 8 | (62/63) Accurately ripped 9 | (62/63) Accurately ripped 10 | (62/63) Accurately ripped
==== Log checksum D0314226E2847DED242A6B0F6B41690DCA3BFAA087D8E87EDB161F5E734ED102 ====Exact Audio Copy V1.1 from 23. June 2015
EAC extraction logfile from 12. May 2020, 12:43
Kitaro / Silk Road CD2
Used drive : MATSHITADVD+-RW SW830 Adapter: 1 ID: 0
Read mode : SecureUtilize accurate stream : YesDefeat audio cache : YesMake use of C2 pointers : No
Read offset correction : 6Overread into Lead-In and Lead-Out : NoFill up missing offset samples with silence : YesDelete leading and trailing silent blocks : NoNull samples used in CRC calculations : YesUsed interface : Native Win32 interface for Win NT & 2000
Used output format : User Defined EncoderSelected bitrate : 768 kBit/sQuality : HighAdd ID3 tag : NoCommand line compressor : C:\Program Files (x86)\Exact Audio Copy\FLAC\FLAC.EXEAdditional command line options : -6 -V -T "ARTIST=%artist%" -T "TITLE=%title%" -T "ALBUM=%albumtitle%" -T "DATE=%year%" -T "TRACKNUMBER=%tracknr%" -T "GENRE=%genre%" -T "COMMENT=%comment%" -T "BAND=%albuminterpret%" -T "ALBUMARTIST=%albuminterpret%" -T "COMPOSER=%composer%" %haslyrics%--tag-from-file=LYRICS="%lyricsfile%"%haslyrics% -T "DISCNUMBER=%cdnumber%" -T "TOTALDISCS=%totalcds%" -T "TOTALTRACKS=%numtracks%" %hascover%--picture="%coverfile%"%hascover% %source% -o %dest%
TOC of the extracted CD
Track | Start | Length | Start sector | End sector --------------------------------------------------------- 1 | 0:00.32 | 3:47.30 | 32 | 17086 2 | 3:47.62 | 3:16.65 | 17087 | 31851 3 | 7:04.52 | 5:15.63 | 31852 | 55539 4 | 12:20.40 | 5:12.35 | 55540 | 78974 5 | 17:33.00 | 5:32.12 | 78975 | 103886 6 | 23:05.12 | 4:25.58 | 103887 | 123819 7 | 27:30.70 | 2:36.07 | 123820 | 135526 8 | 30:07.02 | 4:18.33 | 135527 | 154909 9 | 34:25.35 | 3:16.35 | 154910 | 169644 10 | 37:41.70 | 4:40.70 | 169645 | 190714
Range status and errors
Selected range
Filename C:\Users\Boris\Desktop\lossless-galaxy.ru\KitarSilk1+2\CD2\Kitaro - Silk Road CD2.wav
Peak level 83.1 % Extraction speed 6.6 X Range quality 100.0 % Test CRC 30FA49FF Copy CRC 30FA49FF Copy OK
No errors occurred
AccurateRip summary
Track 1 accurately ripped (confidence 40) [3430DFCF] (AR v2)Track 2 accurately ripped (confidence 41) [B439B637] (AR v2)Track 3 accurately ripped (confidence 41) [3F65C5C9] (AR v2)Track 4 accurately ripped (confidence 40) [26EB656F] (AR v2)Track 5 accurately ripped (confidence 39) [A64996FA] (AR v2)Track 6 accurately ripped (confidence 39) [5DC7BA23] (AR v2)Track 7 accurately ripped (confidence 41) [F9479C2A] (AR v2)Track 8 accurately ripped (confidence 40) [8AE6B356] (AR v2)Track 9 accurately ripped (confidence 41) [32268883] (AR v2)Track 10 accurately ripped (confidence 41) [41D06BA8] (AR v2)
All tracks accurately ripped
End of status report
---- CUETools DB Plugin V2.1.6
[CTDB TOCID: HOSV6Oe0EmvkYUZRS1GCJgz9cns-] foundSubmit result: HOSV6Oe0EmvkYUZRS1GCJgz9cns- has been confirmedTrack | CTDB Status 1 | (61/63) Accurately ripped 2 | (62/63) Accurately ripped 3 | (62/63) Accurately ripped 4 | (62/63) Accurately ripped 5 | (62/63) Accurately ripped 6 | (62/63) Accurately ripped 7 | (61/63) Accurately ripped 8 | (62/63) Accurately ripped 9 | (62/63) Accurately ripped 10 | (62/63) Accurately ripped
==== Log checksum D0314226E2847DED242A6B0F6B41690DCA3BFAA087D8E87EDB161F5E734ED102 ====Exact Audio Copy V1.1 from 23. June 2015
EAC extraction logfile from 12. May 2020, 12:43
Kitaro / Silk Road CD2
Used drive : MATSHITADVD+-RW SW830 Adapter: 1 ID: 0
Read mode : SecureUtilize accurate stream : YesDefeat audio cache : YesMake use of C2 pointers : No
Read offset correction : 6Overread into Lead-In and Lead-Out : NoFill up missing offset samples with silence : YesDelete leading and trailing silent blocks : NoNull samples used in CRC calculations : YesUsed interface : Native Win32 interface for Win NT & 2000
Used output format : User Defined EncoderSelected bitrate : 768 kBit/sQuality : HighAdd ID3 tag : NoCommand line compressor : C:\Program Files (x86)\Exact Audio Copy\FLAC\FLAC.EXEAdditional command line options : -6 -V -T "ARTIST=%artist%" -T "TITLE=%title%" -T "ALBUM=%albumtitle%" -T "DATE=%year%" -T "TRACKNUMBER=%tracknr%" -T "GENRE=%genre%" -T "COMMENT=%comment%" -T "BAND=%albuminterpret%" -T "ALBUMARTIST=%albuminterpret%" -T "COMPOSER=%composer%" %haslyrics%--tag-from-file=LYRICS="%lyricsfile%"%haslyrics% -T "DISCNUMBER=%cdnumber%" -T "TOTALDISCS=%totalcds%" -T "TOTALTRACKS=%numtracks%" %hascover%--picture="%coverfile%"%hascover% %source% -o %dest%
TOC of the extracted CD
Track | Start | Length | Start sector | End sector --------------------------------------------------------- 1 | 0:00.32 | 3:47.30 | 32 | 17086 2 | 3:47.62 | 3:16.65 | 17087 | 31851 3 | 7:04.52 | 5:15.63 | 31852 | 55539 4 | 12:20.40 | 5:12.35 | 55540 | 78974 5 | 17:33.00 | 5:32.12 | 78975 | 103886 6 | 23:05.12 | 4:25.58 | 103887 | 123819 7 | 27:30.70 | 2:36.07 | 123820 | 135526 8 | 30:07.02 | 4:18.33 | 135527 | 154909 9 | 34:25.35 | 3:16.35 | 154910 | 169644 10 | 37:41.70 | 4:40.70 | 169645 | 190714
Range status and errors
Selected range
Filename C:\Users\Boris\Desktop\lossless-galaxy.ru\KitarSilk1+2\CD2\Kitaro - Silk Road CD2.wav
Peak level 83.1 % Extraction speed 6.6 X Range quality 100.0 % Test CRC 30FA49FF Copy CRC 30FA49FF Copy OK
No errors occurred
AccurateRip summary
Track 1 accurately ripped (confidence 40) [3430DFCF] (AR v2)Track 2 accurately ripped (confidence 41) [B439B637] (AR v2)Track 3 accurately ripped (confidence 41) [3F65C5C9] (AR v2)Track 4 accurately ripped (confidence 40) [26EB656F] (AR v2)Track 5 accurately ripped (confidence 39) [A64996FA] (AR v2)Track 6 accurately ripped (confidence 39) [5DC7BA23] (AR v2)Track 7 accurately ripped (confidence 41) [F9479C2A] (AR v2)Track 8 accurately ripped (confidence 40) [8AE6B356] (AR v2)Track 9 accurately ripped (confidence 41) [32268883] (AR v2)Track 10 accurately ripped (confidence 41) [41D06BA8] (AR v2)
All tracks accurately ripped
End of status report
---- CUETools DB Plugin V2.1.6
[CTDB TOCID: HOSV6Oe0EmvkYUZRS1GCJgz9cns-] foundSubmit result: HOSV6Oe0EmvkYUZRS1GCJgz9cns- has been confirmedTrack | CTDB Status 1 | (61/63) Accurately ripped 2 | (62/63) Accurately ripped 3 | (62/63) Accurately ripped 4 | (62/63) Accurately ripped 5 | (62/63) Accurately ripped 6 | (62/63) Accurately ripped 7 | (61/63) Accurately ripped 8 | (62/63) Accurately ripped 9 | (62/63) Accurately ripped 10 | (62/63) Accurately ripped
==== Log checksum D0314226E2847DED242A6B0F6B41690DCA3BFAA087D8E87EDB161F5E734ED102 ====

Содержание индексной карты (.CUE) CD2

REM GENRE "New Age"REM DATE 1980REM DISCID 8209EE0AREM COMMENT "ExactAudioCopy v1.1"PERFORMER "Kitaro"TITLE "Silk Road CD2"FILE "Kitaro - Silk Road CD2.flac" WAVE  TRACK 01 AUDIO    TITLE "Peace"    PERFORMER "Kitaro"    INDEX 00 00:00:00    INDEX 01 00:00:32  TRACK 02 AUDIO    TITLE "Takla Makan Desert"    PERFORMER "Kitaro"    INDEX 01 03:47:62  TRACK 03 AUDIO    TITLE "Eternal Spring"    PERFORMER "Kitaro"    INDEX 01 07:04:52  TRACK 04 AUDIO    TITLE "Silver Moon"    PERFORMER "Kitaro"    INDEX 00 12:20:39    INDEX 01 12:20:40  TRACK 05 AUDIO    TITLE "Magical Sand Dance"    PERFORMER "Kitaro"    INDEX 00 17:32:74    INDEX 01 17:33:00  TRACK 06 AUDIO    TITLE "Year 40080"    PERFORMER "Kitaro"    INDEX 01 23:05:12  TRACK 07 AUDIO    TITLE "Time Travel"    PERFORMER "Kitaro"    INDEX 00 27:30:69    INDEX 01 27:30:70  TRACK 08 AUDIO    TITLE "Reincarnation"    PERFORMER "Kitaro"    INDEX 01 30:07:02  TRACK 09 AUDIO    TITLE "Dawning"    PERFORMER "Kitaro"    INDEX 00 34:25:34    INDEX 01 34:25:35  TRACK 10 AUDIO    TITLE "Tienshan"    PERFORMER "Kitaro"    INDEX 00 37:41:69    INDEX 01 37:41:70

Об исполнителе (группе)

The Silk Road: The Rise And Fall Of Civilities - документальный сериал NHK Tokushu, который впервые вышел в эфир 7 апреля 1980 года, и который многие считают вехой в истории телевидения Японии. Целью программы было рассказать и показать, какое влияние на древнюю Японияю оказал Великий Шелковый Путь. Выпуски телевизионной программы сопровождались музыкой, сочинённой Kitaro, который настоял на том, чтобы шоу транслировалось в стерео режиме. На зрительский успех, сопутствующий этому документальному сериалу, в немалой степени оказал влияние саундтрек, записи которого разошлись по всей планете миллионными тиражами. А мир узнал имя одного из лучших музыкантов современности.

RelizMAN

Post 11-May-2020 22:05

[Quote]

Dagda / Celtic Tranquillity
Жанр: New Age, Celtic
Носитель: CD
Страна-производитель диска (релиза): UK
Год издания: 2008
Издатель (лейбл): One Media Publishing
Номер по каталогу: 8 84385 92692 2
Страна исполнителя (группы): Ireland
Аудиокодек: FLAC (*.flac)
Тип рипа: image+.cue
Продолжительность: 00:47:33
Источник: собственный рип
Наличие сканов в содержимом раздачи: да
Треклист:
1. My Lagan Love (3:11)
2. Loch Lomond (5:42)
3. Sally Garden (3:37)
4. Bheir Mio (2:12)
5. Bunclody (2:41)
6. Skibbereen (3:13)
7. I Know Where I'm Going (3:46)
8. Lark In The Clear Air (3:07)
9. Morning (3:14)
10. Slievenamon (3:07)
11. The Bold Fenian Men (3:10)
12. The Water Is Wide (3:52)
13. Cliffs of Dooneen (3:07)
14. Danny Boy (3:34)

Лог создания рипа

Exact Audio Copy V1.1 from 23. June 2015
EAC extraction logfile from 9. May 2020, 18:13
Dagda / Celtic Tranquillity
Used drive : MATSHITADVD+-RW SW830 Adapter: 1 ID: 0
Read mode : SecureUtilize accurate stream : YesDefeat audio cache : YesMake use of C2 pointers : No
Read offset correction : 6Overread into Lead-In and Lead-Out : NoFill up missing offset samples with silence : YesDelete leading and trailing silent blocks : NoNull samples used in CRC calculations : YesUsed interface : Native Win32 interface for Win NT & 2000
Used output format : User Defined EncoderSelected bitrate : 768 kBit/sQuality : HighAdd ID3 tag : NoCommand line compressor : C:\Program Files (x86)\Exact Audio Copy\FLAC\FLAC.EXEAdditional command line options : -6 -V -T "ARTIST=%artist%" -T "TITLE=%title%" -T "ALBUM=%albumtitle%" -T "DATE=%year%" -T "TRACKNUMBER=%tracknr%" -T "GENRE=%genre%" -T "COMMENT=%comment%" -T "BAND=%albuminterpret%" -T "ALBUMARTIST=%albuminterpret%" -T "COMPOSER=%composer%" %haslyrics%--tag-from-file=LYRICS="%lyricsfile%"%haslyrics% -T "DISCNUMBER=%cdnumber%" -T "TOTALDISCS=%totalcds%" -T "TOTALTRACKS=%numtracks%" %hascover%--picture="%coverfile%"%hascover% %source% -o %dest%
TOC of the extracted CD
Track | Start | Length | Start sector | End sector --------------------------------------------------------- 1 | 0:00.00 | 3:11.48 | 0 | 14372 2 | 3:11.48 | 5:42.48 | 14373 | 40070 3 | 8:54.21 | 3:37.48 | 40071 | 56393 4 | 12:31.69 | 2:12.48 | 56394 | 66341 5 | 14:44.42 | 2:41.48 | 66342 | 78464 6 | 17:26.15 | 3:13.48 | 78465 | 92987 7 | 20:39.63 | 3:46.48 | 92988 | 109985 8 | 24:26.36 | 3:07.48 | 109986 | 124058 9 | 27:34.09 | 3:14.48 | 124059 | 138656 10 | 30:48.57 | 3:07.48 | 138657 | 152729 11 | 33:56.30 | 3:10.48 | 152730 | 167027 12 | 37:07.03 | 3:52.48 | 167028 | 184475 13 | 40:59.51 | 3:07.48 | 184476 | 198548 14 | 44:07.24 | 3:34.48 | 198549 | 214646
Range status and errors
Selected range
Filename C:\Users\Boris\Desktop\lossless-galaxy.ru\dagda08\Dagda - Celtic Tranquillity.wav
Peak level 93.6 % Extraction speed 7.5 X Range quality 100.0 % Test CRC 4786F0DC Copy CRC 4786F0DC Copy OK
No errors occurred
AccurateRip summary
Track 1 not present in databaseTrack 2 not present in databaseTrack 3 not present in databaseTrack 4 not present in databaseTrack 5 not present in databaseTrack 6 not present in databaseTrack 7 not present in databaseTrack 8 not present in databaseTrack 9 not present in databaseTrack 10 not present in databaseTrack 11 not present in databaseTrack 12 not present in databaseTrack 13 not present in databaseTrack 14 not present in database
None of the tracks are present in the AccurateRip database
End of status report
---- CUETools DB Plugin V2.1.6
[CTDB TOCID: .97ogVjojzbFbiK1hBHw1mvvnzI-] disk not present in databaseSubmit result: .97ogVjojzbFbiK1hBHw1mvvnzI- has been uploaded
==== Log checksum 00907E3A271378578C447A8CCC0134C94AB36A8B9F6C17C97D65EF15C68A0938 ====

Содержание индексной карты (.CUE)

REM GENRE CelticREM DATE 2008REM DISCID C80B2D0EREM COMMENT "ExactAudioCopy v1.1"PERFORMER "Dagda"TITLE "Celtic Tranquillity"FILE "Dagda - Celtic Tranquillity.flac" WAVE  TRACK 01 AUDIO    TITLE "My Lagan Love"    PERFORMER "Dagda"    INDEX 01 00:00:00  TRACK 02 AUDIO    TITLE "Loch Lomond"    PERFORMER "Dagda"    INDEX 01 03:11:48  TRACK 03 AUDIO    TITLE "Sally Garden"    PERFORMER "Dagda"    INDEX 01 08:54:21  TRACK 04 AUDIO    TITLE "Bheir Mio"    PERFORMER "Dagda"    INDEX 01 12:31:69  TRACK 05 AUDIO    TITLE "Bunclody"    PERFORMER "Dagda"    INDEX 01 14:44:42  TRACK 06 AUDIO    TITLE "Skibbereen"    PERFORMER "Dagda"    INDEX 01 17:26:15  TRACK 07 AUDIO    TITLE "I Know Where I'm Going"    PERFORMER "Dagda"    INDEX 01 20:39:63  TRACK 08 AUDIO    TITLE "Lark In The Clear Air"    PERFORMER "Dagda"    INDEX 01 24:26:36  TRACK 09 AUDIO    TITLE "Morning"    PERFORMER "Dagda"    INDEX 01 27:34:09  TRACK 10 AUDIO    TITLE "Slievenamon"    PERFORMER "Dagda"    INDEX 01 30:48:57  TRACK 11 AUDIO    TITLE "The Bold Fenian Men"    PERFORMER "Dagda"    INDEX 01 33:56:30  TRACK 12 AUDIO    TITLE "The Water Is Wide"    PERFORMER "Dagda"    INDEX 01 37:07:03  TRACK 13 AUDIO    TITLE "Cliffs of Dooneen"    PERFORMER "Dagda"    INDEX 01 40:59:51  TRACK 14 AUDIO    TITLE "Danny Boy"    PERFORMER "Dagda"    INDEX 01 44:07:24

Об исполнителе (группе)

Dagda - это древнеирландское имя верховного кельтского божества. Dagda - это Irish New Age band, которую составляют автор песен Reg Keating и программист Phillip O'Reilly. Их встреча произошла в студии Owl в Dublin, Ireland в 1997 и быстро переросла в хорошее музыкальное партнерство. Для большинства своих работ они привлекают дополнительных лучших сессионных музыкантов и вокалистов, чтобы придать своим сочинениям те точные звуки, которые они ищут. В своем творчестве музыканты объединяют старинные кельтские мелодии с современными ambient rhythmами, создавая замечательную музыку. Но ни один стиль не доминирует, в этом и успех их музыки - это настоящий синтез кельтской мистики и современного электронного звучания. Dagda вновь открывает двери в мир легенд и мифов, которые населяют злые и добрые кельтские боги, друиды и феи, эльфы и гномы, мудрецы и поэты... Dagda вновь поможет вам обнаружить в своем сердце место, где еще теплится искра кельтского духа.

RelizMAN

Post 09-May-2020 14:50

[Quote]

Deep Forest / Deep Forest (Epic EK 53747 US 1st press)
Жанр: Tribal, ambient, electronic
Носитель: CD
Страна-производитель диска (релиза): USA
Год издания: 1992
Издатель (лейбл): Epic
Номер по каталогу: EK 53747
Аудиокодек: FLAC (*.flac)
Тип рипа: image+.cue
Продолжительность: 00:41:02
Источник: собственный рип
Наличие сканов в содержимом раздачи: да
Треклист:
01 - Deep Forest (5:33)
02 - Sweet Lullaby (3:54)
03 - Hunting (3:27)
04 - Night Bird (4:18)
05 - The First Twilight (3:18)
06 - Savana Dance (4:26)
07 - Desert Walk (5:14)
08 - White Whisper (5:46)
09 - The Second Twilight (1:24)
10 - Sweet Lullaby [ambient mix] (3:47)

Лог создания рипа

Exact Audio Copy V1.3 from 2. September 2016
Отчёт EAC об извлечении, выполненном 9. мая 2020, 12:25
Deep Forest / Deep Forest
Дисковод: ASUS SDRW-08U5S-U Adapter: 0 ID: 0
Режим чтения : ДостоверностьИспользование точного потока : ДаОтключение кэша аудио : ДаИспользование указателей C2 : Нет
Коррекция смещения при чтении : 6Способность читать области Lead-in и Lead-out : НетЗаполнение пропущенных сэмплов тишиной : ДаУдаление блоков с тишиной в начале и конце : НетПри вычислениях CRC использовались нулевые сэмплы : ДаИнтерфейс : Установленный внешний ASPI-интерфейс
Выходной формат : Пользовательский кодировщикВыбранный битрейт : 896 kBit/sКачество : ВысокийДобавление ID3-тега : НетУтилита сжатия : C:\Program Files (x86)\Exact Audio Copy\Flac\flac.exeДополнительные параметры : -V -8 -T "Date=%year%" -T "Genre=%genre%" %source%
TOC извлечённого CD
Трек | Старт | Длительность | Начальный сектор | Конечный сектор --------------------------------------------------------------------- 1 | 0:00.00 | 5:33.53 | 0 | 25027 2 | 5:33.53 | 3:53.50 | 25028 | 42552 3 | 9:27.28 | 3:27.35 | 42553 | 58112 4 | 12:54.63 | 4:18.07 | 58113 | 77469 5 | 17:12.70 | 3:18.03 | 77470 | 92322 6 | 20:30.73 | 4:25.12 | 92323 | 112209 7 | 24:56.10 | 5:14.10 | 112210 | 135769 8 | 30:10.20 | 5:45.63 | 135770 | 161707 9 | 35:56.08 | 1:24.45 | 161708 | 168052 10 | 37:20.53 | 3:41.05 | 168053 | 184632
Характеристики диапазона извлечения и сообщения об ошибках
Выбранный диапазон
Имя файла C:\Deep Forest\Deep Forest - Deep Forest.wav
Пиковый уровень 97.7 % Скорость извлечения 2.0 X Качество диапазона 99.9 % CRC теста 3ACD41BC CRC копии 3ACD41BC Копирование... OK
Ошибок не произошло
AccurateRip: сводка
Трек 1 : извлечено точно (доверие 54) [4D7332D4] (AR v2)Трек 2 : извлечено точно (доверие 54) [DBD390FC] (AR v2)Трек 3 : извлечено точно (доверие 54) [3285A8AC] (AR v2)Трек 4 : извлечено точно (доверие 54) [A3E721F8] (AR v2)Трек 5 : извлечено точно (доверие 53) [76D7A1CF] (AR v2)Трек 6 : извлечено точно (доверие 54) [D8733089] (AR v2)Трек 7 : извлечено точно (доверие 54) [F12D9774] (AR v2)Трек 8 : извлечено точно (доверие 52) [96FD8D8C] (AR v2)Трек 9 : извлечено точно (доверие 53) [688B4E20] (AR v2)Трек 10 : извлечено точно (доверие 54) [740AE9AC] (AR v2)
Все треки извлечены точно
Конец отчёта
==== Контрольная сумма отчёта C340C0E0692943BC3659683D053320E5AE7BB1B7BA052C25F571A52AED82B3D3 ====

Содержание индексной карты (.CUE)

REM GENRE ElectronicREM DATE 1992REM DISCID 81099D0AREM COMMENT "ExactAudioCopy v1.3"PERFORMER "Deep Forest"TITLE "Deep Forest"REM COMPOSER ""FILE "Deep Forest - Deep Forest.flac" WAVE  TRACK 01 AUDIO    TITLE "Deep Forest"    PERFORMER "Deep Forest"    REM COMPOSER ""    INDEX 01 00:00:00  TRACK 02 AUDIO    TITLE "Sweet Lullaby"    PERFORMER "Deep Forest"    REM COMPOSER ""    INDEX 01 05:33:53  TRACK 03 AUDIO    TITLE "Hunting"    PERFORMER "Deep Forest"    REM COMPOSER ""    INDEX 01 09:27:28  TRACK 04 AUDIO    TITLE "Nightbird"    PERFORMER "Deep Forest"    REM COMPOSER ""    INDEX 01 12:54:63  TRACK 05 AUDIO    TITLE "The First Twilight"    PERFORMER "Deep Forest"    REM COMPOSER ""    INDEX 01 17:12:70  TRACK 06 AUDIO    TITLE "Savana Dance"    PERFORMER "Deep Forest"    REM COMPOSER ""    INDEX 01 20:30:73  TRACK 07 AUDIO    TITLE "Desert Walk"    PERFORMER "Deep Forest"    REM COMPOSER ""    INDEX 01 24:56:10  TRACK 08 AUDIO    TITLE "White Whisper"    PERFORMER "Deep Forest"    REM COMPOSER ""    INDEX 01 30:10:20  TRACK 09 AUDIO    TITLE "The Second Twilight"    PERFORMER "Deep Forest"    REM COMPOSER ""    INDEX 01 35:56:08  TRACK 10 AUDIO    TITLE "Sweet Lullaby (Ambient mix)"    PERFORMER "Deep Forest"    REM COMPOSER ""    INDEX 00 37:20:50    INDEX 01 37:20:53
Доп. информация: U.S. release without "Forest Hymn"
 

Current time is: 15-Jul 20:13

All times are UTC + 3