Search found 98 matches

Author Message

Vi$itReal

Post 04-Jul-2020 14:20

[Quote]

Информация о фильме
Название: 100ЯНОВ
Год выхода: 2019-2020
Жанр: Комедия, юмор, скетч-шоу
Режиссер: Александр Назаров (II)
В ролях: Юрий Стоянов, Сергей Шнуров, Михаил Ефремов, Владимир Меньшов, Мария Аронова, Виктор Сухоруков, Камиль Ларин, Елена Валюшкина, Ольга Бузова, Карина Зверева, Юлия Ауг, Игорь Золотовицкий, Пётр Красилов, Андрей Мерзликин, Дмитрий Певцов, Григорий Сиятвинда, Глафира Тарханова, Сергей Угрюмов, Ян Цапник, Михаил Тарабукин, Кузьма Сапрыкин, Мария Иванова, Наталья Щукина, Виталий Хаев, Виталий Егоров, Александр Адабашьян, Алексей Якубов, Олег Кассин, Нонна Гришаева, Павел Прилучный, Владимир Стержаков, Михаил Трухин, Александр Чернявский, Валерий Афанасьев, Ольга Тумайкина, Ольга Кузьмина, Леонид Ярмольник, Дарья Фекленко, Наталья Чукарина
О фильме:
Юмористическое шоу, в котором мастер пародий и перевоплощений, народный артист России Юрий Стоянов, продолжая традиции знаменитого и любимого миллионами "Городка", предложит зрителю целую галерею незабываемых и гомерически смешных персонажей. Инспектор ГИБДД, квартирный маклер, телепродюсер, продавец модного салона, великий русский поэт, еврейская мама, мисс Ялта-1977, начальник Штирлица Мюллер, мушкетер Портос – кого только здесь нет! Действительно, он – столикий Стоянов! Вместе с ним удивлять зрителя будет целая плеяда замечательных артистов. И можно быть уверенным, что многие из них предстанут перед зрителем в совершенно новом и неожиданном амплуа.

Страна: Россия
Студия: Производство ООО «М-Продакшн Медиа по заказу ВГТРК»
Продолжительность: 14 x ~ 00:51:00
Язык: Русский
Автор релиза:
Примечание: Без рекламы
Файл
Кодек: XviD
Качество: SATRip
Видео: XviD, ~ 1700 Кбит/с, 720x400
Звук: MP3, 2 ch, 192 Кбит/с
Семпл

Список выпусков

Выпуск 1 - 01.05.2019
Выпуск 2 - 12.06.2019
Выпуск 3 - 30.12.2019
Выпуск 4 - 24.02.2020
Выпуск 5 - 23.04.2020
Выпуск 6 - 17.05.2020
Выпуск 7 - 24.05.2020
Выпуск 8 - 30.05.2020
Выпуск 9 - 31.05.2020
Выпуск 10 - 06.06.2020
Выпуск 11 - 14.06.2020
Выпуск 12 - 20.06.2020
Выпуск 13 - 27.06.2020
Выпуск 14 - 04.07.2020

Скриншоты

Vi$itReal

Post 14-Jun-2020 20:20

[Quote]

Оригинальное название: Вечерний квартал
Год выпуска: 2020
Жанр: Юмористическое шоу, концерт, сатира
Выпущено: Украина, Студия 95 квартал
Режиссер: Студия 95 квартал
В ролях: Юрий Великий, Юрий Крапов, Денис Манжосов, Елена Кравец, Евгений Кошевой, Сергей Казанин, Александр Пикалов, Юрий Корявченков, Аркадий Лапухин
О фильме: Однажды веселые ребята из "95-го квартала" решили отметить свой переезд из родного Кривого Рога в Киев, а заодно 10-летие команды новым шоу. Коллектив подобрался душевный, "с огоньком", гости - сплошь знаменитые, а столичная публика - щедрая на аплодисменты. Так родилась самая смешная и популярная передача на отечественном телевидении - "Вечерний квартал". Идея шоу проста: в городе N есть некий модный квартал, в котором тусуются девять смешных жителей. Остальные просто приходят к ним в гости. Правда, гости не совсем обычные: среди них встречаются и богатые, и знаменитые, политики, и дизайнеры, и поп-звезды. Главный критерий - наличие здорового чувства юмора. Без него - никак, так как гостей здесь встречают не хлебом-солью, а розыгрышами и подколками, а те в свою очередь участвуют в скетчах и исполняют музыкальные или танцевальные номера.

Содержание

Приветствие от Евгения Кошевого
MONATIK - Добро пожаловать в наш Вечерний Квартал
Прощание с коронавирусом
Новый двойник Саакашвили - Политическое Дискавери
Школа доктора Коломойского
Самоизоляция сводит с ума! Муж и жена у психолога. СЕМЕЙНЫЕ ПРИКОЛЫ
Балерина, которая потолстела на карантине
Сбылась мечта украинцев - Чиновник попал в больницу, которую финансировал
Stand Up: Бекир Мамедиев - Про свою боль и жизнь в браке
СИЗО на карантине
Сергей Бабкин и голый, но очень счастливый Ляшко
Кличко и Кива в онлайн школе
Когда-нибудь всё это закончится - Финальная песня
Качество: WEBRip
Видео: XviD build 73, 720x400 (16:9), 25.000 fps, 1806 Kbps (0.251 bit/pixel)
Аудио: 48.0 kHz, MP3, 2/0 ch, 192 kbps
Продолжительность: 01:17:31
Перевод: Не требуется
Cубтитры: нет

Скриншоты

MediaInfo

General
Complete name : D:Razdachi126.Kvartal.ot.13.06.20.WEBRip.GeneralFilm.avi
Format : AVI
Format/Info : Audio Video Interleave
File size : 1.09 GiB
Duration : 1 h 17 min
Overall bit rate : 2 008 kb/s
Writing application : VirtualDubMod 1.5.10.3 | www.virtualdub-fr.org || (build 2550/release)
Writing library : VirtualDubMod build 2550/release
Video
ID : 0
Format : MPEG-4 Visual
Format profile : Advanced [email protected]
Format settings : BVOP1 / Custom Matrix
Format settings, BVOP : 1
Format settings, QPel : No
Format settings, GMC : No warppoints
Format settings, Matrix : Custom
Codec ID : XVID
Codec ID/Hint : XviD
Duration : 1 h 17 min
Bit rate : 1 806 kb/s
Width : 720 pixels
Height : 400 pixels
Display aspect ratio : 16:9
Frame rate : 25.000 FPS
Color space : YUV
Chroma subsampling : 4:2:0
Bit depth : 8 bits
Scan type : Progressive
Compression mode : Lossy
Bits/(Pixel*Frame) : 0.251
Stream size : 1 001 MiB (90%)
Writing library : XviD 69
Audio
ID : 1
Format : MPEG Audio
Format version : Version 1
Format profile : Layer 3
Codec ID : 55
Codec ID/Hint : MP3
Duration : 1 h 17 min
Bit rate mode : Constant
Bit rate : 192 kb/s
Channel(s) : 2 channels
Sampling rate : 48.0 kHz
Frame rate : 41.667 FPS (1152 SPF)
Compression mode : Lossy
Stream size : 106 MiB (10%)
Alignment : Aligned on interleaves
Interleave, duration : 40 ms (1.00 video frame)
Interleave, preload duratio : 504 ms
Writing library : LAME3.99r
Encoding settings : -m s -V 4 -q 2 -lowpass 18.6 -b 192
Релиз от:

Vi$itReal

Post 07-Jun-2020 03:20

[Quote]

Оригинальное название: Вечерний квартал
Год выпуска: 2020
Жанр: Юмористическое шоу, концерт, сатира
Выпущено: Украина, Студия 95 квартал
Режиссер: Студия 95 квартал
В ролях: Юрий Великий, Юрий Крапов, Денис Манжосов, Елена Кравец, Евгений Кошевой, Сергей Казанин, Александр Пикалов, Юрий Корявченков, Аркадий Лапухин
О фильме: Однажды веселые ребята из "95-го квартала" решили отметить свой переезд из родного Кривого Рога в Киев, а заодно 10-летие команды новым шоу. Коллектив подобрался душевный, "с огоньком", гости - сплошь знаменитые, а столичная публика - щедрая на аплодисменты. Так родилась самая смешная и популярная передача на отечественном телевидении - "Вечерний квартал". Идея шоу проста: в городе N есть некий модный квартал, в котором тусуются девять смешных жителей. Остальные просто приходят к ним в гости. Правда, гости не совсем обычные: среди них встречаются и богатые, и знаменитые, политики, и дизайнеры, и поп-звезды. Главный критерий - наличие здорового чувства юмора. Без него - никак, так как гостей здесь встречают не хлебом-солью, а розыгрышами и подколками, а те в свою очередь участвуют в скетчах и исполняют музыкальные или танцевальные номера.

Содержание

Зашквары депутатов на карантине
Голливудский экшн с украинскими политиками
Нервы сдают даже у кота - Смешные приколы на самоизоляции
Кличко и Кива в онлайн школе
Запрещёнка на карантине - Девушка по вызову под прикрытием
Ну всё, бабка окончательно поплыла - Жить Здорово с Еленой Малышевой - ПАРОДИЯ
Коломойский и Ахметов смотрят прямую трансляцию из Верховной Рады
Не политик, не вор, не мажор - Финальная песня
Качество: WEBRip
Видео: XviD build 73, 720x400 (16:9), 25.000 fps, 1965 Kbps (0.273 bit/pixel)
Аудио: 48.0 kHz, MP3, 2/0 ch, 192 kbps
Продолжительность: 01:11:49
Перевод: Не требуется
Cубтитры: нет

Скриншоты

MediaInfo

General
Complete name : D:RazdachiVechernij.Kvartal.125.WEBRip.GeneralFilm.avi
Format : AVI
Format/Info : Audio Video Interleave
File size : 1.09 GiB
Duration : 1 h 11 min
Overall bit rate : 2 167 kb/s
Writing application : VirtualDubMod 1.5.10.3 | www.virtualdub-fr.org || (build 2550/release)
Writing library : VirtualDubMod build 2550/release
Video
ID : 0
Format : MPEG-4 Visual
Format profile : Advanced [email protected]
Format settings : BVOP1 / Custom Matrix
Format settings, BVOP : 1
Format settings, QPel : No
Format settings, GMC : No warppoints
Format settings, Matrix : Custom
Codec ID : XVID
Codec ID/Hint : XviD
Duration : 1 h 11 min
Bit rate : 1 965 kb/s
Width : 720 pixels
Height : 400 pixels
Display aspect ratio : 16:9
Frame rate : 25.000 FPS
Color space : YUV
Chroma subsampling : 4:2:0
Bit depth : 8 bits
Scan type : Progressive
Compression mode : Lossy
Bits/(Pixel*Frame) : 0.273
Stream size : 1 009 MiB (91%)
Writing library : XviD 73
Audio
ID : 1
Format : MPEG Audio
Format version : Version 1
Format profile : Layer 3
Codec ID : 55
Codec ID/Hint : MP3
Duration : 1 h 11 min
Bit rate mode : Constant
Bit rate : 192 kb/s
Channel(s) : 2 channels
Sampling rate : 48.0 kHz
Frame rate : 41.667 FPS (1152 SPF)
Compression mode : Lossy
Stream size : 98.6 MiB (9%)
Alignment : Aligned on interleaves
Interleave, duration : 40 ms (1.00 video frame)
Interleave, preload duratio : 504 ms
Writing library : LAME3.99r
Encoding settings : -m s -V 4 -q 2 -lowpass 18.6 -b 192
Релиз от:

Vi$itReal

Post 20-May-2020 14:35

[Quote]

Информация о фильме
Название: Где логика?
Год выхода: 2020
Жанр: ТВ-Шоу, Юмор
Режиссер: Анатолий Шпульников
Ведущий: Азамат Мусагалиев
О фильме:
Принято делить логику на мужскую и на женскую логику. Канал ТНТ предлагает взглянуть на это с другой стороны. Звездные пары будут сражаться между собой, чтоб в итоге получить приз - картинку на экране. Вы спросите: "Где логика?". А это вы сможете узнать как раз из этого шоу с прекрасным ведущим и просто красавчиком Азаматом Мусагалиевым, который и будет выяснять наш вопрос.
Страна: Россия
Студия: Comedy Club Production
Продолжительность: 00:47:00
Перевод: Не требуется
Файл
Кодек: XviD
Качество: WEBRip
Видео: 1650 Кбит/с, 720x400
Звук: AC3, 2 ch, 192 Кбит/с

Скриншоты

Vi$itReal

Post 15-May-2020 04:50

[Quote]

Информация о фильме
Название: Я себя знаю!
Год выхода: 2020
Жанр: ТВ-шоу, юмор
Ведущий: Азамат Мусагалиев
О фильме:
Псевдоинтеллектуальная псевдовикторина, в которой Азамат Мусагалиев попытается задать селебам такие вопросы, на которые они не смогут ответить. Зачем? Чтобы за каждый неправильный ответ услышать «отвратительный» факт из биографии звезды! Для чего? Чтобы еще раз убедиться в том, что в реальной жизни звезды сталкиваются с такими же проблемами, как и мы.
Страна: Россия
Студия: Comedy Club Production
Продолжительность: 00:43:00
Перевод: Не требуется
Файл
Кодек: XviD
Качество: WEBRip
Видео: 1700 Кбит/с, 720x400, 25 Кадр/с
Звук: AC3, 2 ch, 192 Кбит/с

Скриншоты

Vi$itReal

Post 14-May-2020 11:35

[Quote]

Информация о фильме
Название: Однажды в России [эфир от 13.05]
Год выхода: 2020
Жанр: ТВ-шоу, юмор
Режиссер: Роман Новиков
В ролях: Михаил Стогниенко, Давид Цаллаев, Заур Байцаев, Теймураз Тания, Екатерина Моргунова, Максим Киселёв, Денис Дорохов, Александр Пташенчук, Азамат Мусагалиев, Ольга Картункова
О фильме:
Самое острое сатирическое шоу на отечественном телевидении возвращается с новыми выпусками. Все, что нужно знать о России и чего никогда не покажут в новостях. Московский ОМОН ловит в центре столицы покемонов, российские ученые впервые в мире провели операцию по пересадке сознания, в России снимут адаптацию сериала «Игры престолов» и откроют филиал школы магов Хогвардс. Все это и многое другое в новых выпусках «Однажды в России», — шоу, сделанном на невероятном для российского телевидения техническом уровне, и продолжающем традицию сатиры и социального юмора на ТНТ.
Страна: Россия
Студия: Comedy Club Production
Продолжительность: 00:45:00
Перевод: Не требуется
Файл
Кодек: XviD
Качество: WEBRip
Видео: 1700 Кбит/с, 720х400
Звук: AC3, 2 ch, 192 Кбит/с

Скриншоты

Vi$itReal

Post 13-May-2020 22:20

[Quote]

Информация о фильме
Название: Импровизация
Год выхода: 2020
Жанр: ТВ-Шоу, Юмор
Режиссер: Роман Новиков
Актерский состав: Антон Шастун, Арсений Попов, Дмитрий Позов, Сергей Матвиенко, Павел Воля
О фильме:
Телеканал ТНТ славится своими грандиозными проектами. Каждый раз зритель видит продукт, которому нет конкуренции на отечественном телеэкране. Особенно преуспели юмористические проекты от Comedy Club Production. На этот раз нам предстоит наблюдать непредсказуемое шоу, ведь жанр импровизации, подразумевает отсутствие всякого сценария. Поэтому никто не может предугадать чем все обернется. Участники будут веселить нас своим искрометным талантом. Каждый выпуск разбит на несколько частей. В каждой из них участникам предстоит выполнять различные задания. Кроме того в проекте принимают участие и уже популярные звезды...
Страна: Россия
Студия: Comedy Club Production
Продолжительность: 00:48:00
Перевод: Не требуется
Файл
Кодек: XviD
Качество: WEBRip
Видео: 1730 Кбит/с, 720х400
Звук: AC3, 2 ch, 192 Кбит/с

Скриншоты

Vi$itReal

Post 13-May-2020 12:35

[Quote]

Информация о фильме
Название: Где логика?
Год выхода: 2020
Жанр: ТВ-Шоу, Юмор
Режиссер: Анатолий Шпульников
Ведущий: Азамат Мусагалиев
О фильме:
Принято делить логику на мужскую и на женскую логику. Канал ТНТ предлагает взглянуть на это с другой стороны. Звездные пары будут сражаться между собой, чтоб в итоге получить приз - картинку на экране. Вы спросите: "Где логика?". А это вы сможете узнать как раз из этого шоу с прекрасным ведущим и просто красавчиком Азаматом Мусагалиевым, который и будет выяснять наш вопрос.
Страна: Россия
Студия: Comedy Club Production
Продолжительность: 00:47:00
Перевод: Не требуется
Файл
Кодек: XviD
Качество: WEBRip
Видео: 1650 Кбит/с, 720x400
Звук: AC3, 2 ch, 192 Кбит/с
Субтитры: Языки и типы субтитров

Скриншоты


Vi$itReal

Post 12-May-2020 14:50

[Quote]

Название: Stand Up в MP3 (Сезон 1-11)
Жанр: Юмор
Автор: ТНТ, Россия / Comedy Club Production
Озвучивают: Руслан Белый, Слава Комиссаренко, Юлия Ахмедова, Дмитрий Романов, Стас Старовойтов, Тимур Каргинов, Виктор Комаров, Александр Шаляпин, Алексей Щербаков, Нурлан Сабуров
Год издания: 2020
Продолжительность: 130 х ~00:46:00
Описание:
Программа телеканала ТНТ, StandUp в MP3 для прослушивания в плеерах.
В 2013-м году вышел первый выпуск юмористической передачи «Stand Up» на канале «ТНТ».
Руслан Белый и Юлия Ахмедова – это создатели той волшебной пилюли, которая помогает каждому человеку в свободной форме рассказать о своей проблеме в прямом эфире, чтобы любой мог посмеяться над ней. Ведь только самые сильные люди могут бороться с трудностями со смехом.
Каждый выпуск этой передачи - это антидот для стресса. Stand Up представляет нам выступление неотразимых комиков, которые излагают свои наболевшие проблемы в юмористической форме. Легкий вид юмора от непрофессионального комика намного интересней и увлекательней, чем заезженные шутки.
"Слава богу, что у нас есть проблемы". Этот парадоксальный девиз программы говорит всем и каждому, что если бы жизнь была простой, тогда было бы скучно. Ну, во всяком случае, так считают создатели проекта, которые съели не одну собаку в этой сфере деятельности.
Stand Up - это взгляд на наши жизненные повседневные ситуации. Это история, которую рассказывает человек на сцене, - обычно очень откровенную. Это правда жизни. Это что-то современное, что-то новое. Это что-то невообразимо оригинальное, яркое, интересное и обязательно смешное. Встречайте...

MediaInfo

Общее:
Полное имя : E:TORRENTYSerialStand.UpStand.Up2016Stand.Up.-5.(04).2016.G-R.mp3.mp3
Формат : MPEG Audio
Размер файла : 41,8 Мбайт
Продолжительность : 45 м.
Режим общего битрейта : Постоянный
Общий поток : 128 Кбит/сек
Трек : Stand.Up.-5.(04).2016.G-R.mp3
Библиотека кодирования : LAME3.99.5
Примечание : by groozin R
comment : by groozin R
creation_time : 2016-10-10T06:06:18.000000Z
Аудио
Формат : MPEG Audio
Версия формата : Version 1
Профиль формата : Layer 3
Режим : Joint stereo
Расширение режима : MS Stereo
Продолжительность : 45 м.
Вид битрейта : Постоянный
Битрейт : 128 Кбит/сек
Каналы : 2 канала
Частота : 48,0 КГц
Метод сжатия : С потерями
Размер потока : 41,8 Мбайт (100%)
Библиотека кодирования : LAME3.99.5

Содержание релиза, продолжительность.

2013-2014, 1 - 2-й сезоны
01. Stand.Up.(01).2013.G-R.mp3- 00:44:41
02. Stand.Up.(02).2013.G-R.mp3- 00:44:32
03. Stand.Up.(03).2013.G-R.mp3- 00:47:02
04. Stand.Up.(04).2013.G-R.mp3- 00:48:41
05. Stand.Up.(05).2013.G-R.mp3- 00:46:21
06. Stand.Up.(06).2013.G-R.mp3- 00:42:47
07. Stand.Up.(07).2013.G-R.mp3- 00:47:29
08. Stand.Up.(08).2013.G-R.mp3- 00:47:30
09. Stand.Up.(09).2013.G-R.mp3- 00:49:17
10. Stand.Up.(10).2013.G-R.mp3- 00:47:58
11. Stand.Up.(11).2013.G-R.mp3- 00:50:08
12. Stand.Up.(12).2013.G-R.mp3- 00:47:38
13. Stand.Up.(13).2013.G-R.mp3- 00:49:33
14. Stand.Up.(14).2013.G-R.mp3- 00:46:43
15. Stand.Up.(15).2013.G-R.mp3- 00:49:48
16. Stand.Up.(16).2013.G-R.mp3- 00:46:16
17. Stand.Up.(17).2014.G-R.mp3- 00:44:31
18. Stand.Up.(18).2014.G-R.mp3- 00:48:54
19. Stand.Up.(19).2014.G-R.mp3- 00:49:03
20. Stand.Up.(20).2014.G-R.mp3- 00:48:19
21. Stand.Up.(21).2014.G-R.mp3- 00:48:00
22. Stand.Up.(22).2014.G-R.mp3- 00:48:26
23. Stand.Up.(23).2014.G-R.mp3- 00:49:12
24. Stand.Up.(24).2014.G-R.mp3- 00:47:22
25. Stand.Up.(25).2014.G-R.mp3- 00:46:37
26. Stand.Up.(26).2014.G-R.mp3- 00:47:44
27. Stand.Up.(27).2014.G-R.mp3- 00:47:44
28. Stand.Up.(28).2014.G-R.mp3- 00:46:24
29. Stand.Up.(29).2014.G-R.mp3- 00:48:09
30. Stand.Up.(30).2014.G-R.mp3- 00:47:24
31. Stand.Up.(31).2014.G-R.mp3- 00:47:17
32. Stand.Up.(32).2014.G-R.mp3- 00:47:05
33. Stand.Up.(33).2014.G-R.mp3- 00:47:37
34. Stand.Up.(34).2014.G-R.mp3- 00:48:29
35. Stand.Up.(35).2014.G-R.mp3- 00:47:30-2015, 3-й сезон
01. Stand.Up.-3.(01).2015.G-R.mp3- 00:46:34
02. Stand.Up.-3.(02).2015.G-R.mp3- 00:46:33
03. Stand.Up.-3.(03).2015.G-R.mp3- 00:46:19
04. Stand.Up.-3.(04).2015.G-R.mp3- 00:47:15
05. Stand.Up.-3.(05).2015.G-R.mp3- 00:45:29
06. Stand.Up.-3.(06).2015.G-R.mp3- 00:46:30
07. Stand.Up.-3.(07).2015.G-R.mp3- 00:47:23
08. Stand.Up.-3.(08).2015.G-R.mp3- 00:47:30
09. Stand.Up.-3.(09).2015.G-R.mp3- 00:48:02
10. Stand.Up.-3.(10).2015.G-R.mp3- 00:47:22
11. Stand.Up.-3.(11).2015.G-R.mp3- 00:47:32-2016, 4-й сезон
01. Stand.Up.-4.(01).2016.G-R.mp3- 00:48:55
02. Stand.Up.-4.(02).2016.G-R.mp3- 00:48:10
03. Stand.Up.-4.(03).2016.G-R.mp3- 00:48:33
04. Stand.Up.-4.(04).2016.G-R.mp3- 00:48:47
05. Stand.Up.-4.(05).2016.G-R.mp3- 00:48:53
06. Stand.Up.-4.(06).2016.G-R.mp3- 00:49:09
07. Stand.Up.-4.(07).2016.G-R.mp3- 00:47:55
08. Stand.Up.-4.(08).2016.G-R.mp3- 00:47:14
09. Stand.Up.-4.(09).2016.G-R.mp3- 00:49:05-2016, 5-й сезон
10. Stand.Up.-5.(01).2016.G-R.mp3- 00:47:59
11. Stand.Up.-5.(02).2016.G-R.mp3- 00:47:39
12. Stand.Up.-5.(03).2016.G-R.mp3- 00:48:29
13. Stand.Up.-5.(04).2016.G-R.mp3- 00:45:40
14. Stand.Up.-5.(05).2016.G-R.mp3- 00:49:24
15. Stand.Up.-5.(06).2016.G-R.mp3- 00:47:09
16. Stand.Up.-5.(07).2016.G-R.mp3- 00:49:20
17. Stand.Up.-5.(08).2016.G-R.mp3- 00:45:15
18. Stand.Up.-5.(09).2016.G-R.mp3- 00:47:47-2017, 6-й сезон
01. Stand.Up.-6.(01).2017.G-R.mp3- 00:46:51
02. Stand.Up.-6.(02).2017.G-R.mp3- 00:46:55
03. Stand.Up.-6.(03).2017.G-R.mp3- 00:46:06
04. Stand.Up.-6.(04).2017.G-R.mp3- 00:47:19
05. Stand.Up.-6.(05).2017.G-R.mp3- 00:47:40
06. Stand.Up.-6.(06).2017.G-R.mp3- 00:46:36
07. Stand.Up.-6.(07).2017.G-R.mp3- 00:45:48
08. Stand.Up.-6.(08).2017.G-R.mp3- 00:44:35
09. Stand.Up.-6.(09).2017.G-R.mp3- 00:44:52
2017, 7-й сезон
01. Stand.Up.-7.(01).2017.G-R.mp3- 00:46:58
02. Stand.Up.-7.(02).2017.G-R.mp3- 00:46:40
03. Stand.Up.-7.(03).2017.G-R.mp3- 00:46:15
04. Stand.Up.-7.(04).2017.G-R.mp3- 00:47:22
05. Stand.Up.-7.(05).2017.G-R.mp3- 00:47:18
06. Stand.Up.-7.(06).2017.G-R.mp3- 00:46:44
07. Stand.Up.-7.(07).2017.G-R.mp3- 00:47:06
08. Stand.Up.-7.(08).2017.G-R.mp3- 00:47:41
09. Stand.Up.-7.(09).2017.G-R.mp3- 00:45:19
10. Stand.Up.-7.(10).2017.G-R.mp3- 00:46:44
2018, 8-й сезон
01. Stand.Up.-8.(01).2018.G-R.mp3-00:45:40
02. Stand.Up.-8.(02).2018.G-R.mp3-00:46:54
03. Stand.Up.-8.(03).2018.G-R.mp3-00:45:32
04. Stand.Up.-8.(04).2018.G-R.mp3-00:47:05
05. Stand.Up.-8.(05).2018.G-R.mp3-00:47:13
06. Stand.Up.-8.(06).2018.G-R.mp3-00:47:13
07. Stand.Up.-8.(07).2018.G-R.mp3-00:47:31
08. Stand.Up.-8.(08).2018.G-R.mp3-00:45:42
09. Stand.Up.-8.(09).2018.G-R.mp3-00:45:58
10. Stand.Up.-8.(10).2018.G-R.mp3-00:46:30
11. Stand.Up.-8.(11).2018.G-R.mp3-00:46:34
12. Stand.Up.-8.(12).2018.G-R.mp3-00:45:48
13. Stand.Up.-8.(13).2018.G-R.mp3-00:47:05
14. Stand.Up.-8.(14).2018.G-R.mp3-00:46:11
15. Stand.Up.-8.(15).2018.G-R.mp3-00:47:49
2019, 9-й сезон
01. Stand.Up.-09.(01).(10.02).2019.G-R-00:44:34
02. Stand.Up.-09.(02).(17.02).2019.G-R-00:47:31
03. Stand.Up.-09.(03).(24.02).2019.G-R-00:46:24
04. Stand.Up.-09.(04).(31.02).2019.G-R-00:47:50
05. Stand.Up.-09.(05).(10.03).2019.G-R-00:44:10
06. Stand.Up.-09.(06).(17.03).2019.G-R-00:44:06
07. Stand.Up.-09.(07).(24.03).2019.G-R-00:42:11
08. Stand.Up.-09.(08).(31.03).2019.G-R-00:44:31
09. Stand.Up.-09.(09).(14.04).2019.G-R-00:44:32
10. Stand.Up.-09.(10).(21.04).2019.G-R-00:44:32
2019, 10-й сезон
01. Stand.Up.-10.(01).(31.08).2019.G-R-00:47:16
02. Stand.Up.-10.(02).(07.09).2019.G-R-00:46:51
03. Stand.Up.-10.(03).(14.09).2019.G-R-00:46:43
04. Stand.Up.-10.(04).(21.09).2019.G-R-00:47:20
05. Stand.Up.-10.(05).(21.09).2019.G-R-00:47:49
06. Stand.Up.-10.(06).(28.09).2019.G-R-00:46:31
07. Stand.Up.-10.(07).(05.10).2019.G-R-00:47:03
08. Stand.Up.-10.(08).(12.10).2019.G-R-00:47:52
09. Stand.Up.-10.(09).(19.10).2019.G-R-00:46:07
10. Stand.Up.-10.(10).(26.10).2019.G-R-00:46:44
2020, 11-й сезон
01. Stand.Up.-11.(01).(26.01).2020.G-R-00:47:04
02. Stand.Up.-11.(02).(02.02).2020.G-R-00:42:51
03. Stand.Up.-11.(03).(16.02).2020.G-R-00:48:06
04. Stand.Up.-11.(04).(23.02).2020.G-R-00:44:14
05. Stand.Up.-11.(05).(08.03).2020.G-R-00:46:32
06. Stand.Up.-11.(06).(15.03).2020.G-R-00:44:56
07. Stand.Up.-11.(07).(22.03).2020.G-R-00:46:33
08. Stand.Up.-11.(08).(29.03).2020.G-R-00:47:08
09. Stand.Up.-11.(09).(05.04).2020.G-R-00:44:29
10. Stand.Up.-11.(10).(12.04).2020.G-R-00:45:28
11. Stand.Up.-11.(11).(19.04).2020.G-R-00:44:59
12. Stand.Up.-11.(12).(26.04).2020.G-R-00:46:58
Файл
Формат/Кодек: MP3
Битрейт аудио: 128-192 Кбит/сек, CBR

Vi$itReal

Post 01-May-2020 18:20

[Quote]

Информация о фильме
Название: Студия Союз
Год выхода: 2020
Жанр: ТВ-Шоу, Юмор
Ведущий: Айдар Гараев, Виктор Щетков, Александр Алымов, Артем Муратов, Елена Гущина
О фильме:
Звезды телеканала ТНТ уже успели засветиться на многих его проектах. Но такого они еще не видели. Новое юмористическое музыкальное шоу, ведущими которого являются участники команды КВН Союз, ставшие чемпионами Высшей лиги. Каждый четверг они приглашают в свою студию гостей с хорошим чувством юмора, которые будут всячески проявлять свои навыки в осведомленности новинок музыкальной индустрии. Для этого не обязательно иметь хороший слух. Достаточно того, что все будет очень смешно. Зрителю наверняка понравится новое творение от канала ТНТ, ведь оно обеспечит заряд позитивного настроения...
Страна: Россия
Студия: Comedy Club Production
Продолжительность: 00:48:00
Перевод: Не требуется
Файл
Кодек: XviD
Качество: WEB-DLRip
Видео: 1700 Кбит/с, 720x400
Звук: AC3, 2 ch, 192 Кбит/с

Скриншоты




Vi$itReal

Post 28-Apr-2020 10:20

[Quote]

Информация о фильме
Название: Где логика?
Год выхода: 2020
Жанр: ТВ-Шоу, Юмор
Режиссер: Анатолий Шпульников
Ведущий: Азамат Мусагалиев
О фильме:
Принято делить логику на мужскую и на женскую логику. Канал ТНТ предлагает взглянуть на это с другой стороны. Звездные пары будут сражаться между собой, чтоб в итоге получить приз - картинку на экране. Вы спросите: "Где логика?". А это вы сможете узнать как раз из этого шоу с прекрасным ведущим и просто красавчиком Азаматом Мусагалиевым, который и будет выяснять наш вопрос.
Страна: Россия
Студия: Comedy Club Production
Продолжительность: 00:47:00
Перевод: Не требуется
Файл
Кодек: XviD
Качество: WEB-DLRip
Видео: 1650 Кбит/с, 720x400
Звук: AC3, 2 ch, 192 Кбит/с

Скриншоты


Vi$itReal

Post 23-Apr-2020 02:50

[Quote]

Информация о фильме
Название: Где логика? 6 сезон
Год выхода: 2020
Жанр: ТВ-Шоу, Юмор
Режиссер: Анатолий Шпульников
Ведущий: Азамат Мусагалиев
О фильме:
Принято делить логику на мужскую и на женскую логику. Канал ТНТ предлагает взглянуть на это с другой стороны. Звездные пары будут сражаться между собой, чтоб в итоге получить приз - картинку на экране. Вы спросите: "Где логика?". А это вы сможете узнать как раз из этого шоу с прекрасным ведущим и просто красавчиком Азаматом Мусагалиевым, который и будет выяснять наш вопрос.
Страна: Россия
Студия: Comedy Club Production
Продолжительность: 00:47:00
Перевод: Не требуется
Качество: WEB-DLRip
Видео: XviD, 1650 Кбит/с, 720x400
Звук: AC3, 2 ch, 192 Кбит/с

Скриншоты




Vi$itReal

Post 17-Apr-2020 19:05

[Quote]

Информация
Оригинальное название: Новый Comedy Club
Год выхода: 2020
Жанр: ТВ-шоу, юмор
Ведущий: Павел Воля, Гарик Харламов
Описание: Как всегда, Comedy Club собрал все самое смешное, чтобы оставаться самым крутым юмористическим шоу на телевидении. Только самые лучшие номера от резидентов "Сomedy Сlub". Выдержанный юмор, проверенный временем и многомиллионной телевизионной аудиторией. Вы помните, что теперь Новый Comedy Club – больше чем просто шоу на сцене? Камеры готовы? Музыканты готовы? Зрители готовы? Поехали!
Выпущено: Россия, ТНТ-PREMIER
Продолжительность: ~ 00:49:00
Язык: Русский
Автор релиза: 25Kuzmich


Файл
Формат: avi
Качество: SATRip
Видео: XviD, 1650 Кбит/с, 720x400
Аудио: MP3, 2 ch, 192 Кбит/с
+06.Comedy Club.S16E06.Карантин Style 3.часть.[эфир от 10.04] (2020)

Содержание:

01.Comedy Club.S16E01.[эфир от 06.03] (2020)
02.Comedy Club.S16E02.[эфир от 13.03] (2020)
03.Comedy Club.S16E03.[эфир от 20.03] (2020)
04.Comedy Club.S16E04.Карантин Style 1.часть.[эфир от 27.03] (2020)
05.Comedy Club.S16E05.Карантин Style 2.часть.[эфир от 03.04] (2020)
06.Comedy Club.S16E06.Карантин Style 3.часть.[эфир от 10.04] (2020)

Скриншоты


Vi$itReal

Post 17-Apr-2020 09:35

[Quote]

Информация о фильме
Название: Однажды в России [эфир от 15.04]
Год выхода: 2020
Жанр: ТВ-шоу, юмор
Режиссер: Роман Новиков
В ролях: Михаил Стогниенко, Давид Цаллаев, Заур Байцаев, Теймураз Тания, Екатерина Моргунова, Максим Киселёв, Денис Дорохов, Александр Пташенчук, Азамат Мусагалиев, Ольга Картункова
О фильме:
Самое острое сатирическое шоу на отечественном телевидении возвращается с новыми выпусками. Все, что нужно знать о России и чего никогда не покажут в новостях. Московский ОМОН ловит в центре столицы покемонов, российские ученые впервые в мире провели операцию по пересадке сознания, в России снимут адаптацию сериала «Игры престолов» и откроют филиал школы магов Хогвардс. Все это и многое другое в новых выпусках «Однажды в России», — шоу, сделанном на невероятном для российского телевидения техническом уровне, и продолжающем традицию сатиры и социального юмора на ТНТ.
Страна: Россия
Студия: Comedy Club Production
Продолжительность: 00:45:00
Перевод: Не требуется
Файл
Кодек: XviD
Качество: WEBRip
Видео: 1700 Кбит/с, 720х400
Звук: AC3, 2 ch, 192 Кбит/с

Скриншоты




Vi$itReal

Post 05-Apr-2020 23:35

[Quote]

Информация
Оригинальное название: Вечерний квартал
Год выпуска: 2020
Жанр: Юмористическое шоу, концерт, сатира
Выпущено: Украина, Студия 95 квартал
Режиссер: Студия 95 квартал
В ролях: Юрий Великий, Юрий Крапов, Елена Кравец, Евгений Кошевой, Сергей Казанин, Александр Пикалов, Юрий Корявченков, Аркадий Лапухин
Описание: Однажды веселые ребята из "95-го квартала" решили отметить свой переезд из родного Кривого Рога в Киев, а заодно 10-летие команды новым шоу. Коллектив подобрался душевный, "с огоньком", гости - сплошь знаменитые, а столичная публика - щедрая на аплодисменты. Так родилась самая смешная и популярная передача на отечественном телевидении - "Вечерний квартал". Идея шоу проста: в городе N есть некий модный квартал, в котором тусуются девять смешных жителей. Остальные просто приходят к ним в гости. Правда, гости не совсем обычные: среди них встречаются и богатые, и знаменитые, политики, и дизайнеры, и поп-звезды. Главный критерий - наличие здорового чувства юмора. Без него - никак, так как гостей здесь встречают не хлебом-солью, а розыгрышами и подколками, а те в свою очередь участвуют в скетчах и исполняют музыкальные или танцевальные номера.

Содержание

Как там ваши посадки? Лукашенко дает совет Зеленскому
А где посадки, где? Весна давно в календаре
Порошенко после увольнения Рябошапки - Политическое дискавери
Отец дождался момента, когда сын съехал из дома
Звездопляски со Златой Огневич на Сербском телевидиении
Голые и смешные с Юрием Горбуновым
Даже коронавирус гуляет, а мы дома сидим! Разговор мужа с женой
Этой фигней управлять невозможно! Немцы приехали ПОДНИМАТЬ Укрзализныцю
Жена изменила мужу с Александром Усиком
Тараканы в столовой Верховной Рады
Вот если бы все назад отмотать - финальная песня
Качество: WEBRip
Видео: XviD build 73, 720x400 (16:9), 25.000 fps, 1499 Kbps (0.208 bit/pixel)
Аудио: 48.0 kHz, MP3, 2/0 ch, 192 kbps
Продолжительность: 01:31:37
Перевод: Не требуется
Cубтитры: нет

Скриншоты



MediaInfo

General
Complete name : D:RazdachiVechernij.Kvartal.124.WEBRip.GeneralFilm.avi
Format : AVI
Format/Info : Audio Video Interleave
File size : 1.09 GiB
Duration : 1 h 31 min
Overall bit rate : 1 701 kb/s
Writing application : VirtualDubMod 1.5.10.3 | www.virtualdub-fr.org || (build 2550/release)
Writing library : VirtualDubMod build 2550/release
Video
ID : 0
Format : MPEG-4 Visual
Format profile : Advanced [email protected]
Format settings : BVOP1 / Custom Matrix
Format settings, BVOP : 1
Format settings, QPel : No
Format settings, GMC : No warppoints
Format settings, Matrix : Custom
Codec ID : XVID
Codec ID/Hint : XviD
Duration : 1 h 31 min
Bit rate : 1 499 kb/s
Width : 720 pixels
Height : 400 pixels
Display aspect ratio : 16:9
Frame rate : 25.000 FPS
Color space : YUV
Chroma subsampling : 4:2:0
Bit depth : 8 bits
Scan type : Progressive
Compression mode : Lossy
Bits/(Pixel*Frame) : 0.208
Stream size : 982 MiB (88%)
Writing library : XviD 73
Audio
ID : 1
Format : MPEG Audio
Format version : Version 1
Format profile : Layer 3
Codec ID : 55
Codec ID/Hint : MP3
Duration : 1 h 31 min
Bit rate mode : Constant
Bit rate : 192 kb/s
Channel(s) : 2 channels
Sampling rate : 48.0 kHz
Frame rate : 41.667 FPS (1152 SPF)
Compression mode : Lossy
Stream size : 126 MiB (11%)
Alignment : Aligned on interleaves
Interleave, duration : 40 ms (1.00 video frame)
Interleave, preload duratio : 504 ms
Writing library : LAME3.99r
Encoding settings : -m s -V 4 -q 2 -lowpass 18.6 -b 192
Релиз от:
 

Current time is: 06-Jul 16:29

All times are UTC + 3