Search found 374 matches

Author Message

Vi$itReal

Post 09-Jul-2020 15:05

[Quote]

Информация о фильме
Название: Австралийская океанская одиссея
Оригинальное название: Ausrtalia's Ocean Odyssey
Год выхода: 2020
Жанр: документальный
Текст читает: Marta Dusseldorp
О фильме:
Документальный сериал, в котором демонстрируется захватывающее путешествие от Большого Барьерного рифа до Антарктиды, раскрывается важность океанских течений, которые создают жизнь на Земле, а также рассказывается о том, что мы можем сделать, чтобы защитить бьющееся синее сердце нашей планеты.

Страна: Австралия
Студия: Wild Pacific Media
Продолжительность: 3 х 00:55:00
Перевод: Субтитры Ron.Studio™
Файл
Кодек: MKV
Качество: HDTVRip 720p
Видео: AVC, 1280х720, 25 fps, ~2780 kbps
Звук: MPEG Audio, 48.0 kHz, 2 ch, 256 kbps
Субтитры: Внешние, русские, *.srt
Семпл

Скриншоты

RelizMAN

Post 08-Jul-2020 02:05

[Quote]

Информация о фильме
Название: BBC. США: Великая история и большое надувательство
Оригинальное название: American History's Biggest Fibs
Год выхода: 2019
Жанр: документальный, история
Режиссер: Лора Блаунт
В ролях: Люси Уорсли (ведущая)
О фильме:
Британский историк Люси Уорсли рассказывает, что некоторые из самых знаменательных моментов в истории США - это выдумки, придуманные политиками и поп-культурой.

Список серий:

1. Американская революция / The American Revolution
США, как независимое государство возникло в ходе революции: молодая британская колония отвоевала независимость у самой могущественной империи мира. В сознании среднего американца эта история звучит, как победа Давида над Голиафом, как повесть о высоких идеалах и героизме под звон колокола свободы. Но соответствует ли исторической истине популярное представление о рождении США?
2. Гражданская война / The American Civil War
Гражданская война в Америке вошла в историю, как борьба за освобождение рабов на Юге и объединение нации. Но так ли всё было на самом деле? Действительно ли Авраам Линкольн затеял войну за освобождение афроамериканцев, и действительно ли с победой Севера афроамериканское население США стало свободным?
3. Превосходство / Supremacy
Как Америка стала сверхдержавой? В послевоенные 50-е и 60-е в США казалось, что Американская мечта воплотилась в жизнь. Однако идиллию последовательно разрушали гонка вооружений, «охота на ведьм» в эпоху маккартизма, расовая сегрегация, Карибский кризис, война во Вьетнаме… и недовольство общества росло.
Это время породило главные мифы американской истории XX века. Идея о необходимости превосходства над мнимым врагом запустила гонку вооружений, а образ «американской крутости» стал основой самосознания американцев.

Страна: Великобритания
Студия: BBC Studios
Продолжительность: 3 x ~ 00:50:00
Перевод: Профессиональный двухголосый, закадровый [Lucky Production]
Файл
Кодек: H.264
Качество: WEB-DLRip 1080p
Видео: AVC, 1920x1080 (16:9), 25 fps ~ 1700 Kbps
Звук: AAC, 44.1 KHz, 2 ch ~ 128 Kb/s
Субтитры: отсутствуют

Скриншоты

Релиз от: starflow

RelizMAN

Post 08-Jul-2020 02:05

[Quote]

Информация о фильме
Название: Голые, напуганные и одинокие
Оригинальное название: Naked And Afraid: Alone
Год выхода: 2020
Жанр: Документальный, реалити-шоу
Режиссер: Эриель Шаффир, Кайл Хантер
В ролях: Майкл Браун, Хью Ча, Amanda Kaye, Эррол Джеймс Снайдер, Лаура Серра, Matt Wright, Amber Hargrove, Justin Bullard, Steven Lee Hall Jr., Матильда Биттнер
О фильме:
Одинокое выживание мужчин и женщин в джунглях по всему миру. Ставки высоки, каждый борется не только с плохой погодой, но и пытается преодолеть собственные слабости и страхи. Далеко не все смогут справиться с такими трудностями. Получится ли у наших героев пройти проверку на прочность или природа возьмет верх над человеком?
Страна: США
Студия: Renegade 83
Продолжительность: 00:44:22
Перевод: Профессиональный (одноголосый, закадровый)
Файл
Кодек: MPEG-4 AVC
Качество: HDTVRip 1080p
Видео: 4950 Кбит/с, 1920x1080, 25 Кадр/с
Звук: AAC, 2 ch, 192 Кбит/c

Скриншоты

Название серий

01. Пан или пропал.
02. Гэри в джунглях.
03. Охотники и жертвы.
04.
05. Макс на пределе.
06. Одинок как волк.
07.
08.

Vi$itReal

Post 07-Jul-2020 04:20

[Quote]

Информация о фильме
Название: Австралийская океанская одиссея
Оригинальное название: Ausrtalia's Ocean Odyssey
Год выхода: 2020
Жанр: документальный
Текст читает: Marta Dusseldorp
О фильме:
Документальный сериал, в котором демонстрируется захватывающее путешествие от Большого Барьерного рифа до Антарктиды, раскрывается важность океанских течений, которые создают жизнь на Земле, а также рассказывается о том, что мы можем сделать, чтобы защитить бьющееся синее сердце нашей планеты.

Страна: Австралия
Студия: Wild Pacific Media
Продолжительность: 2 х 00:55:00
Перевод: Субтитры Ron.Studio™
Файл
Кодек: MKV
Качество: HDTVRip 720p
Видео: AVC, 1280х720, 25 fps, ~2780 kbps
Звук: MPEG Audio, 48.0 kHz, 2 ch, 256 kbps
Субтитры: Внешние, русские, *.srt
Семпл

Скриншоты

RelizMAN

Post 06-Jul-2020 21:20

[Quote]

Информация о фильме
Название: Загадочная планета
Оригинальное название: Mysterious Planet
Год выхода: 2019
Жанр: Документальный, природа, флора, фауна
Режиссер: Эндрю Мюррей
О фильме:
Сериал - это грандиозное путешествие к краям земли, чтобы открыть величайшие тайны самых невероятных видов в мире. Пять необычных горячих точек, пять уникальных загадок и новый набор харизматических существ в каждой локации ... Что делает эти места такими особенными? Как они формировали существ, которые там живут? Ответы лежат в геологических силах, которые формируют нашу планету: крушение континентов, которое все еще продолжается сегодня, взрывная сила вулканов ... катастрофическое событие, которое уничтожило динозавров. От пышных лесов Индонезии до засушливых андских пустынь, от Карибского моря до высокогорных районов Эфиопии, каждый эпизод отправляет нас в путешествие во времени и пространстве, чтобы показать, как появились эти животные ... и почему они существуют только в этих исключительные места на нашей планете.
Страна: Новая Зеландия
Студия: Natural History New Zealand Limited
Продолжительность: 5 x ~ 00:47:58
Перевод: Профессиональный (одноголосый закадровый) SDI Media
Файл
Кодек: AVC/H.264
Качество: HDTV 1080i
Видео: 1920x1080 (16:9), AVC (Н.264), [email protected], ~ 6397 kbps, 25 fps, 0.123 bit/pixel
Звук:
Русский 48 kHz, MPEG Layer 2, 2 ch, ~160.00 kbps avg
Английский 48 kHz, MPEG Layer 2, 2 ch, ~128.00 kbps avg
Семпл

MediaInfo

Complete name : F:НаладкиЗагадочная планета�1. Острова Короля драконов.ts
Format : MPEG-TS
File size : 2.36 GiB
Duration : 47 min 58 s
Overall bit rate mode : Variable
Overall bit rate : 7 035 kb/s
Video
ID : 305 (0x131)
Menu ID : 17105 (0x42D1)
Format : AVC
Format/Info : Advanced Video Codec
Format profile : [email protected]
Format settings : CABAC / 4 Ref Frames
Format settings, CABAC : Yes
Format settings, Reference : 4 frames
Format settings, GOP : M=4, N=24
Codec ID : 27
Duration : 47 min 58 s
Bit rate : 6 397 kb/s
Width : 1 920 pixels
Height : 1 080 pixels
Display aspect ratio : 16:9
Frame rate : 25.000 FPS
Standard : Component
Color space : YUV
Chroma subsampling : 4:2:0
Bit depth : 8 bits
Scan type : Interlaced
Scan type, store method : Separated fields
Scan order : Top Field First
Bits/(Pixel*Frame) : 0.123
Stream size : 2.14 GiB (91%)
Color range : Limited
Color primaries : BT.709
Transfer characteristics : BT.709
Matrix coefficients : BT.709
Audio #1
ID : 405 (0x195)
Menu ID : 17105 (0x42D1)
Format : MPEG Audio
Format version : Version 1
Format profile : Layer 2
Codec ID : 3
Duration : 47 min 58 s
Bit rate mode : Constant
Bit rate : 160 kb/s
Channel(s) : 2 channels
Sampling rate : 48.0 kHz
Frame rate : 41.667 FPS (1152 SPF)
Compression mode : Lossy
Stream size : 54.9 MiB (2%)
Language : Russian
Audio #2
ID : 425 (0x1A9)
Menu ID : 17105 (0x42D1)
Format : MPEG Audio
Format version : Version 1
Format profile : Layer 2
Codec ID : 3
Duration : 47 min 58 s
Bit rate mode : Constant
Bit rate : 128 kb/s
Channel(s) : 2 channels
Sampling rate : 48.0 kHz
Frame rate : 41.667 FPS (1152 SPF)
Compression mode : Lossy
Stream size : 43.9 MiB (2%)
Language : English

Содержание

01. Острова Короля драконов / Islands of the Dragon King
Готовьтесь встретить одних из самых странных существ на Земле, обитающих на островах Короля драконов: драконов, гремлинов, птенцов-зомби, обезьян-панков и хоббитов. Почему эти острова такие странные?
02. Великаны Карибского моря / Giants of the Caribbean
Почему в одном и том же месте у побережья Мексики плавает более 400 китовых акул? Касается ли дело метеорита в космосе или чудовищ под водой, мы разберемся, в чем тут дело.
03. Горы льда и пламени / Mountains of Fire and Ice
Один горный хребет, два мира: огненный форт, твердыня феникса и царство льда, покоренное мастером скрытности. Как фламинго и пумы стали правителями столь враждебных земель?
04. Крыша Африки / Roof of Africa
В нагорьях Эфиопии водятся уникальные животные. Здесь творение и разрушение зависит от сил самой земли, а для выживания необходимо держаться вместе и подчинить соперников.
05. Затерянный лес / The Forgotten Forest
На пороге Рио расположен лес, который совсем не похож на другие леса. Атлантический лес в 50 раз меньше амазонского, но столь же разнообразен. Почему один из очагов биоразнообразия Земли был забыт?
Релиз от: kyba

Vi$itReal

Post 05-Jul-2020 18:20

[Quote]

Название: Возрождение прииска
Оригинальное название: Lost Mines: Restored
Год выпуска: 2020
Жанр: Документальный, строительство
Выпущено: США, Discovery
О фильме: Два опытных строителя объединяют силы с владельцами заброшенных старательских участков, чтобы превратить их в прибыльные прииски. Верные друзья Алекс и Кевин покупают старые участки земли, на которых могут быть золотые залежи. На многих из них строительство ограничено законом, поэтому наши герои должны проявить чудеса смекалки и изобретательности, чтобы извлечь максимальную пользу из уже имеющихся конструкций и помочь заработать их владельцам — старателям.
Качество: HDTVRip 720p
Видео: MPEG-4 AVC, ~ 4000 Кбит/с, 1280x720
Аудио: MP2, 2 ch, 384 Кбит/с
Продолжительность: 1 x ~ 00:44:00
Перевод: Профессиональный (одноголосый, закадровый)

[color=blue]Скриншоты[/color]



[color=blue]Название серий[/color]

01. В поисках золотой жилы.
02.
03.
04.
05.
06.
08.

[color=blue]Внимание! Раздача ведётся путём добавления новых серий![/color]

Внимание! Раздача ведётся путём добавления новых серий; при каждом добавлении создаётся новый торрент. Чтобы начать докачку новой серии, пользователям необходимо сделать следующее: (1) остановить скачивание, (2) удалить старый торрент у себя из клиента (старые серии удалять не надо), (3) скачать новый торрент и запустить его у себя в клиенте вместо старого, при этом указать клиенту путь в старую папку куда и должно происходить скачивание новых серий.
Ваш клиент при этом должен произвести хеширование (проверку) старой папки (если не производит сам - помогите ему сделать это), и будет докачивать только те серии которых у вас ещё нет. Старые серии при этом не удаляются, а продолжают раздаваться!
Eсли вы уже удалили старые серии, то предотвратить повторную закачку старых серий можно, отжав галочку в соответсвующих местах при запуске нового торрента.
Благодарю за постер ValkiriaGF
Релиз от:

Vi$itReal

Post 05-Jul-2020 17:05

[Quote]

Информация о фильме
Название: Луна — наш ключ ко Вселенной
Оригинальное название: The Moon — our gateway to the Universe
Год выхода: 2017
Жанр: Документальный, научно-популярный, космос
Режиссер: Манфред Крист
В ролях: Отто Клеменс, Детлев Экштейн, Питер Фаербер
О фильме:
Луна всегда была в центре человеческого внимания, и все же она по-прежнему полна тайн, которые хочется разгадать. И мы стали еще ближе к новым открытиям! Несколько стран, космических агентств, а также частные компании планируют отправить космические исследовательские ракеты и даже беспилотные летательные аппараты для безопасной посадки и перемещения по естественному спутнику Земли. О последних и самых зрелищных научных прорывах, которые проливают новый свет на все еще не разгаданные тайны.
Страна: Германия
Студия: Cosmos Factory, Terra Mater Factual Studios
Продолжительность: 00:51:59
Перевод: Профессиональный (двухголосый закадровый) Видеофильм ТВ
Файл
Кодек: AVC/H.264
Качество: HDTVRip 720p
Видео: 1280x720 (16:9), 25 fps, AVC (Н.264), [email protected],1, 4000 kbps avg, 0.174 bit/pixel
Звук: Русский 48 kHz, AC3 Dolby Digital, 2/0 (L,R) ch, ~192.00 kbps avg
Семпл

MediaInfo

Complete name : F:НаладкиНовая папкаЛуна - наш ключ ко Вселенной_720p.mkv
Format : Matroska
Format version : Version 4
File size : 1.52 GiB
Duration : 51 min 59 s
Overall bit rate : 4 193 kb/s
Encoded date : UTC 2020-06-13 06:57:16
Writing application : mkvmerge v6.6.0 ('The Edge Of The In Between') built on Dec 1 2013 17:55:00
Writing library : libebml v1.3.0 + libmatroska v1.4.1
Video
ID : 1
Format : AVC
Format/Info : Advanced Video Codec
Format profile : [email protected]
Format settings : CABAC / 8 Ref Frames
Format settings, CABAC : Yes
Format settings, Reference : 8 frames
Codec ID : V_MPEG4/ISO/AVC
Duration : 51 min 59 s
Bit rate : 4 000 kb/s
Width : 1 280 pixels
Height : 720 pixels
Display aspect ratio : 16:9
Frame rate mode : Constant
Frame rate : 25.000 FPS
Color space : YUV
Chroma subsampling : 4:2:0
Bit depth : 8 bits
Scan type : Progressive
Bits/(Pixel*Frame) : 0.174
Stream size : 1.42 GiB (93%)
Writing library : x264 core 159 r2991 1771b55
Encoding settings : cabac=1 / ref=8 / deblock=1:-3:-3 / analyse=0x3:0x133 / me=umh / subme=9 / psy=1 / psy_rd=1.00:0.00 / mixed_ref=1 / me_range=32 / chroma_me=1 / trellis=2 / 8x8dct=1 / cqm=0 / deadzone=21,11 / fast_pskip=1 / chroma_qp_offset=-2 / threads=12 / lookahead_threads=2 / sliced_threads=0 / nr=0 / decimate=0 / interlaced=0 / bluray_compat=0 / constrained_intra=0 / bframes=9 / b_pyramid=2 / b_adapt=2 / b_bias=0 / direct=3 / weightb=1 / open_gop=0 / weightp=2 / keyint=250 / keyint_min=25 / scenecut=40 / intra_refresh=0 / rc_lookahead=50 / rc=2pass / mbtree=1 / bitrate=4000 / ratetol=1.0 / qcomp=0.60 / qpmin=0 / qpmax=69 / qpstep=4 / cplxblur=20.0 / qblur=0.5 / ip_ratio=1.40 / aq=1:1.00
Language : English
Default : Yes
Forced : No
Audio
ID : 2
Format : AC-3
Format/Info : Audio Coding 3
Commercial name : Dolby Digital
Codec ID : A_AC3
Duration : 51 min 59 s
Bit rate mode : Constant
Bit rate : 192 kb/s
Channel(s) : 2 channels
Channel layout : L R
Sampling rate : 48.0 kHz
Frame rate : 31.250 FPS (1536 SPF)
Bit depth : 16 bits
Compression mode : Lossy
Stream size : 71.4 MiB (5%)
Language : Russian
Service kind : Complete Main
Default : Yes
Forced : No
Релиз от: kyba

Vi$itReal

Post 04-Jul-2020 15:20

[Quote]

Информация о фильме
Название: Австралийская океанская одиссея
Оригинальное название: Ausrtalia's Ocean Odyssey
Год выхода: 2020
Жанр: документальный
Текст читает: Marta Dusseldorp
О фильме:
Документальный сериал, в котором демонстрируется захватывающее путешествие от Большого Барьерного рифа до Антарктиды, раскрывается важность океанских течений, которые создают жизнь на Земле, а также рассказывается о том, что мы можем сделать, чтобы защитить бьющееся синее сердце нашей планеты.

Страна: Австралия
Студия: Wild Pacific Media
Продолжительность: 00:55:00
Перевод: Субтитры Ron.Studio™
Файл
Кодек: MKV
Качество: HDTVRip 720p
Видео: AVC, 1280х720, 25 fps, ~2780 kbps
Звук: MPEG Audio, 48.0 kHz, 2 ch, 256 kbps
Субтитры: Внешние, русские, *.srt
Семпл

Скриншоты

RelizMAN

Post 04-Jul-2020 10:50

[Quote]

Информация о фильме
Название: Бурые медвежата и я
Оригинальное название: Grizzly Bear Cubs and Me
Год выхода: 2018
Жанр: Документальный, природа, флора, фауна
Режиссер: Анвар Мамон
В ролях: Гордон Бьюкенен, Катерина Пажетнова, Сергей Пажетнов
О фильме:
Этот документальный фильм рассказывает о центре спасения медведей в Тверской области и работающей там семье Пажетновых. Гордон Бьюканан несколько раз приезжал в деревню Бубоницы Тверской области, где расположен центр спасения медведей Международного фонда защиты животных. В снятом им фильме судьба трёх пар осиротевших медвежат, которых выкармливают и возвращают в дикую природу сотрудники центра, основанного биологом Валентином Пажетновым. Все малыши, ещё не успевшие привыкнуть к людям, получили шанс начать самостоятельную жизнь в тверских лесах. Работая над фильмом, Бьюканан помогал кормить медвежат специальной молочной смесью, мыл их и говорит, что даже пытался научить их карабкаться по деревьям.
Официальный сайт
Страна: Великобритания
Студия: Hello Halo, Oak Island Films, BBC Scotland
Продолжительность: 2 х ~00:51:44
Перевод: Профессиональный (одноголосый закадровый)
Файл
Кодек: AVC/H.264
Качество: HDTV 1080i
Видео: 1920x1080 (16:9), AVC (Н.264), [email protected], ~ 8002 kbps, 25fps, 0.154 bit/pixel
Звук: Русский 48 kHz, MPEG Layer 2, 2 ch, ~192.00 kbps avg
Семпл

MediaInfo

Complete name : F:НаладкиБурые медвежата и я�1. Еп_1.ts
Format : MPEG-TS
File size : 3.12 GiB
Duration : 51 min 44 s
Overall bit rate mode : Variable
Overall bit rate : 8 622 kb/s
Video
ID : 3711 (0xE7F)
Menu ID : 37001 (0x9089)
Format : AVC
Format/Info : Advanced Video Codec
Format profile : [email protected]
Format settings : CABAC / 3 Ref Frames
Format settings, CABAC : Yes
Format settings, Reference : 3 frames
Codec ID : 27
Duration : 51 min 44 s
Bit rate : 8 002 kb/s
Width : 1 920 pixels
Height : 1 080 pixels
Display aspect ratio : 16:9
Frame rate : 25.000 FPS
Color space : YUV
Chroma subsampling : 4:2:0
Bit depth : 8 bits
Scan type : Interlaced
Scan type, store method : Separated fields
Scan order : Top Field First
Bits/(Pixel*Frame) : 0.154
Stream size : 2.89 GiB (93%)
Color range : Limited
Color primaries : BT.709
Transfer characteristics : BT.709
Matrix coefficients : BT.709
Audio
ID : 3712 (0xE80)
Menu ID : 37001 (0x9089)
Format : MPEG Audio
Format version : Version 1
Format profile : Layer 2
Codec ID : 3
Duration : 51 min 44 s
Bit rate mode : Constant
Bit rate : 192 kb/s
Channel(s) : 2 channels
Sampling rate : 48.0 kHz
Frame rate : 41.667 FPS (1152 SPF)
Compression mode : Lossy
Delay relative to video : -120 ms
Stream size : 71.1 MiB (2%)
Language : Russian

Содержание

01. Медвежата проводят свою первую зиму, питаясь, играя и растя. Но все ли будут развиваться должным образом к весне, когда они впервые смогут исследовать дикую природу?
02. Сейчас лето, и у медвежат дела идут неплохо, но смогут ли они выучить все навыки, необходимые для выживания в лесу, к моменту их освобождения в начале осени?
Релиз от: kyba

Vi$itReal

Post 02-Jul-2020 13:20

[Quote]

Название: Голые, напуганные и одинокие
Оригинальное название: Naked And Afraid: Alone
Год выпуска: 2019
Жанр: Документальный, реалити-шоу, экстрим
Выпущено: США, Discovery, Renegade 83
Режиссер: Мисси Хьюз, Тимми Пол
В ролях: Клинт Живоин, Эррол Джеймс Снайдер, Пума Кабра, Кайли Фурно
О фильме: Выживание в экстремальных условиях без еды, воды и одежды — испытание, справиться с которым дано лишь самым выносливым. А сделать это в одиночку способны только лучшие из лучших. В этой захватывающей программе восемь искателей приключений из предыдущих сезонов должны продержаться три недели без помощи напарников. Им придется рассчитывать лишь на себя. Абсолютное одиночество не только осложняет поиск еды, воды и укрытия, но и оказывает колоссальное давление на психику. Отважные герои уверены, что смогут выдержать что угодно, но выживут ли они, оставшись совсем одни?
Качество: HDTVRip 720p
Видео: MPEG-4 AVC, ~ 4000 Кбит/с, 1280x720
Аудио: MP2, 2 ch, 384 Кбит/с
Продолжительность: 1 x ~ 00:44:00
Перевод: Профессиональный (одноголосый, закадровый)

[color=blue]Скриншоты[/color]



[color=blue]Название серий[/color]

01. Пан или пропал.
02.
03.
04.
05.
06.
08.

[color=blue]Внимание! Раздача ведётся путём добавления новых серий![/color]

Внимание! Раздача ведётся путём добавления новых серий; при каждом добавлении создаётся новый торрент. Чтобы начать докачку новой серии, пользователям необходимо сделать следующее: (1) остановить скачивание, (2) удалить старый торрент у себя из клиента (старые серии удалять не надо), (3) скачать новый торрент и запустить его у себя в клиенте вместо старого, при этом указать клиенту путь в старую папку куда и должно происходить скачивание новых серий.
Ваш клиент при этом должен произвести хеширование (проверку) старой папки (если не производит сам - помогите ему сделать это), и будет докачивать только те серии которых у вас ещё нет. Старые серии при этом не удаляются, а продолжают раздаваться!
Eсли вы уже удалили старые серии, то предотвратить повторную закачку старых серий можно, отжав галочку в соответсвующих местах при запуске нового торрента.
Благодарю за постер ValkiriaGF
Релиз от:

RelizMAN

Post 01-Jul-2020 23:05

[Quote]

Информация о фильме
Название: Тайная жизнь тасманийского дьявола
Оригинальное название: Secret Life Of The Tasmanian Devil
Год выхода: 2016
Жанр: документальный
В ролях: Virge Gilchrist (читает текст)
О фильме:
Тасманийские дьяволы — млекопитающее семейства хищных сумчатых; единственный вид рода Sarcophilus. Его чёрная окраска, огромная пасть с острыми зубами, зловещие ночные крики и свирепый нрав дали первым европейским поселенцам основание прозвать этого коренастого хищника «дьяволом».
Тасманийские дьяволы — убийцы животного мира: дерзкие, бесстрашные и всегда готовые к бою. Но, несмотря на то, что они находятся на вершине пищевой цепи, эти сумчатые столкнулись с вымиранием из-за смертельной болезни, которую они передают друг другу через укусы.

Страна: США
Продолжительность: 2 x 00:47:00
Перевод: Профессиональный (дублированный)
Файл
Кодек: MKV
Качество: TVHDRip 1080p
Видео: AVC, 1920х1080, 23.976 fps, ~4500 kbps
Звук:
Аудио 1 (RUS): MP2, 48.0 kHz, 2 ch, 128 kbps
Аудио 2 (ENG): АС-3, 48.0 kHz, 2 ch, 192 kbps
Субтитры: Английские
Семпл

Скриншоты

Vi$itReal

Post 30-Jun-2020 02:35

[Quote]

Информация о фильме
Название: Братья Дизель
Оригинальное название: Diesel Brothers
Год выхода: 2018
Жанр: Документальный, автомобили
Выпущено: США, Discovery Channel
Режиссер: Эрик Дункан
О фильме:Хэви Ди и Дизель Дэйв прославились на весь мир, собирая невероятно большие и устрашающие пикапы. Их дизельная мастерская уже стала легендарной. Бородачи создают и продают настоящих дизельных монстров, но на сей раз они пошли еще дальше. Команда основала новый бизнес по скупке и ремонту старых или сломанных внедорожников и их перепродаже. Это предприятие оказалось очень успешным: только за один день после открытия магазина они заработали 200 тысяч долларов. В новом сезоне парни получают заказ на очень крупный проект — им надо построить гигантский школьный автобус, который сможет ездить по воде и по суше! Между тем Мускул приносит новый заказ. Его приятель хочет пикап F250 в стиле Раптора. Как видно, дела в фирме Dieselsellerz идут как никогда хорошо, и парни готовы вывести свой дизельный бизнес на заоблачные высоты.

Файл
Качество: HDTVRip 720p
Видео: MPEG-4 AVC, ~ 4000 Кбит/с, 1280x720
Аудио: MP2, 2 ch, 192 Кбит/с
Продолжительность: 1 x ~ 00:44:00
Перевод: Профессиональный (одноголосый, закадровый)

[color=blue]Скриншоты[/color]



[color=blue]Внимание! Раздача ведётся путём добавления новых серий![/color]

Внимание! Раздача ведётся путём добавления новых серий; при каждом добавлении создfётся новый торрент. Чтобы начать докачку новой серии, пользователям необходимо сделать следующее: (1) остановить скачивание, (2) удалить старый торрент у себя из клиента (старые серии удалять не надо), (3) скачать новый торрент и запустить его у себя в клиенте вместо старого, при этом указать клиенту путь в старую папку куда и должно происходить скачивание новых серий.
Ваш клиент при этом должен произвести хеширование (проверку) старой папки (если не производит сам - помогите ему сделать это), и будет докачивать только те серии которых у вас ещё нет. Старые серии при этом не удаляются, а продолжают раздаваться!
Eсли вы уже удалили старые серии, то предотвратить повторную закачку старых серий можно, отжав галочку в соответсвующих местах при запуске нового торрента.
Релиз от:

RelizMAN

Post 29-Jun-2020 18:05

[Quote]

Информация о фильме
Название: Проклятие острова Оук
Оригинальное название: The Curse of Oak Island
Год выхода: 2019 - 2020
Жанр: Документальный, научно-популярный, исследования, реалити-шоу
Режиссер: Кевин Барнс
В ролях: Рик Лагина, Марти Лагина, Дэвид Бланкеншип, Дэн Хенски, Том Нолан, Крэйг Тестер, Джек Бегли, Алекс Лагина, Питэр Форнетти, Чарльз Баркхаус
О фильме:
У побережья Новой Шотландии есть маленький остров, хранящий великую тайну. В XVIII веке люди заметили, что по ночам остров светится странным светом, однако те, кто отправился выяснять, что это за свет, не вернулись. Чуть позже двое мальчишек обнаружили на острове странную яму — вход в засыпанную землей шахту. Эта находка положила начало лихорадке кладоискательства, в которой принимали участие такие известные люди, как Франклин Рузвельт и Джон Уэйн. Что скрывает остров Оук? Пиратский клад или сокровища викингов? Древнюю крепость или потерянную библейскую реликвию? Никто не знает, а те, кто пытались узнать, потерпели фиаско. Тот, кто спрятал клад на острове, постарался на славу: добраться до низа шахты невозможно, потому что любая яма тут же наполняется морской водой из скрытых каналов, явно прорытых специально.

Страна: США
Студия: Prometheus Entertainment, Tell Tale Productions, History Channel
Продолжительность: 24 x ~ 00:41:00
Перевод: Профессиональный двухголосый
Файл
Качество: HDTV (1080i)
Видео: MPEG-4 AVC, ~ 7708 Кбит/с, 1920x1080
Аудио: Русский, английский (MP2, 2 ch, 192 Кбит/с)

Содержание

01. Проклятие острова Оук 7.01 Передать эстафету, 1 часть
02. Проклятие острова Оук 7.01 Передать эстафету, 2 часть
03. Проклятие острова Оук 7.02 Глубинные ценности
04. Проклятие острова Оук 7.03 Взгляд на болота
05. Проклятие острова Оук 7.04 Счастливое число 13
06. Проклятие острова Оук 7.05 Туннельное зрение
07. Проклятие острова Оук 7.06 Все ближе и ближе
08. Проклятие острова Оук 7.07 Всё, что ведёт к цели
09. Проклятие острова Оук 7.08 Триптих
10. Проклятие острова Оук 7.09 Око за око
11. Проклятие острова Оук 7.10 Ответный удар
12. Проклятие острова Оук 7.11 Глаз бури
13. Проклятие острова Оук 7.12 Укрепление
14. Проклятие острова Оук 7.13 Броман с камнем
15. Проклятие острова Оук 7.14 Ритуальная жертва
16. Проклятие острова Оук 7.15 Присутствие тамплиеров
17. Проклятие острова Оук 7.16 Сокрытое в воде
18. Проклятие острова Оук 7.17 Кое-что о камне
19. Проклятие острова Оук 7.18 Переломный момент
20. Проклятие острова Оук 7.19 Властелин кольца
21. Проклятие острова Оук 7.20 Западня
22. Проклятие острова Оук 7.21 Во имя веры
23. Проклятие острова Оук 7.22 Отмечено крестом
24. Проклятие острова Оук 7.23 Линия времени

Скриншоты

RelizMAN

Post 28-Jun-2020 22:05

[Quote]

Название: Древние пришельцы
Оригинальное название: Ancient Aliens
Год выхода: 2020
Жанр: Документальный, научно-популярный, уфология
Режиссер: Кевин Барнс, Дэвид Сильвер
В ролях:
Уильям Джей. Бернс, Линда Молтон Хоу, Роберт Клотуорти, Джордж Нури, Джонатан Янг, Луис Навия, Бэрри Доунинг, Эрих фон Дэникен, Майкл Кремо, Дэвид Чайлдресс др.
Описание сериала:
Возможно ли, что разумные формы жизни посетили Землю тысячи лет назад, принеся с собой технологии кардинально повлиявшие на ход истории и развития человечества? Теория "древних пришельцев", опубликованная в 1968 году в бестселлере Эриха фон Деникена "Колесницы богов", пошатнула представления людей об общеизвестном прогрессе человечества. Древние пещерные рисунки странных существ, остатки взлетно-посадочных полос в Перу, индийские тексты, описывающие "летающие машины богов"... вот лишь некоторые необычные археологические артефакты на которые ссылается Деникен в качестве доказательств того, что "древние астронавты" были хорошо известны нашим предкам.
Страна: США
Производство: Prometheus Entertainment, A&E Television Networks, LLC., History Channel
Продолжительность: ~00:45:00
Перевод: Любительский (одноголосый) NEON Studio
Субтитры: Отсутствуют


Файл
Формат: MKV
Качество: WEB-DL (1080p)
Видео: 1920x1080 (16:9), 23,976 fps, AVC (х264), [email protected], ~5915 kbps avg, 0.119 bit/pixel
Аудио RUS: 48 kHz, AC3 Dolby Digital, 2/0 (L,R) ch, ~192
Релиз группа:

MediaInfo

Общее
Уникальный идентификатор : 110631558704366478887058820726719660079 (0x533ADCF8BA861AD145FA6F6A01CA402F)
Полное имя : Ancient.Aliens.S15E01.1080p.WEB-DL.NEONStudio.mkv
Формат : Matroska
Версия формата : Version 4
Размер файла : 1,80 Гбайт
Продолжительность : 42 м. 13 с.
Общий поток : 6 106 Кбит/сек
Дата кодирования : UTC 2020-06-15 04:35:08
Программа кодирования : mkvmerge v47.0.0 ('Black Flag') 64-bit
Библиотека кодирования : libebml v1.3.10 + libmatroska v1.5.2
Attachments : poster.jpg
Видео
Идентификатор : 1
Формат : AVC
Формат/Информация : Advanced Video Codec
Профиль формата : [email protected]
Настройки формата : CABAC / 4 Ref Frames
Параметр CABAC формата : Да
Параметр RefFrames формата : 4 кадра
Идентификатор кодека : V_MPEG4/ISO/AVC
Продолжительность : 42 м. 12 с.
Битрейт : 5 915 Кбит/сек
Ширина : 1 920 пикселей
Высота : 1 080 пикселей
Соотношение сторон : 16:9
Режим частоты кадров : Постоянный
Частота кадров : 23,976 (24000/1001) кадра/сек
Цветовое пространство : YUV
Субдискретизация насыщенности : 4:2:0
Битовая глубина : 8 бит
Тип развёртки : Прогрессивная
Бит/(Пиксели*Кадры) : 0.119
Размер потока : 1,74 Гбайт (97%)
Язык : English
Default : Да
Forced : Нет
Аудио
Идентификатор : 2
Формат : AC-3
Формат/Информация : Audio Coding 3
Коммерческое название : Dolby Digital
Идентификатор кодека : A_AC3
Продолжительность : 42 м. 13 с.
Вид битрейта : Постоянный
Битрейт : 192 Кбит/сек
Каналы : 2 канала
Channel layout : L R
Частота : 48,0 КГц
Частота кадров : 31,250 кадров/сек (1536 SPF)
Метод сжатия : С потерями
Размер потока : 58,0 Мбайт (3%)
Заголовок : NEON Studio
Язык : Russian
Default : Да
Forced : Нет

Внимание! Раздача ведётся путём добавления новых серий

Внимание! Раздача ведётся путём добавления новых серий; при каждом добавлении создаётся новый торрент. Чтобы начать докачку новой серии, пользователям необходимо сделать следующее:
(1) остановить скачивание,
(2) удалить старый торрент у себя из клиента (старые серии удалять не надо),
(3) скачать новый торрент и запустить его у себя в клиенте вместо старого, при этом указать клиенту путь в старую папку куда и должно происходить скачивание новых серий.
Ваш клиент при этом должен произвести хеширование (проверку) старой папки (если не производит сам - помогите ему сделать это), и будет докачивать только те серии которых у вас ещё нет. Старые серии при этом не удаляются, а продолжают раздаваться!
Eсли вы уже удалили старые серии, то предотвратить повторную закачку старых серий можно, отжав галочку в соответсвующих местах при запуске нового торрента. По возможности, желательно не удалять старые серии как можно дольше чтобы релизёр не столько продолжал раздавать старые серии, а смог сконцентрироваться на новых.

Скриншоты

RelizMAN

Post 28-Jun-2020 01:05

[Quote]

Информация о фильме
Название: Солнечная одиссея
Оригинальное название: Solar Odyssey
Год выхода: 2018
Жанр: Документальный, научно-популярный, космос
Режиссер: Бланден Жосслен
О фильме:
Что мы знаем о Солнце сегодня? Можем ли мы приблизиться к звезде, самая холодная часть которой имеет температуру в 3500 градусов Цельсия, а ядро разогрето до 15-ти миллионов градусов? Чтобы попытаться разгадать самые главные тайны Солнца, мы поднимемся на борт двух космических кораблей - Parker Solar Probe и Solar Orbiter. Эти космические миссии - плод совместной работы Европы и США - помогут узнать много нового о нашей Звезде, от которой мы зависим всё больше и больше.
Страна: Франция
Студия: Label News- Label Image, RMC Découverte
Продолжительность: 00:52:11
Перевод: Профессиональный (двухголосый закадровый) SDI Media
Профессиональный (двухголосый закадровый) Видеофильм ТВ
Файл
Кодек: AVC/H.264
Качество: HDTV 1080i
Видео: 1920x1080 (16:9), AVC (Н.264), [email protected], ~ 7235 kbps, 25fps, 0.140 bit/pixel
Звук:
Аудио#1: Русский 48 kHz, MPEG Layer 2, 2 ch, ~192.00 kbps avg
Аудио#2: Русский 48 kHz, AC3 Dolby Digital, 2/0 (L,R) ch, ~128.00 kbps avg
Семпл

MediaInfo

Complete name : F:НаладкиСолнечная Одиссея.mkv
Format : Matroska
Format version : Version 4
File size : 2.81 GiB
Duration : 52 min 11 s
Overall bit rate : 7 709 kb/s
Encoded date : UTC 2020-06-27 14:44:32
Writing application : mkvmerge v6.6.0 ('The Edge Of The In Between') built on Dec 1 2013 17:55:00
Writing library : libebml v1.3.0 + libmatroska v1.4.1
Video
ID : 1
Format : AVC
Format/Info : Advanced Video Codec
Format profile : [email protected]
Format settings : CABAC / 4 Ref Frames
Format settings, CABAC : Yes
Format settings, Reference : 4 frames
Codec ID : V_MPEG4/ISO/AVC
Duration : 52 min 11 s
Bit rate : 7 235 kb/s
Width : 1 920 pixels
Height : 1 080 pixels
Display aspect ratio : 16:9
Frame rate mode : Constant
Frame rate : 25.000 FPS
Standard : Component
Color space : YUV
Chroma subsampling : 4:2:0
Bit depth : 8 bits
Scan type : Interlaced
Scan type, store method : Separated fields
Scan order : Top Field First
Bits/(Pixel*Frame) : 0.140
Stream size : 2.64 GiB (94%)
Default : Yes
Forced : No
Color range : Limited
Color primaries : BT.709
Transfer characteristics : BT.709
Matrix coefficients : BT.709
Audio #1
ID : 2
Format : MPEG Audio
Format version : Version 1
Format profile : Layer 2
Codec ID : A_MPEG/L2
Codec ID/Hint : MP2
Duration : 52 min 11 s
Bit rate mode : Constant
Bit rate : 192 kb/s
Channel(s) : 2 channels
Sampling rate : 48.0 kHz
Compression mode : Lossy
Stream size : 71.7 MiB (2%)
Title : SDI Media
Language : Russian
Default : No
Forced : Yes
Audio #2
ID : 3
Format : AC-3
Format/Info : Audio Coding 3
Commercial name : Dolby Digital
Codec ID : A_AC3
Duration : 52 min 11 s
Bit rate mode : Constant
Bit rate : 128 kb/s
Channel(s) : 2 channels
Channel layout : L R
Sampling rate : 48.0 kHz
Frame rate : 31.250 FPS (1536 SPF)
Bit depth : 16 bits
Compression mode : Lossy
Stream size : 47.8 MiB (2%)
Title : Видеофильм ТВ
Language : Russian
Service kind : Complete Main
Default : No
Forced : No

Скриншоты

Релиз от: kyba
 

Current time is: 11-Jul 11:15

All times are UTC + 3