Search found 387 matches

Author Message

Vi$itReal

Post Yesterday 13:20

[Quote]

Информация о фильме
Название: Херте: дикая жизнь Вишневой долины
Оригинальное название: Jerte, Wildlife in the Cherry Valley
Год выхода: 2017
Жанр: Документальный, природа, флора, фауна
Режиссер: Хавьер Ортега
О фильме:
Херте - это узкая долина в Эстремадуре на юго-западе Испании. Здесь каждую весну природа готовит настоящее зрелище, уникальное из-за конфигурации местности и ограниченного пространства: цветение почти двух миллионов вишневых деревьев, которые покрывают склоны долины красивым белым плащом. Этот регион является крупнейшим экспортером вишни в ЕС. То, что делает это место волшебным, - это животные, которые здесь живут: иберийский козерог, летучая мышь, крупнейший европейский головастик, западный чеснок, саламандра, которая делит свое место обитания с форелью, пятнистым зеленоглазым и дикими лошадьми. К ним присоединяются стаи пчел, которые неустанно трудятся, чтобы обеспечить выживание в этой долине.
Страна: Испания
Студия: 1080 Wildlfe Production
Продолжительность: ~ 00:48:53
Перевод: Профессиональный (одноголосый закадровый)
Файл
Кодек: AVC/H.264
Качество: DVB-AVC
Видео: 720x400 (16:9), AVC (H.264), [email protected], 1600 kbps, 25fps, 0.222 bit/pixel
Звук: Русский 48 kHz, AC3 Dolby Digital, 2/0 (L,R) ch, ~192.00 kbps avg
Семпл

MediaInfo

Complete name : M:Херте_ дикая жизнь вишневой долины.mkv
Format : Matroska
Format version : Version 2
File size : 627 MiB
Duration : 48 min 53 s
Overall bit rate : 1 793 kb/s
Encoded date : UTC 2020-07-11 17:52:20
Writing application : mkvmerge v6.9.1 ('Blue Panther') 32bit built on Apr 18 2014 18:15:44
Writing library : libebml v1.3.0 + libmatroska v1.4.1
Video
ID : 1
Format : AVC
Format/Info : Advanced Video Codec
Format profile : [email protected]
Format settings : CABAC / 9 Ref Frames
Format settings, CABAC : Yes
Format settings, Reference : 9 frames
Codec ID : V_MPEG4/ISO/AVC
Duration : 48 min 53 s
Bit rate : 1 600 kb/s
Width : 720 pixels
Height : 400 pixels
Display aspect ratio : 16:9
Frame rate mode : Constant
Frame rate : 25.000 FPS
Color space : YUV
Chroma subsampling : 4:2:0
Bit depth : 8 bits
Scan type : Progressive
Bits/(Pixel*Frame) : 0.222
Stream size : 548 MiB (87%)
Writing library : x264 core 148 r2638 7599210
Encoding settings : cabac=1 / ref=9 / deblock=1:-1:-1 / analyse=0x3:0x113 / me=umh / subme=10 / psy=1 / psy_rd=1.00:0.15 / mixed_ref=1 / me_range=32 / chroma_me=1 / trellis=2 / 8x8dct=1 / cqm=0 / deadzone=21,11 / fast_pskip=1 / chroma_qp_offset=-1 / threads=12 / lookahead_threads=2 / sliced_threads=0 / nr=0 / decimate=1 / interlaced=0 / bluray_compat=0 / constrained_intra=0 / bframes=9 / b_pyramid=2 / b_adapt=2 / b_bias=0 / direct=3 / weightb=1 / open_gop=1 / weightp=2 / keyint=250 / keyint_min=25 / scenecut=40 / intra_refresh=0 / rc_lookahead=60 / rc=2pass / mbtree=1 / bitrate=1600 / ratetol=1.0 / qcomp=0.60 / qpmin=0 / qpmax=69 / qpstep=4 / cplxblur=20.0 / qblur=0.5 / vbv_maxrate=14000 / vbv_bufsize=14000 / nal_hrd=none / filler=0 / ip_ratio=1.40 / aq=1:1.00
Default : Yes
Forced : No
Audio
ID : 2
Format : AC-3
Format/Info : Audio Coding 3
Commercial name : Dolby Digital
Codec ID : A_AC3
Duration : 48 min 53 s
Bit rate mode : Constant
Bit rate : 192 kb/s
Channel(s) : 2 channels
Channel layout : L R
Sampling rate : 48.0 kHz
Frame rate : 31.250 FPS (1536 SPF)
Bit depth : 16 bits
Compression mode : Lossy
Stream size : 67.1 MiB (11%)
Service kind : Complete Main
Default : Yes
Forced : No

Скриншоты

Релиз от: kyba

RelizMAN

Post 11-Jul-2020 19:35

[Quote]

Информация о фильме
Название: Ростов - город на Донской земле
Оригинальное название: Rostov - a city on the Don land
Год выхода: 2020
Жанр: видовой, короткометражный
Режиссер: Денис Варламов
В ролях: -
О фильме:
Воспетая Михаилом Шолоховым донская земля славится прежде всего своим гостеприимством, распахнутой душой и необычайной красотой степей, озёр и рек.
Пятая по протяжённости река Европы «Дон» охватывает множество городов, среди которых Ростов - город на Донской земле.
Приготовьтесь к виртуальному путешествию в южный город России, Ростов-на-Дону, за которым ещё с XIX века закрепилось звание «Ворота Северного Кавказа».
Первая часть видового фильма «Ростов - город на Донской земле», который представлен во всей своей красе не только в весеннее и летнее время года, но также осенью и зимой, позволит Вам прикоснуться к истории города, посетить излюбленные места ростовчан, а также увидеть главные достопримечательности, среди которых Тачанка-ростовчанка, центральная улица «Большая Садовая», Пушкинская улица, Театральная площадь с творениями великого скульптора Евгения Вучетича – театром имени Максима Горького в виде советского трактора «Коммунар» и фонтаном «Атланты», Стела «Освободителям Ростова», Кафедральный собор Рождества Пресвятой Богородицы, Храм «Сурб-Хач» и пестрящая своими композициями Набережная Ростова-на-Дону.
Пусть фильм подарит Вам незабываемые эмоции. Приятного просмотра!
БЕЗ РАЗРЕШЕНИЯ АВТОРА ВНОСИТЬ ЛЮБЫЕ ИЗМЕНЕНИЯ В ВИДЕОМАТЕРИАЛ И ВЫКЛАДЫВАТЬ НА СТОРОННИЕ РЕСУРСЫ ЗАПРЕЩЕНО!
Официальный сайт
Страна: Россия
Продолжительность: 00:21:39
Перевод: Субтитры
Файл
Кодек: h.264
Качество: WEBRip
Видео: 1920x930, 25 fps, 4 852 kbps, 16:9
Звук:
AAC
48 000 kHz
stereo
384 kbps
Субтитры: Русский, Английский

Скриншоты

RelizMAN

Post 05-Jul-2020 17:50

[Quote]

Название: Возрождение прииска
Оригинальное название: Lost Mines: Restored
Год выпуска: 2020
Жанр: Документальный, строительство
Выпущено: США, Discovery
О фильме: Два опытных строителя объединяют силы с владельцами заброшенных старательских участков, чтобы превратить их в прибыльные прииски. Верные друзья Алекс и Кевин покупают старые участки земли, на которых могут быть золотые залежи. На многих из них строительство ограничено законом, поэтому наши герои должны проявить чудеса смекалки и изобретательности, чтобы извлечь максимальную пользу из уже имеющихся конструкций и помочь заработать их владельцам — старателям.
Качество: HDTVRip
Видео: XviD, ~ 1600 Кбит/с, 720x400
Аудио: AC3, 2 ch, 192 Кбит/c
Продолжительность: 1 x ~ 00:44:00
Перевод: Профессиональный (одноголосый, закадровый)

[color=blue]Скриншоты[/color]



[color=blue]Название серий[/color]

01. В поисках золотой жилы.
02.
03.
04.
05.
06.
08.

[color=blue]Внимание! Раздача ведётся путём добавления новых серий![/color]

Внимание! Раздача ведётся путём добавления новых серий; при каждом добавлении создаётся новый торрент. Чтобы начать докачку новой серии, пользователям необходимо сделать следующее: (1) остановить скачивание, (2) удалить старый торрент у себя из клиента (старые серии удалять не надо), (3) скачать новый торрент и запустить его у себя в клиенте вместо старого, при этом указать клиенту путь в старую папку куда и должно происходить скачивание новых серий.
Ваш клиент при этом должен произвести хеширование (проверку) старой папки (если не производит сам - помогите ему сделать это), и будет докачивать только те серии которых у вас ещё нет. Старые серии при этом не удаляются, а продолжают раздаваться!
Eсли вы уже удалили старые серии, то предотвратить повторную закачку старых серий можно, отжав галочку в соответсвующих местах при запуске нового торрента.
Благодарю за постер ValkiriaGF
Релиз от:

RelizMAN

Post 04-Jul-2020 20:05

[Quote]

Название: Ржавая империя
Оригинальное название: Junkyard Empire
Год выпуска: 2019
Жанр: Документальный, автомобилестроение
Выпущено: США, Discovery Channel
Режиссер: Камфвон Янг, Джейсон Ничхоллс, Кейр джонсон
В ролях: Дэнни Боуи, Энди Коэн, Бобби Коэн, Томми Бостик, Тим Джамбелик
О фильме: Отец и сын Коэны – мастера на все руки и владельцы нескольких перспективных автосервисов. Им удалось найти необычный способ заработать: предприимчивые американцы дают вторую жизнь технике, списанной в утиль. Энди Коэн, автолюбитель, амбициозный лидер и фанат экстрима – владелец известного в США автосервиса, который решил дать новую жизнь старым автомобилям, списанным на свалку. Коэн готов превратить любую проржавевшую развалюху в амбициозный проект и произведение искусства, которое всегда будет привлекать внимание на дорогах. В дело идёт всё: старые мотоциклы, моторные лодки, тяжёлое оборудование – своё богатство Энди ищет и находит в самых неожиданных местах. Запчасти и каркасы автомобилей он выкупает из полицейского конфиската, на частных аукционах и даже у случайных посетителей автосервиса.

Официальный сайт
Качество: HDTVRip
Видео: XviD, ~ 1600 Кбит/с, 720x400
Аудио: AC3, 2 ch, 192 Кбит/c
Продолжительность: 1 x ~ 00:44:00
Перевод: Профессиональный (одноголосый, закадровый)

[color=blue]Название серий[/color]

01. Наша цель - Юкон.
02.
03.
04.
05.
06.
08.

[color=blue]Скриншоты[/color]



[color=blue]Внимание! Раздача ведётся путём добавления новых серий![/color]

Внимание! Раздача ведётся путём добавления новых серий; при каждом добавлении создfётся новый торрент. Чтобы начать докачку новой серии, пользователям необходимо сделать следующее: (1) остановить скачивание, (2) удалить старый торрент у себя из клиента (старые серии удалять не надо), (3) скачать новый торрент и запустить его у себя в клиенте вместо старого, при этом указать клиенту путь в старую папку куда и должно происходить скачивание новых серий.
Ваш клиент при этом должен произвести хеширование (проверку) старой папки (если не производит сам - помогите ему сделать это), и будет докачивать только те серии которых у вас ещё нет. Старые серии при этом не удаляются, а продолжают раздаваться!
Eсли вы уже удалили старые серии, то предотвратить повторную закачку старых серий можно, отжав галочку в соответсвующих местах при запуске нового торрента.
Релиз от:

RelizMAN

Post 02-Jul-2020 05:05

[Quote]

Название: Голые, напуганные и одинокие
Оригинальное название: Naked And Afraid: Alone
Год выпуска: 2019
Жанр: Документальный, реалити-шоу, экстрим
Выпущено: США, Discovery, Renegade 83
О фильме: Выживание в экстремальных условиях без еды, воды и одежды — испытание, справиться с которым дано лишь самым выносливым. А сделать это в одиночку способны только лучшие из лучших. В этой захватывающей программе восемь искателей приключений из предыдущих сезонов должны продержаться три недели без помощи напарников. Им придется рассчитывать лишь на себя. Абсолютное одиночество не только осложняет поиск еды, воды и укрытия, но и оказывает колоссальное давление на психику. Отважные герои уверены, что смогут выдержать что угодно, но выживут ли они, оставшись совсем одни?
Качество: HDTVRip
Видео: XviD, ~ 1600 Кбит/с, 720x400
Аудио: AC3, 2 ch, 192 Кбит/c
Продолжительность: 1 x ~ 00:44:00
Перевод: Профессиональный (одноголосый, закадровый)

[color=blue]Скриншоты[/color]



[color=blue]Название серий[/color]

01. Пан или пропал.
02.
03.
04.
05.
06.
08.

[color=blue]Внимание! Раздача ведётся путём добавления новых серий![/color]

Внимание! Раздача ведётся путём добавления новых серий; при каждом добавлении создаётся новый торрент. Чтобы начать докачку новой серии, пользователям необходимо сделать следующее: (1) остановить скачивание, (2) удалить старый торрент у себя из клиента (старые серии удалять не надо), (3) скачать новый торрент и запустить его у себя в клиенте вместо старого, при этом указать клиенту путь в старую папку куда и должно происходить скачивание новых серий.
Ваш клиент при этом должен произвести хеширование (проверку) старой папки (если не производит сам - помогите ему сделать это), и будет докачивать только те серии которых у вас ещё нет. Старые серии при этом не удаляются, а продолжают раздаваться!
Eсли вы уже удалили старые серии, то предотвратить повторную закачку старых серий можно, отжав галочку в соответсвующих местах при запуске нового торрента.
Благодарю за постер ValkiriaGF
Релиз от:

RelizMAN

Post 28-Jun-2020 01:50

[Quote]

Информация о фильме
Название: Карпатские хищники
Оригинальное название: Carpathian Predators
Год выхода: 2019
Жанр: Документальный, природа, флора, фауна
Режиссер: Триа Талман
О фильме:
Путешествие в карпатские горы Европы, где обширные первобытные леса, крутые ущелья и изолированные вершины предлагают жизненно важное убежище для некоторых из самых харизматических существ континента, в том числе массивных бурых медведей, неуловимой рыси и евразийского волка.
Страна: США
Студия: Blink Films, Blue Ant International
Продолжительность: 2 х ~00:46:00
Перевод: Профессиональный (одноголосый закадровый)
Файл
Кодек: AVC/H.264
Качество: DVB-AVC
Видео: 720x400 (16:9), AVC (H.264), [email protected], 1800 kbps, 25fps, 0.260 bit/pixel
Звук: Русский 48 kHz, AC3 Dolby Digital, 2/0 (L,R) ch, ~192.00 kbps avg
Семпл

MediaInfo

Complete name : F:НаладкиSD-фильмыКарпатские хищники�1. Царство медведя.mkv
Format : Matroska
Format version : Version 4
File size : 656 MiB
Duration : 46 min 0 s
Overall bit rate : 1 993 kb/s
Encoded date : UTC 2020-05-07 17:33:34
Writing application : mkvmerge v6.6.0 ('The Edge Of The In Between') built on Dec 1 2013 17:55:00
Writing library : libebml v1.3.0 + libmatroska v1.4.1
Video
ID : 1
Format : AVC
Format/Info : Advanced Video Codec
Format profile : [email protected]
Format settings : CABAC / 8 Ref Frames
Format settings, CABAC : Yes
Format settings, Reference : 8 frames
Codec ID : V_MPEG4/ISO/AVC
Duration : 46 min 0 s
Bit rate : 1 800 kb/s
Width : 720 pixels
Height : 400 pixels
Display aspect ratio : 16:9
Frame rate mode : Constant
Frame rate : 25.000 FPS
Color space : YUV
Chroma subsampling : 4:2:0
Bit depth : 8 bits
Scan type : Progressive
Bits/(Pixel*Frame) : 0.250
Stream size : 580 MiB (88%)
Writing library : x264 core 159 r2991 1771b55
Encoding settings : cabac=1 / ref=8 / deblock=1:-3:-3 / analyse=0x3:0x133 / me=umh / subme=10 / psy=1 / psy_rd=1.00:0.00 / mixed_ref=1 / me_range=32 / chroma_me=1 / trellis=2 / 8x8dct=1 / cqm=0 / deadzone=21,11 / fast_pskip=1 / chroma_qp_offset=-2 / threads=12 / lookahead_threads=1 / sliced_threads=0 / nr=0 / decimate=0 / interlaced=0 / bluray_compat=0 / constrained_intra=0 / bframes=9 / b_pyramid=2 / b_adapt=1 / b_bias=0 / direct=3 / weightb=1 / open_gop=0 / weightp=2 / keyint=250 / keyint_min=25 / scenecut=40 / intra_refresh=0 / rc_lookahead=0 / rc=2pass / mbtree=0 / bitrate=1800 / ratetol=1.0 / qcomp=0.60 / qpmin=0 / qpmax=69 / qpstep=4 / cplxblur=20.0 / qblur=0.5 / vbv_maxrate=14000 / vbv_bufsize=14000 / nal_hrd=none / filler=0 / ip_ratio=1.40 / pb_ratio=1.30 / aq=1:1.00
Language : English
Default : Yes
Forced : No
Audio
ID : 2
Format : AC-3
Format/Info : Audio Coding 3
Commercial name : Dolby Digital
Codec ID : A_AC3
Duration : 46 min 0 s
Bit rate mode : Constant
Bit rate : 192 kb/s
Channel(s) : 2 channels
Channel layout : L R
Sampling rate : 48.0 kHz
Frame rate : 31.250 FPS (1536 SPF)
Bit depth : 16 bits
Compression mode : Lossy
Stream size : 63.2 MiB (10%)
Language : Russian
Service kind : Complete Main
Default : Yes
Forced : No

Содержание

01. Царство медведя / Realm of the Bear
В течении лета мама-медведица изо всех сил пытается найти достаточно пищи для себя и своих двух молодых детенышей. Долгие летние дни тратятся на откормку, готовясь к предстоящей суровой зиме.
02. Царство волка / Realm of the Wolf
В глухой пустыне Карпатских гор живет неуловимый хищник, внушавший страх и страх на протяжении всей истории: евразийский волк. Откройте для себя жизненно важную роль, которую эти некогда неправильно понятые охотники играют в защите своей экосистемы.
Релиз от: kyba

Vi$itReal

Post 27-Jun-2020 21:05

[Quote]

Информация о фильме
Название: Бабочки: лгуньи и хвастуньи
Оригинальное название: Sex, Lies and Butterflies
Год выхода: 2017
Жанр: Документальный, природа, флора, фауна
Режиссер: Энн Джонсон Прам
О фильме:
Бабочки, удивительные творения природы. Настоящая красота в мире насекомых. Уникальная возможность вплотную приблизиться к одним из самых чудесных творений, понаблюдаем за живыми драгоценностями природы - бабочками. Бабочка относится к классу насекомых, типу членистоногие, отряду чешуекрылые.

Страна: Австрия
Студия: Terra Mater Factual Studios, (PBS)
Продолжительность: 00:50:02
Перевод: Профессиональный (одноголосый закадровый)
Файл
Кодек: AVC/H.264
Качество: DVB-AVC
Видео: 720x400 (16:9), AVC (x264), [email protected], 1600 kbps, 25fps, 0.222 bit/pixel
Звук: Русский 48 kHz, AC3 Dolby Digital, 2/0 (L,R) ch, ~192.00 kbps avg
Семпл

MediaInfo

Complete name : M:ТоррентыБабочки_ лгуньи и хвастуньи.mkv
Format : Matroska
Format version : Version 4
File size : 642 MiB
Duration : 50 min 2 s
Overall bit rate : 1 794 kb/s
Encoded date : UTC 2020-06-27 09:17:52
Writing application : mkvmerge v6.6.0 ('The Edge Of The In Between') built on Dec 1 2013 17:55:00
Writing library : libebml v1.3.0 + libmatroska v1.4.1
Video
ID : 1
Format : AVC
Format/Info : Advanced Video Codec
Format profile : [email protected]
Format settings : CABAC / 8 Ref Frames
Format settings, CABAC : Yes
Format settings, Reference : 8 frames
Codec ID : V_MPEG4/ISO/AVC
Duration : 50 min 2 s
Bit rate : 1 600 kb/s
Width : 720 pixels
Height : 400 pixels
Display aspect ratio : 16:9
Frame rate mode : Constant
Frame rate : 25.000 FPS
Color space : YUV
Chroma subsampling : 4:2:0
Bit depth : 8 bits
Scan type : Progressive
Bits/(Pixel*Frame) : 0.222
Stream size : 561 MiB (87%)
Writing library : x264 core 148 r2638 7599210
Encoding settings : cabac=1 / ref=8 / deblock=1:-3:-3 / analyse=0x3:0x113 / me=umh / subme=10 / psy=1 / psy_rd=1.00:0.15 / mixed_ref=1 / me_range=32 / chroma_me=1 / trellis=2 / 8x8dct=1 / cqm=0 / deadzone=21,11 / fast_pskip=1 / chroma_qp_offset=-1 / threads=12 / lookahead_threads=2 / sliced_threads=0 / nr=0 / decimate=1 / interlaced=0 / bluray_compat=0 / constrained_intra=0 / bframes=9 / b_pyramid=2 / b_adapt=2 / b_bias=0 / direct=3 / weightb=1 / open_gop=1 / weightp=2 / keyint=250 / keyint_min=25 / scenecut=40 / intra_refresh=0 / rc_lookahead=60 / rc=2pass / mbtree=1 / bitrate=1600 / ratetol=1.0 / qcomp=0.60 / qpmin=0 / qpmax=69 / qpstep=4 / cplxblur=20.0 / qblur=0.5 / vbv_maxrate=14000 / vbv_bufsize=14000 / nal_hrd=none / filler=0 / ip_ratio=1.40 / aq=1:1.00
Default : Yes
Forced : No
Audio
ID : 2
Format : AC-3
Format/Info : Audio Coding 3
Commercial name : Dolby Digital
Codec ID : A_AC3
Duration : 50 min 2 s
Bit rate mode : Constant
Bit rate : 192 kb/s
Channel(s) : 2 channels
Channel layout : L R
Sampling rate : 48.0 kHz
Frame rate : 31.250 FPS (1536 SPF)
Bit depth : 16 bits
Compression mode : Lossy
Stream size : 68.7 MiB (11%)
Language : Russian
Service kind : Complete Main
Default : Yes
Forced : No

Скриншоты

Релиз от: kyba

RelizMAN

Post 24-Jun-2020 15:20

[Quote]

Информация о фильме
Название: Москва COVID-19
Оригинальное: Moscow COVID-19
Год выхода: 2020
Жанр: Видовой
Режиссер: Anton Elchaninov
Описание:
Москва COVID-19.
Страна: Россия
Продолжительность: 00:03:07
Перевод: Не требуется.
Файл
Кодек: MPEG-4 AVC
Качество: WEBRip 2160p
Видео: 3838×2160, 20,6 Мбит/с, 25 кадр/с
Звук: AAC, 2 канала, 253 Кбит/с

Скриншоты

RelizMAN

Post 22-Jun-2020 13:35

[Quote]

Информация о фильме
Название: Проклятие острова Оук
Оригинальное название: The Curse of Oak Island
Год выхода: 2017 - 2018
Жанр: Документальный, научно-популярный, исследования, реалити-шоу
Режиссер: Кевин Барнс
В ролях: Рик Лагина, Марти Лагина, Дэвид Бланкеншип, Дэн Хенски, Том Нолан, Крэйг Тестер, Джек Бегли, Алекс Лагина, Питэр Форнетти, Чарльз Баркхаус
О фильме:
У побережья Новой Шотландии есть маленький остров, хранящий великую тайну. В XVIII веке люди заметили, что по ночам остров светится странным светом, однако те, кто отправился выяснять, что это за свет, не вернулись. Чуть позже двое мальчишек обнаружили на острове странную яму — вход в засыпанную землей шахту. Эта находка положила начало лихорадке кладоискательства, в которой принимали участие такие известные люди, как Франклин Рузвельт и Джон Уэйн. Что скрывает остров Оук? Пиратский клад или сокровища викингов? Древнюю крепость или потерянную библейскую реликвию? Никто не знает, а те, кто пытались узнать, потерпели фиаско. Тот, кто спрятал клад на острове, постарался на славу: добраться до низа шахты невозможно, потому что любая яма тут же наполняется морской водой из скрытых каналов, явно прорытых специально.

Страна: США
Студия: Prometheus Entertainment, Tell Tale Productions, History Channel
Продолжительность: 17 x ~ 00:42:00, 01:19:37
Перевод: Профессиональный двухголосый
Файл
Качество: SATRip
Видео: XviD, ~ 2000 Кбит/с, 720х392
Аудио: Русский (AAC, 2 ch, 448 Кбит/с)

Содержание

00. Спецвыпуск. На данный момент
Мэтти Блейк едет на остров Оук, чтобы рассказать телезрителям о проекте Рика и Марти Лагина, о первых четырех годах поисков спрятанных сокровищ. Мы также узнаем, что нас ждет в новом сезоне
00. Спецвыпуск 2. Бурим глубже - поиски продолжаются
Мэтти Блейк рассказывает о находках и планах искателей сокровищ на острове Оук, включая самые свежие открытия
01-02. Семья навсегда
Рик и Марти Лагина продолжают поиски изначальной Денежной шахты, однако во время одного из погружений едва не происходит трагедия.
03. Сундук мертвеца
Находка сундука с сокровищами, датируемого 18-м веком, подтверждает теорию о том, что на острове Оук высаживались пираты. Также приходит известие об удивительной находке в скважине ГЭЛ-1 в Денежной шахте
04. Препятствие
Искателей вдохновляют новые неопровержимые доказательства присутствия европейцев на острове Оук за сто лет до открытия Денежной шахты, однако тревожные новости ставят под угрозу весь проект
05. На волоске
06. Засуха
07. На исходе дня
Тед и Леки раскрывают старинную тайну, которая может привести к тайной сокровищнице. Тем временем у Генри и Келли кончаются припасы
08. Дело усложняется
Глубоко в Денежной шахте нашли еще два древних предмета, подтверждающих теорию о сокровищах. Они могут пролить новый свет на историю таинственного острова Оук
09. Прорыв Дэна
Новые находки подтверждают теорию, что европейцы побывали на острове Оук за 100 лет до обнаружения Денежной шахты, а также наводят на мысли о связи острова с рыцарским орденом тамплиеров
10. Французские связи
В ходе экспедиции в старинный французский замок и тюрьму найдены новые доказательства связи ордена тамплиеров с таинственным островом Оук
11. Крестные знамения
Находки братьев Лагина в Денежной шахте на острове Оук могут изменить наше представление об истории
12. Движущиеся цели
13. Ключ к тайне
Искатели продолжают исследовать водоотводный тоннель в Денежной шахте в надежде разгадать 223-летнюю тайну острова Оук
14. Переполох
На острове найден свинцовый крест предположительно древнего происхождения, что приводит к новым теориями и догадкам. Находка Рика в болоте подтверждает одну из идей Фреда Нолана
15. Стальная ловушка
16. Ярость
Времени остается все меньше: скоро зима, и все поисковые работы придется отложить до весны. Искатели сокровищ борются с непредсказуемыми приливами в бухте Смита, и одна их находка может служить подтверждением теории Дэна Блакеншипа
17. Поразительные открытия
Сезон подходит к концу. Настает момент истины. Команде искателей предстоит принять важное решение: свернуть операцию или продолжить поиски?

Скриншоты

RelizMAN

Post 21-Jun-2020 22:05

[Quote]

Информация о фильме
Название: Галапагосы: На краю Земли
Оригинальное название: Galapagos: The Edge of the World
Год выхода: 2018
Жанр: Документальный, природа, флора, фауна
Режиссер: Чон Вонджун
О фильме:
Увлекательный документальный сериал об обитателях Галапагосских островов. На первозданном вулканическом архипелаге в Тихом океане раскинулись изумрудные влажные джунгли. Эти леса стали домом для множества удивительных живых существ, среди которых уникальные игуаны, гигантские черепахи, розовые фламинго.
Страна: Южная Корея
Студия: EBS
Продолжительность: 3 х ~00:46:17
Перевод: Профессиональный (одноголосый закадровый) Си Эл Эс Медиа
Файл
Кодек: HEVC / Н.265
Качество: UHDTV 2160p
Видео: 3840x2160 (16:9), HEVC (Н.265), Main [email protected], ~ 15,6 Mbps, 50fps, 10 bits
Звук: Русский 48 kHz, A AC- LC Dolby Digital, 2/0 (L,R) ch, ~192.00 kbps avg
Семпл

MediaInfo

Complete name : M:ТоррентыГалапагосы_На краю земли1. Выживание.ts
Format : MPEG-TS
File size : 5.56 GiB
Duration : 46 min 17 s
Overall bit rate mode : Variable
Overall bit rate : 17.2 Mb/s
Video
ID : 6161 (0x1811)
Menu ID : 18002 (0x4652)
Format : HEVC
Format/Info : High Efficiency Video Coding
Format profile : Main [email protected]@Main
Codec ID : 36
Duration : 46 min 17 s
Width : 3 840 pixels
Height : 2 160 pixels
Display aspect ratio : 16:9
Frame rate : 50.000 FPS
Standard : Component
Color space : YUV
Chroma subsampling : 4:2:0 (Type 0)
Bit depth : 10 bits
Color range : Limited
Color primaries : BT.709
Transfer characteristics : BT.709
Matrix coefficients : BT.709
Audio
ID : 6162 (0x1812)
Menu ID : 18002 (0x4652)
Format : AAC LC
Format/Info : Advanced Audio Codec Low Complexity
Format version : Version 4
Muxing mode : ADTS
Codec ID : 15-2
Duration : 46 min 17 s
Bit rate mode : Variable
Channel(s) : 2 channels
Channel layout : L R
Sampling rate : 48.0 kHz
Frame rate : 46.875 FPS (1024 SPF)
Compression mode : Lossy
Delay relative to video : 52 ms
Language : Russian

Содержание

01. Survival / Выживание
02. Ocean of Confusion / Двуликий океан
03. Coexistence, Is It Possible? / Иллюзия сосуществования
Релиз от: kyba

RelizMAN

Post 17-Jun-2020 10:50

[Quote]

Название: Джереми Уэйд: Тайны океана
Оригинальное название: Mysteries of the Deep
Год выпуска: 2020
Жанр: Документальный, обзор, расследование
Выпущено: США, Discovery Channel
Ведущий: Джереми Уэйд
О фильме: Джереми Уэйд возвращается в новом захватывающем шоу! Темные глубины океана полны тайн. Каждую неделю Джереми будет погружаться в одну из увлекательных загадок: потерянные сокровища, пропавшие корабли и самолеты на дне океанов. Уэйд изучит невероятные кадры из архивов, повстречается с очевидцами необъяснимых событий и изучит заключения экспертов. Сможет ли он разгадать секреты этих ошеломляющих историй?

Качество: HDTVRip
Видео: XviD, ~ 1600 Кбит/с, 720x400
Аудио: AC3, 2 ch, 192 Кбит/c
Продолжительность: 1 x ~ 00:44:00
Перевод: Профессиональный (одноголосый, закадровый)

[color=blue]Скриншоты[/color]



[color=blue]Внимание! Раздача ведётся путём добавления новых серий![/color]

Внимание! Раздача ведётся путём добавления новых серий; при каждом добавлении создаётся новый торрент. Чтобы начать докачку новой серии, пользователям необходимо сделать следующее: (1) остановить скачивание, (2) удалить старый торрент у себя из клиента (старые серии удалять не надо), (3) скачать новый торрент и запустить его у себя в клиенте вместо старого, при этом указать клиенту путь в старую папку куда и должно происходить скачивание новых серий.
Ваш клиент при этом должен произвести хеширование (проверку) старой папки (если не производит сам - помогите ему сделать это), и будет докачивать только те серии которых у вас ещё нет. Старые серии при этом не удаляются, а продолжают раздаваться!
Eсли вы уже удалили старые серии, то предотвратить повторную закачку старых серий можно, отжав галочку в соответсвующих местах при запуске нового торрента.
Благодарю за постер ValkiriaGF
Релиз от:

RelizMAN

Post 16-Jun-2020 23:50

[Quote]

Информация о фильме
Название: Чёрный лёд
Оригинальное: Black Ice
Год выхода: 2020
Режиссер: Christopher Dormoy
О фильме:
Я хотел поиграть со льдом, цветами и чернилами и посмотреть, какую вселенную я могу создать с помощью техники макросъёмки и замедленной съёмки. Я потратил много часов, чтобы наблюдать и экспериментировать с льдом и его реакцией с жидкостями, такими как чернила, а также масло, краска и мыло. Некоторые эффекты гипнотические и удивительные.
Страна: Канада
Продолжительность: 00:03:48
Перевод: Не требуется
Файл
Кодек: MPEG-4 AVC
Качество: WEBRip 2160p
Видео: 3840×2160, 22,4 Мбит/с, 30 кадр/с
Звук: AAC, 2 канала, 253 Кбит/с

Скриншоты

RelizMAN

Post 14-Jun-2020 18:10

[Quote]

Информация о фильме
Название: Цивилизация
Оригинальное: Civilization
Год выхода: 2019
Жанр: Видовой
Режиссер: Michael Shainblum
О фильме:
Городские таймлапсы и гиперлапсы со всего мира. Это коллекция моих любимых городских пейзажей за последние годы.
Страна: США
Продолжительность: 00:04:58
Перевод: Не требуется
Файл
Кодек: MPEG-4 AVC
Качество: WEBRip 2160p
Видео: 3840x1600, 20,7 Мбит/с, 30 кадр/с
Звук: AAC, 2 канала, 253 Кбит/с

Скриншоты

RelizMAN

Post 13-Jun-2020 16:05

[Quote]

Информация о фильме
Название: Любители орехов. Беличьи истории
Оригинальное название: Going Nuts - Tales from the Squirrel World
Год выхода: 2019
Жанр: Документальный, природа, флора, фауна
Режиссер: Ян Сохачевский
О фильме:
Представители беличьих в мире удивительно разные. Они населяют самые разнообразные ландшафты. Распространены на всех материках, кроме Австралии и Антарктиды. Ведут наземный и древесный образ жизни. Но все они проворные, сообразительные и очень милые. О скрытой от глаз жизни беличьих и их удивительных характерах.

Страна: Германия
Студия: Altayfilm
Продолжительность: 00:50:00
Перевод: Профессиональный (одноголосый закадровый) СВ-Дубль
Файл
Кодек: AVC/H.264
Качество: DVB
Видео: 720x576 (16:9) AVC (H.264) [email protected], ~ 3279 kbps, 25 fps
Звук: Русский 48 kHz, MPEG Layer 2, 2 ch, ~192.00 kbps avg
Субтитры: Русские, отключаемые
Семпл

MediaInfo

Complete name : F:НаладкиSD-фильмыЛюбители орехов_ Беличьи истории.mkv
Format : Matroska
Format version : Version 4
File size : 1.24 GiB
Duration : 50 min 0 s
Overall bit rate : 3 541 kb/s
Encoded date : UTC 2020-06-13 07:41:23
Writing application : mkvmerge v6.6.0 ('The Edge Of The In Between') built on Dec 1 2013 17:55:00
Writing library : libebml v1.3.0 + libmatroska v1.4.1
Video
ID : 1
Format : AVC
Format/Info : Advanced Video Codec
Format profile : [email protected]
Format settings : CABAC / 4 Ref Frames
Format settings, CABAC : Yes
Format settings, Reference : 4 frames
Codec ID : V_MPEG4/ISO/AVC
Bit rate : 3 279 kb/s
Width : 720 pixels
Height : 576 pixels
Display aspect ratio : 16:9
Frame rate mode : Variable
Original frame rate : 25.000 FPS
Standard : Component
Color space : YUV
Chroma subsampling : 4:2:0
Bit depth : 8 bits
Scan type : Interlaced
Scan type, store method : Separated fields
Scan order : Top Field First
Default : Yes
Forced : No
Color range : Limited
Color primaries : BT.601 PAL
Transfer characteristics : BT.470 System B/G
Matrix coefficients : BT.470 System B/G
Audio
ID : 2
Format : MPEG Audio
Format version : Version 1
Format profile : Layer 2
Codec ID : A_MPEG/L2
Codec ID/Hint : MP2
Duration : 50 min 0 s
Bit rate mode : Constant
Bit rate : 192 kb/s
Channel(s) : 2 channels
Sampling rate : 48.0 kHz
Compression mode : Lossy
Stream size : 68.7 MiB (5%)
Language : Russian
Default : Yes
Forced : No
Text
ID : 3
Format : UTF-8
Codec ID : S_TEXT/UTF8
Codec ID/Info : UTF-8 Plain Text
Title : СВ-Дубль
Language : Russian
Default : No
Forced : No

Скриншоты

Релиз от: kyba

RelizMAN

Post 12-Jun-2020 13:05

[Quote]

Информация о фильме
Название: Роковой конфликт Иудеи и Рима
Оригинальное название: The Fatal conflict: Judea and Rome
Год выхода: 2018
Жанр: Документальный, история
Режиссер: Ник Вансбро
О фильме:
Ирод Великий – имя, покрытое позором. Он был жестоким и порочным параноиком. Узурпатор вековой династии, которого его подданные, иудеи считали марионеткой, посаженной на трон Римом. Он принял Римское правление, поступившись иудейской национальной гордостью. Обвинённый в массовом убийстве Ирод тронулся рассудком, и его приближённые страдали от яростных приступов его паранойи. Он постоянно был начеку, пытаясь угадать, где вспыхнет очередной мятеж. Кровавый след, тянущийся за Иродом, зачастую затмевает все те достижения, что выпали на его жизнь. Ни один человек не построил больше и не оставил после себя столь долговечное наследие, как Ирод. История Ирода Великого – это история древней Иудеи под Римским управлением.

Страна: Австралия
Студия: WildBear Entertainment and Anthos Produzioni, ZDF, Arte
Продолжительность: 2 х ~ 00:51:59
Перевод: Профессиональный (двухголосый закадровый) СВ-Дубль
Файл
Кодек: AVC/H.264
Качество: DVB
Видео: 720x576 (16:9) AVC (H.264) [email protected], ~ 1728 kbps, 25 fps
Звук: Русский 48 kHz, MPEG Layer 2, 2 ch, ~192.00 kbps avg
Субтитры: Русские, отключаемые
Семпл

MediaInfo

Complete name : F:НаладкиРоковой конфликт Иудеи и Рима1. Восход Иудеи.mkv
Format : Matroska
Format version : Version 4
File size : 729 MiB
Duration : 51 min 59 s
Overall bit rate : 1 959 kb/s
Encoded date : UTC 2020-06-04 19:36:40
Writing application : mkvmerge v6.6.0 ('The Edge Of The In Between') built on Dec 1 2013 17:55:00
Writing library : libebml v1.3.0 + libmatroska v1.4.1
Video
ID : 1
Format : AVC
Format/Info : Advanced Video Codec
Format profile : [email protected]
Format settings : CABAC / 4 Ref Frames
Format settings, CABAC : Yes
Format settings, Reference : 4 frames
Codec ID : V_MPEG4/ISO/AVC
Duration : 51 min 59 s
Bit rate : 1 728 kb/s
Width : 720 pixels
Height : 576 pixels
Display aspect ratio : 16:9
Frame rate mode : Constant
Frame rate : 25.000 FPS
Standard : Component
Color space : YUV
Chroma subsampling : 4:2:0
Bit depth : 8 bits
Scan type : Interlaced
Scan type, store method : Separated fields
Scan order : Top Field First
Bits/(Pixel*Frame) : 0.167
Stream size : 643 MiB (88%)
Default : Yes
Forced : No
Color range : Limited
Color primaries : BT.601 PAL
Transfer characteristics : BT.470 System B/G
Matrix coefficients : BT.470 System B/G
Audio
ID : 2
Format : MPEG Audio
Format version : Version 1
Format profile : Layer 2
Codec ID : A_MPEG/L2
Codec ID/Hint : MP2
Duration : 51 min 59 s
Bit rate mode : Constant
Bit rate : 192 kb/s
Channel(s) : 2 channels
Sampling rate : 48.0 kHz
Compression mode : Lossy
Stream size : 71.4 MiB (10%)
Language : Russian
Default : Yes
Forced : No
Text
ID : 3
Format : UTF-8
Codec ID : S_TEXT/UTF8
Codec ID/Info : UTF-8 Plain Text
Title : СВ-Дубль
Language : Russian
Default : No
Forced : No

Содержание

01. Восход Иудеи / The Rise of Judea
Царь Ирод правил Иудеей с тридцать седьмого года до нашей эры. При поддержке Рима его правление продлилось до смены тысячелетий. Тогда же появилась угроза рождения нового царя. Евангелист Матфей описал массовое истребление Иродом новорождённых мальчиков в Вифлееме.
02. Падение Иудеи / The Fall of Judea
В шестьдесят шестом году нашей эры народ Иудеи, более века находящийся под гнётом Римского правления, поднял восстание против империи. Надежды, что удастся одолеть столь мощного недруга, практически не было, но долгие годы возмущений и религиозный пыл заставили поверить многих, что евреи свергнут своих угнетателей.
Релиз от: kyba
 

Current time is: 13-Jul 21:39

All times are UTC + 3