Reply to topic
DL-List and Torrent activity [Update пиров]
Size:  345 MB   |    Registered:  4 years 10 months   |    Completed:  0 times
Seeders:  105  [  0 KB/s  ]   Leechers:  34  [  0 KB/s  ]  
 
     
 
 
Author Message

RelizMAN ®

11

Post 05-Nov-2015 19:50

[Quote]

Bombay Sisters - Narayana Lelanjali
Жанр: Sanskrit/Tamil Devotional
Носитель: CD
Страна-производитель диска (релиза): India
Год издания: 2005
Издатель (лейбл): Geethanjali
Аудиокодек: FLAC (*.flac)
Тип рипа: image+.cue
Битрейт аудио: lossless
Продолжительность: 00:54:23
Источник (релизер): собственный рип
Наличие сканов в содержимом раздачи: да
Треклист:
01. Guru Sthothiram - Kamam Yaavum
02. Om Namo Narayana - Thiruvengadavane
03. Noonam Thoovum - Sudam Shyam
04. Hari Narayana - Vatchayavathu
05. Narayana
06. Kamam Yaavum
07. Thiruvengadavane
08. Sudam Shyam
09. Vatchayavathu

Лог создания рипа

Exact Audio Copy V1.1 from 23. June 2015
Отчёт EAC об извлечении, выполненном 5. ноября 2015, 18:25
Bombay Sisters / Narayana Lelanjali
Дисковод: MATSHITADVD-RAM UJ8B0 Adapter: 1 ID: 0
Режим чтения : Скоростной
Коррекция смещения при чтении : 0Способность читать области Lead-in и Lead-out : НетЗаполнение пропущенных сэмплов тишиной : ДаУдаление блоков с тишиной в начале и конце : НетПри вычислениях CRC использовались нулевые сэмплы : ДаИнтерфейс : Встроенный Win32-интерфейс для Win NT/2000
Выходной формат : Пользовательский кодировщикВыбранный битрейт : 896 kBit/sКачество : ВысокийДобавление ID3-тега : НетУтилита сжатия : C:\flac.exeДополнительные параметры : -V -8 -T "Date=%year%" -T "Genre=%genre%" %source%
TOC извлечённого CD
Трек | Старт | Длительность | Начальный сектор | Конечный сектор --------------------------------------------------------------------- 1 | 0:00.00 | 2:28.74 | 0 | 11173 2 | 2:28.74 | 1:58.38 | 11174 | 20061 3 | 4:27.37 | 12:38.58 | 20062 | 76969 4 | 17:06.20 | 7:12.64 | 76970 | 109433 5 | 24:19.09 | 5:26.70 | 109434 | 133953 6 | 29:46.04 | 6:57.74 | 133954 | 165302 7 | 36:44.03 | 3:37.69 | 165303 | 181646 8 | 40:21.72 | 5:04.62 | 181647 | 204508 9 | 45:26.59 | 8:56.21 | 204509 | 244729
Характеристики диапазона извлечения и сообщения об ошибках
Выбранный диапазон
Имя файла C:\Bombay Sisters - Narayana Lelanjali.wav
Пиковый уровень 89.1 % Скорость извлечения 6.3 X CRC теста 4C15A57E CRC копии 4C15A57E Копирование... OK
Ошибок не произошло
Конец отчёта
==== Контрольная сумма отчёта A2309BC6F6D2596D7B22BD93AEF4C3DEC1530C67630B67BC420B6036EFED5018 ====

Содержание индексной карты (.CUE)

REM DISCID 700CBF09REM COMMENT "ExactAudioCopy v1.1"PERFORMER "Bombay Sisters"TITLE "Narayana Lelanjali"FILE "Bombay Sisters - Narayana Lelanjali.flac" WAVE TRACK 01 AUDIO TITLE "Guru Sthothiram -- Kamam Yaavum" PERFORMER "Bombay Sisters" INDEX 01 00:00:00 TRACK 02 AUDIO TITLE "Om Namo Narayana -- Thiruvengadavane" PERFORMER "Bombay Sisters" INDEX 01 02:28:74 TRACK 03 AUDIO TITLE "Noonam Thoovum -- Sudam Shyam" PERFORMER "Bombay Sisters" INDEX 00 04:25:62 INDEX 01 04:27:37 TRACK 04 AUDIO TITLE "Hari Narayana -- Vatchayavathu" PERFORMER "Bombay Sisters" INDEX 00 17:05:26 INDEX 01 17:06:20 TRACK 05 AUDIO TITLE "Narayana" PERFORMER "Bombay Sisters" INDEX 00 24:17:49 INDEX 01 24:19:09 TRACK 06 AUDIO TITLE "Kamam Yaavum" PERFORMER "Bombay Sisters" INDEX 00 29:44:04 INDEX 01 29:46:04 TRACK 07 AUDIO TITLE "Thiruvengadavane" PERFORMER "Bombay Sisters" INDEX 00 36:42:61 INDEX 01 36:44:03 TRACK 08 AUDIO TITLE "Sudam Shyam" PERFORMER "Bombay Sisters" INDEX 00 40:20:38 INDEX 01 40:21:72 TRACK 09 AUDIO TITLE "Vatchayavathu" PERFORMER "Bombay Sisters" INDEX 00 45:24:60 INDEX 01 45:26:59
[doutdess.site].t87903.torrent
Torrent: Registered [ 2015-11-05 19:50 ] · 54E75032ABD4C8C9FB6A065C2BFEEE89CB248679

14 KB

Status: checked
Completed: 0 times
Size: 345 MB
(Sanskrit/Tamil Devotional) Bombay Sisters - Narayana Lelanjali - 2005, FLAC (image+.cue), lossless скачать торрент бесплатно и без регистрации

[Profile] [PM]
Display posts:    

Current time is: 25-Sep 22:49

All times are UTC + 3



You cannot post new topics in this forum
You cannot reply to topics in this forum
You cannot edit your posts in this forum
You cannot delete your posts in this forum
You cannot vote in polls in this forum
You cannot attach files in this forum
You can download files in this forum