Reply to topic
DL-List and Torrent activity [Update пиров]
Size:  259 MB   |    Registered:  4 years 10 months   |    Completed:  0 times
Seeders:  553  [  0 KB/s  ]   Leechers:  7  [  0 KB/s  ]  
 
     
 
 
Author Message

RelizMAN ®

11

Post 06-Nov-2015 22:50

[Quote]

Sammy Kershaw / Politics, Religion and Her
Жанр: Country
Страна-производитель диска (релиза): USA
Год издания: 1996
Страна исполнителя (группы): USA
Аудиокодек: FLAC (*.flac)
Тип рипа: tracks+.cue
Битрейт аудио: lossless
Продолжительность: 00:38:45
Источник (релизер): WEB
Наличие сканов в содержимом раздачи: нет
Треклист:
01 - Vidalia
02 - Meant to Be
03 - Fit to Be Tied Down
04 - Politics, Religion and Her
05 - Chevy Van
06 - Same Place
07 - Little Bitty Crack in Her Heart
08 - These Flowers
09 - I Saw You Today
10 - Memphis, Tennessee
11 - For Years
12 - Here She Comes

Лог создания рипа

Exact Audio Copy V1.0 beta 1 from 15. November 2010
EAC extraction logfile from 25. April 2011, 19:02
Sammy Kershaw / Politics, Religion And Her
Used drive : PIONEER DVD-RW DVRKD08L Adapter: 1 ID: 0
Read mode : SecureUtilize accurate stream : YesDefeat audio cache : YesMake use of C2 pointers : No
Read offset correction : 48Overread into Lead-In and Lead-Out : NoFill up missing offset samples with silence : YesDelete leading and trailing silent blocks : NoNull samples used in CRC calculations : YesUsed interface : Native Win32 interface for Win NT & 2000Gap handling : Appended to previous track
Used output format : User Defined EncoderSelected bitrate : 320 kBit/sQuality : HighAdd ID3 tag : NoCommand line compressor : C:\Program Files (x86)\Exact Audio Copy\Flac\flac.exeAdditional command line options : -V -8 -T "artist=%a" -T "title=%t" -T "album=%g" -T "date=%y" -T "tracknumber=%n" -T "genre=%m" %s
TOC of the extracted CD
Track | Start | Length | Start sector | End sector --------------------------------------------------------- 1 | 0:00.00 | 3:21.42 | 0 | 15116 2 | 3:21.42 | 3:46.18 | 15117 | 32084 3 | 7:07.60 | 3:13.10 | 32085 | 46569 4 | 10:20.70 | 3:19.62 | 46570 | 61556 5 | 13:40.57 | 3:42.00 | 61557 | 78206 6 | 17:22.57 | 2:39.00 | 78207 | 90131 7 | 20:01.57 | 2:50.20 | 90132 | 102901 8 | 22:52.02 | 3:20.08 | 102902 | 117909 9 | 26:12.10 | 3:29.32 | 117910 | 133616 10 | 29:41.42 | 2:57.15 | 133617 | 146906 11 | 32:38.57 | 3:22.18 | 146907 | 162074 12 | 36:01.00 | 2:45.50 | 162075 | 174499
Track 1
Filename D:\EACrips\Sammy Kershaw -1996- Politics, Religion And Her [FLAC]\01 - Vidalia.wav
Pre-gap length 0:00:02.00
Peak level 99.9 % Extraction speed 2.2 X Track quality 99.9 % Test CRC 762714CB Copy CRC 762714CB Accurately ripped (confidence 23) [02F2F4A3] Copy OK
Track 2
Filename D:\EACrips\Sammy Kershaw -1996- Politics, Religion And Her [FLAC]\02 - Meant To Be.wav
Peak level 99.9 % Extraction speed 2.9 X Track quality 100.0 % Test CRC 263F1014 Copy CRC 263F1014 Accurately ripped (confidence 20) [D21ABEE4] Copy OK
Track 3
Filename D:\EACrips\Sammy Kershaw -1996- Politics, Religion And Her [FLAC]\03 - Fit To Be Tied Down.wav
Pre-gap length 0:00:01.30
Peak level 100.0 % Extraction speed 3.0 X Track quality 100.0 % Test CRC B8A9DE50 Copy CRC B8A9DE50 Accurately ripped (confidence 19) [7B68D493] Copy OK
Track 4
Filename D:\EACrips\Sammy Kershaw -1996- Politics, Religion And Her [FLAC]\04 - Politics, Religion and Her.wav
Peak level 100.0 % Extraction speed 3.2 X Track quality 100.0 % Test CRC C81D7127 Copy CRC C81D7127 Accurately ripped (confidence 21) [50048A6E] Copy OK
Track 5
Filename D:\EACrips\Sammy Kershaw -1996- Politics, Religion And Her [FLAC]\05 - Chevy Van.wav
Peak level 99.9 % Extraction speed 3.5 X Track quality 100.0 % Test CRC 0572AAC7 Copy CRC 0572AAC7 Accurately ripped (confidence 20) [B902EBE4] Copy OK
Track 6
Filename D:\EACrips\Sammy Kershaw -1996- Politics, Religion And Her [FLAC]\06 - Same Place.wav
Peak level 99.9 % Extraction speed 3.4 X Track quality 100.0 % Test CRC 0C0ABDE1 Copy CRC 0C0ABDE1 Accurately ripped (confidence 20) [DCA29E06] Copy OK
Track 7
Filename D:\EACrips\Sammy Kershaw -1996- Politics, Religion And Her [FLAC]\07 - Little Bitty Crack In Her Heart.wav
Pre-gap length 0:00:01.26
Peak level 100.0 % Extraction speed 3.6 X Track quality 100.0 % Test CRC 1DAB1D52 Copy CRC 1DAB1D52 Accurately ripped (confidence 19) [11BD7C93] Copy OK
Track 8
Filename D:\EACrips\Sammy Kershaw -1996- Politics, Religion And Her [FLAC]\08 - These Flowers.wav
Peak level 100.0 % Extraction speed 3.8 X Track quality 100.0 % Test CRC 4601EACE Copy CRC 4601EACE Accurately ripped (confidence 19) [3F560C1F] Copy OK
Track 9
Filename D:\EACrips\Sammy Kershaw -1996- Politics, Religion And Her [FLAC]\09 - I Saw You Today.wav
Peak level 99.9 % Extraction speed 4.0 X Track quality 100.0 % Test CRC C5630CBF Copy CRC C5630CBF Accurately ripped (confidence 20) [D5C79B02] Copy OK
Track 10
Filename D:\EACrips\Sammy Kershaw -1996- Politics, Religion And Her [FLAC]\10 - Memphis, Tennessee.wav
Pre-gap length 0:00:02.40
Peak level 99.9 % Extraction speed 4.0 X Track quality 100.0 % Test CRC F1503D59 Copy CRC F1503D59 Accurately ripped (confidence 19) [6AEEA7B8] Copy OK
Track 11
Filename D:\EACrips\Sammy Kershaw -1996- Politics, Religion And Her [FLAC]\11 - For Years.wav
Pre-gap length 0:00:01.02
Peak level 100.0 % Extraction speed 3.6 X Track quality 99.9 % Test CRC 63F73F72 Copy CRC 63F73F72 Accurately ripped (confidence 19) [7CAD5067] Copy OK
Track 12
Filename D:\EACrips\Sammy Kershaw -1996- Politics, Religion And Her [FLAC]\12 - Here She Comes.wav
Peak level 100.0 % Extraction speed 4.1 X Track quality 100.0 % Test CRC E098D74C Copy CRC E098D74C Accurately ripped (confidence 19) [A4845A92] Copy OK
All tracks accurately ripped
No errors occurred
End of status report
==== Log checksum 70CF60AAC8099BB4213D1E326ABA43586D0CBC66B1E7A26F5BF06176ADA87160 ====

Содержание индексной карты (.CUE)

REM GENRE CountryREM DATE 1996REM DISCID 8A09160CREM COMMENT "ExactAudioCopy v1.0b1"PERFORMER "Sammy Kershaw"TITLE "Politics, Religion And Her"FILE "01 - Vidalia.wav" WAVE TRACK 01 AUDIO TITLE "Vidalia" PERFORMER "Sammy Kershaw" INDEX 01 00:00:00FILE "02 - Meant To Be.wav" WAVE TRACK 02 AUDIO TITLE "Meant To Be" PERFORMER "Sammy Kershaw" INDEX 01 00:00:00 TRACK 03 AUDIO TITLE "Fit To Be Tied Down" PERFORMER "Sammy Kershaw" INDEX 00 03:44:70FILE "03 - Fit To Be Tied Down.wav" WAVE INDEX 01 00:00:00FILE "04 - Politics, Religion and Her.wav" WAVE TRACK 04 AUDIO TITLE "Politics, Religion and Her" PERFORMER "Sammy Kershaw" INDEX 01 00:00:00FILE "05 - Chevy Van.wav" WAVE TRACK 05 AUDIO TITLE "Chevy Van" PERFORMER "Sammy Kershaw" INDEX 01 00:00:00FILE "06 - Same Place.wav" WAVE TRACK 06 AUDIO TITLE "Same Place" PERFORMER "Sammy Kershaw" INDEX 01 00:00:00 TRACK 07 AUDIO TITLE "Little Bitty Crack In Her Heart" PERFORMER "Sammy Kershaw" INDEX 00 02:37:55FILE "07 - Little Bitty Crack In Her Heart.wav" WAVE INDEX 01 00:00:00FILE "08 - These Flowers.wav" WAVE TRACK 08 AUDIO TITLE "These Flowers" PERFORMER "Sammy Kershaw" INDEX 01 00:00:00FILE "09 - I Saw You Today.wav" WAVE TRACK 09 AUDIO TITLE "I Saw You Today" PERFORMER "Sammy Kershaw" INDEX 01 00:00:00 TRACK 10 AUDIO TITLE "Memphis, Tennessee" PERFORMER "Sammy Kershaw" INDEX 00 03:27:02FILE "10 - Memphis, Tennessee.wav" WAVE INDEX 01 00:00:00 TRACK 11 AUDIO TITLE "For Years" PERFORMER "Sammy Kershaw" INDEX 00 02:56:13FILE "11 - For Years.wav" WAVE INDEX 01 00:00:00FILE "12 - Here She Comes.wav" WAVE TRACK 12 AUDIO TITLE "Here She Comes" PERFORMER "Sammy Kershaw" INDEX 01 00:00:00
[doutdess.site].t88132.torrent
Torrent: Registered [ 2015-11-06 22:50 ] · 22270E9AABE104B34D4EEC6AE7AF2C7E2DCD2A81

12 KB

Status: checked
Completed: 0 times
Size: 259 MB
(Country) Sammy Kershaw - Politics, Religion and Her - 1996, FLAC (tracks+.cue), lossless скачать торрент бесплатно и без регистрации

[Profile] [PM]
Forum Topic Author Size
Country, Bluegrass lossy (Country) 1 Uppers - Get Back Rollin\' - 2019, MP3, 320 kbps Vi$itReal 94 MB
Country, Bluegrass lossy (Country) Aaron Goodvin - Aaron Goodvin - 2016, MP3, 320 kbps Vi$itReal 96 MB
Country, Bluegrass lossy (Country) Aaron Watson - Live At The World\'s Biggest Rodeo Show - 2018, MP3, 320 kbps Vi$itReal 127 MB
Country, Bluegrass lossy (Country) Abe Mac Band - A Thousand Pieces - 2017, MP3, 320 kbps Vi$itReal 103 MB
Country, Bluegrass lossy (Country) Adam Brand - Дискография 1999-2016 (14 релизов), MP3, 192-320 kbps Vi$itReal 1.58 GB
Country, Bluegrass lossy (Country) Adam Eckersley, Brooke McClymont - Adam & Brooke - 2018, MP3, 320 kbps Vi$itReal 92 MB
Country, Bluegrass lossy (Country) Adam Hood - Somewhere in Between - 2018, MP3, 320 kbps Vi$itReal 94 MB
Country, Bluegrass lossy (Country) Adam Palm - Morning - 2019, MP3, 320 kbps Vi$itReal 101 MB
Display posts:    

Current time is: 26-Sep 15:06

All times are UTC + 3



You cannot post new topics in this forum
You cannot reply to topics in this forum
You cannot edit your posts in this forum
You cannot delete your posts in this forum
You cannot vote in polls in this forum
You cannot attach files in this forum
You can download files in this forum