Reply to topic
DL-List and Torrent activity [Update пиров]
Size:  302 MB   |    Registered:  4 years 10 months   |    Completed:  0 times
Seeders:  753  [  0 KB/s  ]   Leechers:  36  [  0 KB/s  ]  
 
     
 
 
Author Message

RelizMAN ®

11

Post 05-Nov-2015 20:55

[Quote]

Priya Sisters - Pavithra Sai
Жанр: Shirdi Sai Baba Devotional
Носитель: CD
Страна-производитель диска (релиза): India
Год издания: 2004
Издатель (лейбл): Amutham Music
Аудиокодек: FLAC (*.flac)
Тип рипа: image+.cue
Битрейт аудио: lossless
Продолжительность: 00:59:08
Источник (релизер): собственный рип
Наличие сканов в содержимом раздачи: да
Треклист:
01. Sri Sai Sahasranamam Stotram - H.H. NARASIMHA SWAMIJI
02. Sadasatswarupam Sai Mahima Stotram - SRI UPASANI BABA
03. Shridi Maje Pandari Pura (Abhang) - DASGANU MAHARAJ
04. Ananta Tula Te (Namaskarashtakam)- MOHINIRAJ
05. Aisa Yei Ba Dattatreya Stotram - TRADITIONAL
06. Jayadeva Jayadeva - MADHAV ADKAR
07. Arti Sai Baba - MADHAV ADKAR

Лог создания рипа

Exact Audio Copy V1.1 from 23. June 2015
Отчёт EAC об извлечении, выполненном 5. ноября 2015, 19:13
Priya Sisters / Pavithra Sai
Дисковод: MATSHITADVD-RAM UJ8B0 Adapter: 1 ID: 0
Режим чтения : Скоростной
Коррекция смещения при чтении : 0Способность читать области Lead-in и Lead-out : НетЗаполнение пропущенных сэмплов тишиной : ДаУдаление блоков с тишиной в начале и конце : НетПри вычислениях CRC использовались нулевые сэмплы : ДаИнтерфейс : Встроенный Win32-интерфейс для Win NT/2000
Выходной формат : Пользовательский кодировщикВыбранный битрейт : 896 kBit/sКачество : ВысокийДобавление ID3-тега : НетУтилита сжатия : C:\flac.exeДополнительные параметры : -V -8 -T "Date=%year%" -T "Genre=%genre%" %source%
TOC извлечённого CD
Трек | Старт | Длительность | Начальный сектор | Конечный сектор --------------------------------------------------------------------- 1 | 0:00.00 | 41:24.35 | 0 | 186334 2 | 41:24.35 | 5:02.20 | 186335 | 209004 3 | 46:26.55 | 2:11.65 | 209005 | 218894 4 | 48:38.45 | 2:50.54 | 218895 | 231698 5 | 51:29.24 | 2:11.15 | 231699 | 241538 6 | 53:40.39 | 2:05.56 | 241539 | 250969 7 | 55:46.20 | 3:22.16 | 250970 | 266135
Характеристики диапазона извлечения и сообщения об ошибках
Выбранный диапазон
Имя файла C:\Priya Sisters - Pavithra Sai.wav
Пиковый уровень 100.0 % Скорость извлечения 6.5 X CRC теста 07E340AC CRC копии 07E340AC Копирование... OK
Ошибок не произошло
Конец отчёта
==== Контрольная сумма отчёта EFF983B3ED473270C8919AE83C3D70057ED375B9804049DD77B0C693DA15F30C ====

Содержание индексной карты (.CUE)

REM DISCID 640DDC07REM COMMENT "ExactAudioCopy v1.1"PERFORMER "Priya Sisters"TITLE "Pavithra Sai"FILE "Priya Sisters - Pavithra Sai.flac" WAVE TRACK 01 AUDIO TITLE "Sri Sai Sahasranamam Stotram - NARASIMHA SWAMIJI" PERFORMER "Priya Sisters" INDEX 01 00:00:00 TRACK 02 AUDIO TITLE "Sadasatswarupam Sai Mahima Stotram - SRI UPASANI BABA" PERFORMER "Priya Sisters" INDEX 01 41:24:35 TRACK 03 AUDIO TITLE "Shridi Maje Pandari Pura (Abhang) - DASGANU MAHARAJ" PERFORMER "Priya Sisters" INDEX 01 46:26:55 TRACK 04 AUDIO TITLE "Ananta Tula Te (Namaskarashtakam)- MOHINIRAJ" PERFORMER "Priya Sisters" INDEX 01 48:38:45 TRACK 05 AUDIO TITLE "Aisa Yei Ba Dattatreya Stotram" PERFORMER "Priya Sisters" INDEX 01 51:29:24 TRACK 06 AUDIO TITLE "Jayadeva Jayadeva" PERFORMER "Priya Sisters" INDEX 01 53:40:39 TRACK 07 AUDIO TITLE "Arti Sai Baba - MADHAV ADKAR" PERFORMER "Priya Sisters" INDEX 01 55:46:20
[doutdess.site].t87912.torrent
Torrent: Registered [ 2015-11-05 20:55 ] · B49A8E9D44492820009C966DEED518ACE4462E8A

13 KB

Status: checked
Completed: 0 times
Size: 302 MB
(Shirdi Sai Baba Devotional) Priya Sisters - Pavithra Sai - 2004, FLAC (image+.cue), lossless скачать торрент бесплатно и без регистрации

[Profile] [PM]
Display posts:    

Current time is: 27-Sep 07:25

All times are UTC + 3



You cannot post new topics in this forum
You cannot reply to topics in this forum
You cannot edit your posts in this forum
You cannot delete your posts in this forum
You cannot vote in polls in this forum
You cannot attach files in this forum
You can download files in this forum