Reply to topic
DL-List and Torrent activity [Update пиров]
Size:  192 MB   |    Registered:  4 years 10 months   |    Completed:  2 times
Seeders:  767  [  0 KB/s  ]   Leechers:  15  [  0 KB/s  ]  
 
     
 
 
Author Message

RelizMAN ®

11

Post 06-Nov-2015 22:50

[Quote]

Philip Glass - Songs and Poems for Solo Cello - Wendy Sutter, David Cossin, Philip Glass
Жанр: Classical
Страна-производитель диска: USA
Год издания диска: 2007
Издатель (лейбл): Orange Mountain Music
Номер по каталогу: 0037
Дата записи: 2007
Аудиокодек: FLAC
Тип рипа: image+.cue
Битрейт аудио: lossless
Продолжительность: 43:15
Источник: собственный рип
Наличие сканов в содержимом раздачи: да
Треклист:
Philip Glass (b.1937)
[1]-[7] Songs and Poems for Solo Cello (2007)
Tissues (from Naqoyqatsi) for Cello, Percussion and Piano (2002)
[8] Tissue No.1
[9] Tissue No.2
[10] Tissue No.6
[11] Tissue No.7
Исполнители:
Wendy Sutter cello
David Cossin percussion
Philip Glass piano

Лог создания рипа

Exact Audio Copy V1.0 beta 3 from 29. August 2011
EAC extraction logfile from 1. April 2015, 20:31
Wendy Sutter / Glass - Songs and Poems for Solo Cello
Used drive : HL-DT-STDVDRAM GU70N Adapter: 0 ID: 0
Read mode : SecureUtilize accurate stream : YesDefeat audio cache : YesMake use of C2 pointers : No
Read offset correction : 48Overread into Lead-In and Lead-Out : NoFill up missing offset samples with silence : YesDelete leading and trailing silent blocks : NoNull samples used in CRC calculations : YesUsed interface : Native Win32 interface for Win NT & 2000
Used output format : User Defined EncoderSelected bitrate : 128 kBit/sQuality : HighAdd ID3 tag : NoCommand line compressor : C:\Program Files (x86)\Exact Audio Copy\Flac\flac.exeAdditional command line options : -V -8 -T "Date=%year%" -T "Genre=%genre%" %source%
TOC of the extracted CD
Track | Start | Length | Start sector | End sector --------------------------------------------------------- 1 | 0:00.00 | 3:30.09 | 0 | 15758 2 | 3:30.09 | 5:51.71 | 15759 | 42154 3 | 9:22.05 | 2:01.10 | 42155 | 51239 4 | 11:23.15 | 3:01.57 | 51240 | 64871 5 | 14:24.72 | 5:47.35 | 64872 | 90931 6 | 20:12.32 | 3:47.05 | 90932 | 107961 7 | 23:59.37 | 5:11.69 | 107962 | 131355 8 | 29:11.31 | 4:30.15 | 131356 | 151620 9 | 33:41.46 | 3:07.15 | 151621 | 165660 10 | 36:48.61 | 3:13.35 | 165661 | 180170 11 | 40:02.21 | 3:12.19 | 180171 | 194589
Range status and errors
Selected range
Filename C:\temp\Glass - Songs and Poems for Solo Cello - Sutter\Glass - Songs and Poems for Solo Cello.wav
Peak level 96.6 % Extraction speed 4.7 X Range quality 100.0 % Test CRC 33451133 Copy CRC 33451133 Copy OK
No errors occurred
AccurateRip summary
Track 1 accurately ripped (confidence 13) [9ABBB63F] (AR v2)Track 2 accurately ripped (confidence 13) [963C13E6] (AR v2)Track 3 accurately ripped (confidence 13) [516949D3] (AR v2)Track 4 accurately ripped (confidence 13) [031CCF6B] (AR v2)Track 5 accurately ripped (confidence 13) [A8EC96D8] (AR v2)Track 6 accurately ripped (confidence 13) [3F5F03D0] (AR v2)Track 7 accurately ripped (confidence 13) [308897D0] (AR v2)Track 8 accurately ripped (confidence 13) [FA9967C9] (AR v2)Track 9 accurately ripped (confidence 13) [F84F56DA] (AR v2)Track 10 accurately ripped (confidence 13) [5B5298C3] (AR v2)Track 11 accurately ripped (confidence 13) [E4122DA7] (AR v2)
All tracks accurately ripped
End of status report
==== Log checksum 4D1E471F42851E83C7F60A24837B9D9A3B44604E0570EDB6716A89552E7148F6 ====
[doutdess.site].t88131.torrent
Torrent: Registered [ 2015-11-06 22:50 ] · 4DD8C17E1E7505DC929DCF2785C2DBDECC7565EF

31 KB

Status: checked
Completed: 2 times
Size: 192 MB
(Classical) Philip Glass - Songs and Poems for Solo Cello - Wendy Sutter, David Cossin, Philip Glass - 2007, FLAC (image+.cue) lossless скачать торрент бесплатно и без регистрации

[Profile] [PM]
Forum Topic Author Size
Вокальная музыка в lossless ((classical/operetta)) Schönes bleibt. Unvergessene Tenöre bei WDR 4 / Прекрасное остаётся - 2000, FLAC (image+.cue) lossless Vi$itReal 401 MB
Вокальная и хоровая музыка lossy (Classical (Lieder)) (Lieder) Norman Bailey - Songs of Hugo Wolf - 1979, MP3 (tracks) 320 kbps RelizMAN 120 MB
Концерт для инструмента с оркестром в lossless (Classical ) Top 20 CDs for your Classical Music Collection - ClassicalCDguide.com: 02 - W. A. Mozart - Great Piano Concertos N 20 - 25 (1997) APE (tracks), 450-566 kb/s RelizMAN 582 MB
Концерт для инструмента с оркестром в lossless (Classical ) Top 20 CDs for your Classical Music Collection - ClassicalCDguide.com: 04 - Bach: Die Brandenburgische Konzerte - Orchestra of the Age of Enlightenment 2 CD (1999) APE (tracks), 610-769... RelizMAN 462 MB
Оркестровая музыка в lossless (Classical ) Top 20 CDs for your Classical Music Collection - ClassicalCDguide.com: 06 - Igor Stravinsky; Petroushka, Le Sacre du Printemps - Columbia Symphony Orchestra (Sony 1990) APE (tracks),... Vi$itReal 274 MB
Камерная инструментальная музыка в lossless (Classical ) Top 20 CDs for your Classical Music Collection - ClassicalCDguide.com: 07 - Franz Schubert - \'Trout\' Quintet & \'Death and the Maiden\' - Amadeus Quartet (DG ... Vi$itReal 343 MB
Камерная инструментальная музыка в lossless (Classical ) Top 20 CDs for your Classical Music Collection - ClassicalCDguide.com: 10 - Georges Bizet; Carmen - Sir Thomas Beecham, de Los Angeles, Gedda, Michau, Blanc (EMI 2000) аре (по-треково),... Vi$itReal 745 MB
Камерная инструментальная музыка в lossless (Classical ) Top 20 CDs for your Classical Music Collection - ClassicalCDguide.com: 12 - Франц Шуберт - Симфония No. 3, Unfinished 39; - Carlos Kleiber и Wiener Philharmoniker (DG 1... Vi$itReal 186 MB
Display posts:    

Current time is: 23-Sep 22:25

All times are UTC + 3



You cannot post new topics in this forum
You cannot reply to topics in this forum
You cannot edit your posts in this forum
You cannot delete your posts in this forum
You cannot vote in polls in this forum
You cannot attach files in this forum
You can download files in this forum