Reply to topic
DL-List and Torrent activity [Update пиров]
Size:  268 MB   |    Registered:  4 years 10 months   |    Completed:  0 times
Seeders:  724  [  0 KB/s  ]   Leechers:  51  [  0 KB/s  ]  
 
     
 
 
Author Message

RelizMAN ®

11

Post 06-Nov-2015 17:25

[Quote]

Parupalli Ranganath - Sri Hari Govindam Manasa Smarami
Жанр: Venkateswara Devotional, Sanskrit
Носитель: CD
Страна-производитель диска (релиза): India
Год издания: 2005
Издатель (лейбл): Saregama
Аудиокодек: FLAC (*.flac)
Тип рипа: image+.cue
Битрейт аудио: lossless
Продолжительность: 00:46:03
Источник (релизер): собственный рип
Наличие сканов в содержимом раздачи: да
Треклист:
01. Sri Jatha Roopa & Sri Hari Govindam
02. Sri Srinivasa Astothara Satha Namavali
03. Srinivasa Govinda
04. Venkata Nadaya

Лог создания рипа

Exact Audio Copy V1.1 from 23. June 2015
Отчёт EAC об извлечении, выполненном 6. ноября 2015, 16:36
Parupalli Ranganath / Sri Hari Govindam Manasa Smarami
Дисковод: MATSHITADVD-RAM UJ8B0 Adapter: 1 ID: 0
Режим чтения : ДостоверностьИспользование точного потока : ДаОтключение кэша аудио : ДаИспользование указателей C2 : Нет
Коррекция смещения при чтении : 0Способность читать области Lead-in и Lead-out : НетЗаполнение пропущенных сэмплов тишиной : ДаУдаление блоков с тишиной в начале и конце : НетПри вычислениях CRC использовались нулевые сэмплы : ДаИнтерфейс : Встроенный Win32-интерфейс для Win NT/2000
Выходной формат : Пользовательский кодировщикВыбранный битрейт : 896 kBit/sКачество : ВысокийДобавление ID3-тега : НетУтилита сжатия : C:\flac.exeДополнительные параметры : -V -8 -T "Date=%year%" -T "Genre=%genre%" %source%
TOC извлечённого CD
Трек | Старт | Длительность | Начальный сектор | Конечный сектор --------------------------------------------------------------------- 1 | 0:00.00 | 15:52.24 | 0 | 71423 2 | 15:52.24 | 9:22.00 | 71424 | 113573 3 | 25:14.24 | 13:08.33 | 113574 | 172706 4 | 38:22.57 | 7:41.16 | 172707 | 207297
Характеристики диапазона извлечения и сообщения об ошибках
Выбранный диапазон
Имя файла C:\Parupalli Ranganath - Sri Hari Govindam Manasa Smarami.wav
Пиковый уровень 79.4 % Скорость извлечения 1.9 X Качество диапазона 100.0 % CRC теста 0C11E288 CRC копии 0C11E288 Копирование... OK
Ошибок не произошло
Конец отчёта
==== Контрольная сумма отчёта 53E87958FBC8D3277B68E5BA9DC36995D93F3C5F846191CFE083533C02C61CA3 ====

Содержание индексной карты (.CUE)

REM DISCID 2A0ACB04REM COMMENT "ExactAudioCopy v1.1"PERFORMER "Parupalli Ranganath"TITLE "Sri Hari Govindam Manasa Smarami"FILE "Parupalli Ranganath - Sri Hari Govindam Manasa Smarami.flac" WAVE TRACK 01 AUDIO TITLE "Track01" PERFORMER "Parupalli Ranganath" FLAGS DCP INDEX 01 00:00:00 TRACK 02 AUDIO TITLE "Track02" PERFORMER "Parupalli Ranganath" FLAGS DCP INDEX 01 15:52:24 TRACK 03 AUDIO TITLE "Track03" PERFORMER "Parupalli Ranganath" FLAGS DCP INDEX 00 25:14:23 INDEX 01 25:14:24 TRACK 04 AUDIO TITLE "Track04" PERFORMER "Parupalli Ranganath" FLAGS DCP INDEX 01 38:22:57
[doutdess.site].t88064.torrent
Torrent: Registered [ 2015-11-06 17:25 ] · A93A7BAB6C78EC060EF045F4B329FD1C1ECA38B7

11 KB

Status: checked
Completed: 0 times
Size: 268 MB
(Venkateswara Devotional, Sanskrit) Parupalli Ranganath - Sri Hari Govindam Manasa Smarami - 2005, FLAC (image+.cue), lossless скачать торрент бесплатно и без регистрации

[Profile] [PM]
Display posts:    

Current time is: 23-Sep 01:43

All times are UTC + 3



You cannot post new topics in this forum
You cannot reply to topics in this forum
You cannot edit your posts in this forum
You cannot delete your posts in this forum
You cannot vote in polls in this forum
You cannot attach files in this forum
You can download files in this forum