Reply to topic
DL-List and Torrent activity [Update пиров]
Size:  391 MB   |    Registered:  4 years 10 months   |    Completed:  0 times
Seeders:  886  [  0 KB/s  ]   Leechers:  12  [  0 KB/s  ]  
 
     
 
 
Author Message

RelizMAN ®

11

Post 06-Nov-2015 04:30

[Quote]

O.S. Arun - Kesava Madhava
Жанр: Bhajans, Carnatic, Tamil
Носитель: CD
Страна-производитель диска (релиза): India
Год издания: 2009
Издатель (лейбл): Amutham Music
Аудиокодек: FLAC (*.flac)
Тип рипа: image+.cue
Битрейт аудио: lossless
Продолжительность: 01:08:18
Источник (релизер): собственный рип
Наличие сканов в содержимом раздачи: да
Треклист:
01. Jai Ganesh - Yaman - Talamalika - Traditional
02. Kesava - Misra Dwijavanthi - Tisram - Namadev
03. Nizalyane Gaatha- Misra Kalavathi - Ekam - Tukaram
04. Balamu Kulkamu - Saveri - Tisram Ekam - Thyagaraja
05. Ramabadra Ra - Ananadabhairavi - Adi - Badrachala Ramdas
06. Ram Naam Ras Peeje - Latanthapriya - Ekam - Meerabai
07. Mella Mella - Behag - Adi - Purandaradasa
08. Bega Baro - Maand - Adi - Purandaradasa
09. Ninnai Charanadaindhen - Hamsanadham - Adi - Subramanya Bharathi
10. Raghupathe - Bhoop - Ekam - Namavali

Лог создания рипа

Exact Audio Copy V1.1 from 23. June 2015
Отчёт EAC об извлечении, выполненном 6. ноября 2015, 3:32
O.S. Arun / Kesave Madhava
Дисковод: MATSHITADVD-RAM UJ8B0 Adapter: 1 ID: 0
Режим чтения : ДостоверностьИспользование точного потока : ДаОтключение кэша аудио : ДаИспользование указателей C2 : Нет
Коррекция смещения при чтении : 0Способность читать области Lead-in и Lead-out : НетЗаполнение пропущенных сэмплов тишиной : ДаУдаление блоков с тишиной в начале и конце : НетПри вычислениях CRC использовались нулевые сэмплы : ДаИнтерфейс : Встроенный Win32-интерфейс для Win NT/2000
Выходной формат : Пользовательский кодировщикВыбранный битрейт : 896 kBit/sКачество : ВысокийДобавление ID3-тега : НетУтилита сжатия : C:\flac.exeДополнительные параметры : -V -8 -T "Date=%year%" -T "Genre=%genre%" %source%
TOC извлечённого CD
Трек | Старт | Длительность | Начальный сектор | Конечный сектор --------------------------------------------------------------------- 1 | 0:00.00 | 7:17.58 | 0 | 32832 2 | 7:17.58 | 5:47.00 | 32833 | 58857 3 | 13:04.58 | 6:06.72 | 58858 | 86379 4 | 19:11.55 | 8:48.30 | 86380 | 126009 5 | 28:00.10 | 6:17.49 | 126010 | 154333 6 | 34:17.59 | 6:21.08 | 154334 | 182916 7 | 40:38.67 | 6:56.40 | 182917 | 214156 8 | 47:35.32 | 8:01.53 | 214157 | 250284 9 | 55:37.10 | 7:33.45 | 250285 | 284304 10 | 63:10.55 | 5:08.02 | 284305 | 307406
Характеристики диапазона извлечения и сообщения об ошибках
Выбранный диапазон
Имя файла C:\O.S. Arun - Kesave Madhava.wav
Пиковый уровень 100.0 % Скорость извлечения 2.1 X Качество диапазона 100.0 % CRC теста 1B3DD026 CRC копии 1B3DD026 Копирование... OK
Ошибок не произошло
Конец отчёта
==== Контрольная сумма отчёта A8CB744B903E558672DC94432BAD0743C6CE012E862D1D45FD7739846449872B ====

Содержание индексной карты (.CUE)

REM DISCID 9910020AREM COMMENT "ExactAudioCopy v1.1"PERFORMER "O.S. Arun"TITLE "Kesave Madhava"FILE "O.S. Arun - Kesave Madhava.flac" WAVE TRACK 01 AUDIO TITLE "Jai Ganesh" PERFORMER "1 Jai Ganesh" FLAGS DCP INDEX 01 00:00:00 TRACK 02 AUDIO TITLE "Kesava" PERFORMER "2" FLAGS DCP INDEX 01 07:17:58 TRACK 03 AUDIO TITLE "Nizalyane Gaatha" PERFORMER "3" FLAGS DCP INDEX 00 13:02:52 INDEX 01 13:04:58 TRACK 04 AUDIO TITLE "Balamu Kulkamu" PERFORMER "4 Balamu Kulamu" FLAGS DCP INDEX 00 19:09:49 INDEX 01 19:11:55 TRACK 05 AUDIO TITLE "Ramabadra Ra" PERFORMER "5 Rama Badhra" FLAGS DCP INDEX 00 27:58:04 INDEX 01 28:00:10 TRACK 06 AUDIO TITLE "Ram Naam Ras Peeje" PERFORMER "6 Rama Nama" FLAGS DCP INDEX 00 34:15:41 INDEX 01 34:17:59 TRACK 07 AUDIO TITLE "Mella Mella" PERFORMER "7 Mella Mella" FLAGS DCP INDEX 00 40:37:66 INDEX 01 40:38:67 TRACK 08 AUDIO TITLE "Bega Baro" PERFORMER "8 Bega Baaru" FLAGS DCP INDEX 00 47:34:08 INDEX 01 47:35:32 TRACK 09 AUDIO TITLE "Ninnai Charanadaindhen" PERFORMER "9 Ninnai" FLAGS DCP INDEX 00 55:35:08 INDEX 01 55:37:10 TRACK 10 AUDIO TITLE "Raghupathe" PERFORMER "10 Naama Valli" FLAGS DCP INDEX 00 63:09:08 INDEX 01 63:10:55
[doutdess.site].t88002.torrent
Torrent: Registered [ 2015-11-06 04:30 ] · C35D757B29E3696127C6EFBEAE31C6D67FFBC925

16 KB

Status: checked
Completed: 0 times
Size: 391 MB
(Bhajans, Carnatic, Tamil) O.S. Arun - Kesava Madhava - 2009, FLAC (image+.cue), lossless скачать торрент бесплатно и без регистрации

[Profile] [PM]
Display posts:    

Current time is: 27-Sep 19:06

All times are UTC + 3



You cannot post new topics in this forum
You cannot reply to topics in this forum
You cannot edit your posts in this forum
You cannot delete your posts in this forum
You cannot vote in polls in this forum
You cannot attach files in this forum
You can download files in this forum