Reply to topic
DL-List and Torrent activity [Update пиров]
Size:  361 MB   |    Registered:  4 years 10 months   |    Completed:  0 times
Seeders:  797  [  0 KB/s  ]   Leechers:  29  [  0 KB/s  ]  
 
     
 
 
Author Message

RelizMAN ®

11

Post 06-Nov-2015 16:20

[Quote]

Nithyasree Mahadevan - Thiruppavai
Жанр: Carnatic, Tamil
Носитель: CD
Страна-производитель диска (релиза): India
Год издания: 2009
Издатель (лейбл): Vani Recording
Аудиокодек: FLAC (*.flac)
Тип рипа: image+.cue
Битрейт аудио: lossless
Продолжительность: 01:03:53
Источник (релизер): собственный рип
Наличие сканов в содержимом раздачи: да
Треклист:
01. Margazhi Thingal
02. Vayyathu Vazhvirkal
03. Ongi Ulagalandha
04. Aazhi Mazhai Kanna
05. Maayanai
06. Pullum Silam Beenakaan
07. Keesu Keesendru Engum
08. Keezhvaanam
09. Thoomani Maadathu
10. Nottru Chuvarkam
11. Katru Karavai
12. Kanaithilam
13. Pullin Vaay
14. Ungal Puzhaikkadai
15. Elley Illankiliye
16. Nayakanaai Nindra
17. Ambaramey Thanneerey
18. Unthu Mathakalitran
19. Kuthuvilakku Eriya
20. Muppathu Moovar
21. Yetra Kalangal
22. Anganmaa Gnaalathu
23. Maarimalai Muzhanjil
24. Andru Ivvulagam
25. Oruthi Maganaai
26. Maale Manivanna
27. Koodarai Vellum
28. Karavaigal Pin Sendru
29. Sitranchiru Kaalai
30. Vanga Kadal Kadaintha

Лог создания рипа

Exact Audio Copy V1.1 from 23. June 2015
Отчёт EAC об извлечении, выполненном 6. ноября 2015, 15:09
Nithyasree Mahadevan / Thiruppavai
Дисковод: MATSHITADVD-RAM UJ8B0 Adapter: 1 ID: 0
Режим чтения : ДостоверностьИспользование точного потока : ДаОтключение кэша аудио : ДаИспользование указателей C2 : Нет
Коррекция смещения при чтении : 0Способность читать области Lead-in и Lead-out : НетЗаполнение пропущенных сэмплов тишиной : ДаУдаление блоков с тишиной в начале и конце : НетПри вычислениях CRC использовались нулевые сэмплы : ДаИнтерфейс : Встроенный Win32-интерфейс для Win NT/2000
Выходной формат : Пользовательский кодировщикВыбранный битрейт : 896 kBit/sКачество : ВысокийДобавление ID3-тега : НетУтилита сжатия : C:\flac.exeДополнительные параметры : -V -8 -T "Date=%year%" -T "Genre=%genre%" %source%
TOC извлечённого CD
Трек | Старт | Длительность | Начальный сектор | Конечный сектор --------------------------------------------------------------------- 1 | 0:00.00 | 1:49.45 | 0 | 8219 2 | 1:49.45 | 2:21.62 | 8220 | 18856 3 | 4:11.32 | 1:48.55 | 18857 | 27011 4 | 6:00.12 | 2:59.48 | 27012 | 40484 5 | 8:59.60 | 2:40.04 | 40485 | 52488 6 | 11:39.64 | 2:21.56 | 52489 | 63119 7 | 14:01.45 | 1:52.50 | 63120 | 71569 8 | 15:54.20 | 1:57.52 | 71570 | 80396 9 | 17:51.72 | 2:33.08 | 80397 | 91879 10 | 20:25.05 | 1:51.60 | 91880 | 100264 11 | 22:16.65 | 1:57.35 | 100265 | 109074 12 | 24:14.25 | 1:52.12 | 109075 | 117486 13 | 26:06.37 | 1:44.60 | 117487 | 125346 14 | 27:51.22 | 1:34.48 | 125347 | 132444 15 | 29:25.70 | 1:48.25 | 132445 | 140569 16 | 31:14.20 | 1:57.35 | 140570 | 149379 17 | 33:11.55 | 2:14.57 | 149380 | 159486 18 | 35:26.37 | 2:20.70 | 159487 | 170056 19 | 37:47.32 | 1:48.48 | 170057 | 178204 20 | 39:36.05 | 1:20.35 | 178205 | 184239 21 | 40:56.40 | 2:17.45 | 184240 | 194559 22 | 43:14.10 | 3:01.07 | 194560 | 208141 23 | 46:15.17 | 1:50.03 | 208142 | 216394 24 | 48:05.20 | 2:01.37 | 216395 | 225506 25 | 50:06.57 | 2:19.65 | 225507 | 235996 26 | 52:26.47 | 1:46.68 | 235997 | 244014 27 | 54:13.40 | 2:18.15 | 244015 | 254379 28 | 56:31.55 | 2:14.52 | 254380 | 264481 29 | 58:46.32 | 2:33.20 | 264482 | 275976 30 | 61:19.52 | 2:33.25 | 275977 | 287476
Характеристики диапазона извлечения и сообщения об ошибках
Выбранный диапазон
Имя файла C:\Nithyasree Mahadevan - Thiruppavai.wav
Пиковый уровень 100.0 % Скорость извлечения 2.1 X Качество диапазона 99.9 % CRC теста 83D4C8ED CRC копии 83D4C8ED Копирование... OK
Ошибок не произошло
Конец отчёта
==== Контрольная сумма отчёта 0B4A3E0E7C5BCCA9C28D5C425F1152BBA6C94BAE9E6C742724CB734E67F418B2 ====

Содержание индексной карты (.CUE)

REM DISCID D90EF91EREM COMMENT "ExactAudioCopy v1.1"PERFORMER "Nithyasree Mahadevan"TITLE "Thiruppavai"FILE "Nithyasree Mahadevan - Thiruppavai.flac" WAVE TRACK 01 AUDIO TITLE "Margazhi Thingal" PERFORMER "Nithyasree Mahadevan" INDEX 01 00:00:00 TRACK 02 AUDIO TITLE "Vayyathu Vazhvirkal" PERFORMER "Nithyasree Mahadevan" INDEX 00 01:49:23 INDEX 01 01:49:45 TRACK 03 AUDIO TITLE "Ongi Ulagalandha" PERFORMER "Nithyasree Mahadevan" INDEX 00 04:10:22 INDEX 01 04:11:32 TRACK 04 AUDIO TITLE "Aazhi Mazhai Kanna" PERFORMER "Nithyasree Mahadevan" INDEX 00 05:58:51 INDEX 01 06:00:12 TRACK 05 AUDIO TITLE "Maayanai" PERFORMER "Nithyasree Mahadevan" INDEX 00 08:58:74 INDEX 01 08:59:60 TRACK 06 AUDIO TITLE "Pullum Silam Beenakaan" PERFORMER "Nithyasree Mahadevan" INDEX 01 11:39:64 TRACK 07 AUDIO TITLE "Keesu Keesendru Engum" PERFORMER "Nithyasree Mahadevan" INDEX 00 13:59:69 INDEX 01 14:01:45 TRACK 08 AUDIO TITLE "Keezhvaanam" PERFORMER "Nithyasree Mahadevan" INDEX 00 15:53:02 INDEX 01 15:54:20 TRACK 09 AUDIO TITLE "Thoomani Maadathu" PERFORMER "Nithyasree Mahadevan" INDEX 00 17:50:49 INDEX 01 17:51:72 TRACK 10 AUDIO TITLE "Nottru Chuvarkam" PERFORMER "Nithyasree Mahadevan" INDEX 00 20:23:00 INDEX 01 20:25:05 TRACK 11 AUDIO TITLE "Katru Karavai" PERFORMER "Nithyasree Mahadevan" INDEX 00 22:15:34 INDEX 01 22:16:65 TRACK 12 AUDIO TITLE "Kanaithilam" PERFORMER "Nithyasree Mahadevan" INDEX 00 24:13:10 INDEX 01 24:14:25 TRACK 13 AUDIO TITLE "Pullin Vaay" PERFORMER "Nithyasree Mahadevan" INDEX 00 26:04:59 INDEX 01 26:06:37 TRACK 14 AUDIO TITLE "Ungal Puzhaikkadai" PERFORMER "Nithyasree Mahadevan" INDEX 00 27:49:66 INDEX 01 27:51:22 TRACK 15 AUDIO TITLE "Elley Illankiliye" PERFORMER "Nithyasree Mahadevan" INDEX 00 29:24:58 INDEX 01 29:25:70 TRACK 16 AUDIO TITLE "Nayakanaai Nindra" PERFORMER "Nithyasree Mahadevan" INDEX 00 31:12:56 INDEX 01 31:14:20 TRACK 17 AUDIO TITLE "Ambaramey Thanneerey" PERFORMER "Nithyasree Mahadevan" INDEX 00 33:09:64 INDEX 01 33:11:55 TRACK 18 AUDIO TITLE "Unthu Mathakalitran" PERFORMER "Nithyasree Mahadevan" INDEX 00 35:24:42 INDEX 01 35:26:37 TRACK 19 AUDIO TITLE "Kuthuvilakku Eriya" PERFORMER "Nithyasree Mahadevan" INDEX 00 37:45:26 INDEX 01 37:47:32 TRACK 20 AUDIO TITLE "Muppathu Moovar" PERFORMER "Nithyasree Mahadevan" INDEX 00 39:34:30 INDEX 01 39:36:05 TRACK 21 AUDIO TITLE "Yetra Kalangal" PERFORMER "Nithyasree Mahadevan" INDEX 00 40:55:64 INDEX 01 40:56:40 TRACK 22 AUDIO TITLE "Anganmaa Gnaalathu" PERFORMER "Nithyasree Mahadevan" INDEX 01 43:14:10 TRACK 23 AUDIO TITLE "Maarimalai Muzhanjil" PERFORMER "Nithyasree Mahadevan" INDEX 00 46:14:24 INDEX 01 46:15:17 TRACK 24 AUDIO TITLE "Andru Ivvulagam" PERFORMER "Nithyasree Mahadevan" INDEX 00 48:04:12 INDEX 01 48:05:20 TRACK 25 AUDIO TITLE "Oruthi Maganaai" PERFORMER "Nithyasree Mahadevan" INDEX 00 50:05:31 INDEX 01 50:06:57 TRACK 26 AUDIO TITLE "Maale Manivanna" PERFORMER "Nithyasree Mahadevan" INDEX 00 52:25:34 INDEX 01 52:26:47 TRACK 27 AUDIO TITLE "Koodarai Vellum" PERFORMER "Nithyasree Mahadevan" INDEX 00 54:12:34 INDEX 01 54:13:40 TRACK 28 AUDIO TITLE "Karavaigal Pin Sendru" PERFORMER "Nithyasree Mahadevan" INDEX 00 56:30:20 INDEX 01 56:31:55 TRACK 29 AUDIO TITLE "Sitranchiru Kaalai" PERFORMER "Nithyasree Mahadevan" INDEX 00 58:44:71 INDEX 01 58:46:32 TRACK 30 AUDIO TITLE "Vanga Kadal Kadaintha" PERFORMER "Nithyasree Mahadevan" INDEX 00 61:19:06 INDEX 01 61:19:52

Об альбоме (сборнике)

https://en.wikipedia.org/wiki/Thiruppavai
[doutdess.site].t88058.torrent
Torrent: Registered [ 2015-11-06 16:20 ] · D2FDFFB3CB4ED935D631C6F8033CFED2A07C052A

15 KB

Status: checked
Completed: 0 times
Size: 361 MB
(Carnatic, Tamil) Nithyasree Mahadevan - Thiruppavai - 2009, FLAC (image+.cue), lossless скачать торрент бесплатно и без регистрации

[Profile] [PM]
Forum Topic Author Size
Этническая музыка Индии lossy (Carnatic, Devotional Sanskrit) M.L. Vasanthakumari - Soundarya Lahari - 2000, MP3, 320 kbps Vi$itReal 167 MB
Этническая музыка Индии lossy (Carnatic, Devotional Sanskrit/Tamil) MS Subbulakshmi - Tirupati Lord Balaji (The Complete Collection) - Vol.1-7 - 2010, MP3, 320 kbps Vi$itReal 668 MB
Этническая музыка Индии lossless (Carnatic, Mandolin, Indian Classical) [WEB] Mandolin U. Shrinivas with D. Shreedhar - Classical Icons - U. Srinivas - 2017, FLAC (tracks), lossless RelizMAN 410 MB
Этническая музыка Индии lossless (Carnatic, Tami, Telugu) Priya Sisters - Nayaki - 2007, FLAC (image+.cue), lossless RelizMAN 336 MB
Этническая музыка Индии lossless (Carnatic, Tamil) Aruna Sairam - Arunambujam (Krithis of Ambujam Krishna) - 2007, FLAC (image+.cue), lossless RelizMAN 797 MB
Этническая музыка Индии lossless (Carnatic, Tamil) Aruna Sairam - Unnai Allal - 2007, FLAC (image+.cue), lossless RelizMAN 659 MB
Этническая музыка Индии lossless (Carnatic, Tamil) M.L. Vasanthakumari - Vasantha Vani - 2004, FLAC (image+.cue), lossless RelizMAN 199 MB
Этническая музыка Индии lossless (Carnatic, Tamil) Nithyasree Mahadevan - Ranjani Mala - 2003, FLAC (image+.cue), lossless RelizMAN 387 MB
Display posts:    

Current time is: 26-Sep 13:36

All times are UTC + 3



You cannot post new topics in this forum
You cannot reply to topics in this forum
You cannot edit your posts in this forum
You cannot delete your posts in this forum
You cannot vote in polls in this forum
You cannot attach files in this forum
You can download files in this forum