Reply to topic
DL-List and Torrent activity [Update пиров]
Size:  387 MB   |    Registered:  4 years 10 months   |    Completed:  0 times
Seeders:  576  [  0 KB/s  ]   Leechers:  30  [  0 KB/s  ]  
 
     
 
 
Author Message

RelizMAN ®

11

Post 08-Nov-2015 19:10

[Quote]

Nithyasree Mahadevan - Ranjani Mala
Жанр: Carnatic, Tamil
Носитель: CD
Страна-производитель диска (релиза): India
Год издания: 2003
Издатель (лейбл): Amutham Music
Аудиокодек: FLAC (*.flac)
Тип рипа: image+.cue
Битрейт аудио: lossless
Продолжительность: 01:08:44
Источник (релизер): собственный рип
Наличие сканов в содержимом раздачи: да
Треклист:
1.SMARANE SUKHAMU (Janaranjani - Adhi - Thyagaraja)
2.OM NAMO (Karnaranjani - Kandachapu - Ambujam Krishna)
3.MEGAME NEE (Megaranjani - Misrachapu - Lalitha Sivakumar)
4.DURMARGA (Ranjani - Roopakam- Thyagaraja)
5.MALAGIMEN (Mararanjani - Adhi - Koteeswara iyer)
6.KANAVENDAMO (Sriranjani - Roppakam - Papanasam Sivan)
7.PAAYUM OLI (Sumanesaranjani - Adhi - (Tisra Nadai) - Subramanya Bharathiyar)
8.NEENE ANATHA (Sivaranjani - Adhi - Purandara dasar)
9.RANJANI NIRANJANI (Niranjani - Kanda Eka - Kamakshi Dasar)

Лог создания рипа

Exact Audio Copy V1.1 from 23. June 2015
EAC extraction logfile from 7. November 2015, 23:59
Nithyasree Mahadevan / Ranjani Mala
Used drive : MATSHITADVD-RAM UJ8B0 Adapter: 1 ID: 0
Read mode : SecureUtilize accurate stream : YesDefeat audio cache : YesMake use of C2 pointers : No
Read offset correction : 0Overread into Lead-In and Lead-Out : NoFill up missing offset samples with silence : YesDelete leading and trailing silent blocks : NoNull samples used in CRC calculations : YesUsed interface : Native Win32 interface for Win NT & 2000
Used output format : User Defined EncoderSelected bitrate : 896 kBit/sQuality : HighAdd ID3 tag : NoCommand line compressor : C:\flac.exeAdditional command line options : -V -8 -T "Date=%year%" -T "Genre=%genre%" %source%
TOC of the extracted CD
Track | Start | Length | Start sector | End sector --------------------------------------------------------- 1 | 0:00.00 | 6:06.34 | 0 | 27483 2 | 6:06.34 | 13:07.42 | 27484 | 86550 3 | 19:14.01 | 5:33.18 | 86551 | 111543 4 | 24:47.19 | 18:47.33 | 111544 | 196101 5 | 43:34.52 | 5:21.21 | 196102 | 220197 6 | 48:55.73 | 5:20.22 | 220198 | 244219 7 | 54:16.20 | 6:40.31 | 244220 | 274250 8 | 60:56.51 | 4:56.48 | 274251 | 296498 9 | 65:53.24 | 2:51.01 | 296499 | 309324
Range status and errors
Selected range
Filename C:\Nithyasree Mahadevan - Ranjani Mala.wav
Peak level 100.0 % Extraction speed 2.2 X Range quality 100.0 % Test CRC BC8111C6 Copy CRC BC8111C6 Copy OK
No errors occurred
End of status report
==== Log checksum 9F5079359142BDE8D8E7B58BEC03BFCF594479699D7E86F79724010B2F4C2378 ====

Содержание индексной карты (.CUE)

REM DISCID 98101C09REM COMMENT "ExactAudioCopy v1.1"PERFORMER "Nithyasree Mahadevan"TITLE "Ranjani Mala"FILE "Nithyasree Mahadevan - Ranjani Mala.flac" WAVE TRACK 01 AUDIO TITLE "Smarane Sukhamu" PERFORMER "Nithyasree Mahadevan" INDEX 01 00:00:00 TRACK 02 AUDIO TITLE "Om Namo" PERFORMER "Nithyasree Mahadevan" INDEX 01 06:06:34 TRACK 03 AUDIO TITLE "Megame Nee" PERFORMER "Nithyasree Mahadevan" INDEX 00 19:05:32 INDEX 01 19:14:01 TRACK 04 AUDIO TITLE "Durmarga" PERFORMER "Nithyasree Mahadevan" INDEX 00 24:44:51 INDEX 01 24:47:19 TRACK 05 AUDIO TITLE "Malagimen" PERFORMER "Nithyasree Mahadevan" INDEX 00 43:32:14 INDEX 01 43:34:52 TRACK 06 AUDIO TITLE "Kanavendamo" PERFORMER "Nithyasree Mahadevan" INDEX 00 48:53:31 INDEX 01 48:55:73 TRACK 07 AUDIO TITLE "Paayum Oli" PERFORMER "Nithyasree Mahadevan" INDEX 00 54:13:53 INDEX 01 54:16:20 TRACK 08 AUDIO TITLE "Neene Anatha" PERFORMER "Nithyasree Mahadevan" INDEX 00 60:54:08 INDEX 01 60:56:51 TRACK 09 AUDIO TITLE "Ranjani Niranjani" PERFORMER "Nithyasree Mahadevan" INDEX 00 65:50:56 INDEX 01 65:53:24
[doutdess.site].t88436.torrent
Torrent: Registered [ 2015-11-08 19:10 ] · AE6B184FD4A20825CEC79CF28D0DC131E81D502A

16 KB

Status: checked
Completed: 0 times
Size: 387 MB
(Carnatic, Tamil) Nithyasree Mahadevan - Ranjani Mala - 2003, FLAC (image+.cue), lossless скачать торрент бесплатно и без регистрации

[Profile] [PM]
Forum Topic Author Size
Этническая музыка Индии lossy (Carnatic, Devotional Sanskrit) M.L. Vasanthakumari - Soundarya Lahari - 2000, MP3, 320 kbps Vi$itReal 167 MB
Этническая музыка Индии lossy (Carnatic, Devotional Sanskrit/Tamil) MS Subbulakshmi - Tirupati Lord Balaji (The Complete Collection) - Vol.1-7 - 2010, MP3, 320 kbps Vi$itReal 668 MB
Этническая музыка Индии lossless (Carnatic, Mandolin, Indian Classical) [WEB] Mandolin U. Shrinivas with D. Shreedhar - Classical Icons - U. Srinivas - 2017, FLAC (tracks), lossless RelizMAN 410 MB
Этническая музыка Индии lossless (Carnatic, Tami, Telugu) Priya Sisters - Nayaki - 2007, FLAC (image+.cue), lossless RelizMAN 336 MB
Этническая музыка Индии lossless (Carnatic, Tamil) Aruna Sairam - Arunambujam (Krithis of Ambujam Krishna) - 2007, FLAC (image+.cue), lossless RelizMAN 797 MB
Этническая музыка Индии lossless (Carnatic, Tamil) Aruna Sairam - Unnai Allal - 2007, FLAC (image+.cue), lossless RelizMAN 659 MB
Этническая музыка Индии lossless (Carnatic, Tamil) M.L. Vasanthakumari - Vasantha Vani - 2004, FLAC (image+.cue), lossless RelizMAN 199 MB
Этническая музыка Индии lossless (Carnatic, Tamil) Nithyasree Mahadevan - Thiruppavai - 2009, FLAC (image+.cue), lossless RelizMAN 361 MB
Display posts:    

Current time is: 20-Sep 17:13

All times are UTC + 3



You cannot post new topics in this forum
You cannot reply to topics in this forum
You cannot edit your posts in this forum
You cannot delete your posts in this forum
You cannot vote in polls in this forum
You cannot attach files in this forum
You can download files in this forum