Reply to topic
DL-List and Torrent activity [Update пиров]
Size:  199 MB   |    Registered:  4 years 10 months   |    Completed:  1 time
Seeders:  599  [  0 KB/s  ]   Leechers:  26  [  0 KB/s  ]  
 
     
 
 
Author Message

RelizMAN ®

11

Post 09-Nov-2015 11:25

[Quote]

M.L. Vasanthakumari - Vasantha Vani
Жанр: Carnatic, Tamil
Носитель: CD
Страна-производитель диска (релиза): India
Год издания: 2004
Издатель (лейбл): Amutham Music
Аудиокодек: FLAC (*.flac)
Тип рипа: image+.cue
Битрейт аудио: lossless
Продолжительность: 01:15:29
Источник (релизер): собственный рип
Наличие сканов в содержимом раздачи: да
Треклист:
1.JAGADANANDA (Nattai - Adi - Thyagaraja)
2.NENENDUVEDA (Karnataka Behag - Adi - Thyagaraja)
3.GANGEYA VASANA (Hamir Kalyani - Adi - Swathi Thirunal)
4.PANCHASHAT PEETA (Devagandharam - Adi - Muthuswami Dikshitar)
5.ANUPAMA (Atana - Jampa - Thyagaraja)
6.EVARIMATA (Kambhoji - Adi - Thyagaraja)
7.APARADHI (Misrapeelu - Adi - Purandaradasar)

Лог создания рипа

Exact Audio Copy V1.1 from 23. June 2015
EAC extraction logfile from 7. November 2015, 18:47
M. L. Vasanthakumari / Vasantha Vani
Used drive : MATSHITADVD-RAM UJ8B0 Adapter: 1 ID: 0
Read mode : SecureUtilize accurate stream : YesDefeat audio cache : YesMake use of C2 pointers : No
Read offset correction : 0Overread into Lead-In and Lead-Out : NoFill up missing offset samples with silence : YesDelete leading and trailing silent blocks : NoNull samples used in CRC calculations : YesUsed interface : Native Win32 interface for Win NT & 2000
Used output format : User Defined EncoderSelected bitrate : 896 kBit/sQuality : HighAdd ID3 tag : NoCommand line compressor : C:\flac.exeAdditional command line options : -V -8 -T "Date=%year%" -T "Genre=%genre%" %source%
TOC of the extracted CD
Track | Start | Length | Start sector | End sector --------------------------------------------------------- 1 | 0:00.00 | 8:05.51 | 0 | 36425 2 | 8:05.51 | 6:24.13 | 36426 | 65238 3 | 14:29.64 | 11:22.20 | 65239 | 116408 4 | 25:52.09 | 3:48.42 | 116409 | 133550 5 | 29:40.51 | 5:51.41 | 133551 | 159916 6 | 35:32.17 | 34:47.73 | 159917 | 316514 7 | 70:20.15 | 5:09.02 | 316515 | 339691
Range status and errors
Selected range
Filename C:\M. L. Vasanthakumari - Vasantha Vani.wav
Peak level 96.5 % Extraction speed 2.2 X Range quality 100.0 % Test CRC 4248B620 Copy CRC 4248B620 Copy OK
No errors occurred
End of status report
==== Log checksum F7F3307E0A53E496F0B7CDD69080C249B2A9181A2224F0AFC5ED5A0FEA25AAF7 ====

Содержание индексной карты (.CUE)

REM DISCID 5A11B107REM COMMENT "ExactAudioCopy v1.1"PERFORMER "M. L. Vasanthakumari"TITLE "Vasantha Vani"FILE "M. L. Vasanthakumari - Vasantha Vani.flac" WAVE TRACK 01 AUDIO TITLE "Track01" PERFORMER "M. L. Vasanthakumari" INDEX 01 00:00:00 TRACK 02 AUDIO TITLE "Track02" PERFORMER "M. L. Vasanthakumari" INDEX 00 08:05:50 INDEX 01 08:05:51 TRACK 03 AUDIO TITLE "Track03" PERFORMER "M. L. Vasanthakumari" INDEX 00 14:27:46 INDEX 01 14:29:64 TRACK 04 AUDIO TITLE "Track04" PERFORMER "M. L. Vasanthakumari" INDEX 00 25:50:09 INDEX 01 25:52:09 TRACK 05 AUDIO TITLE "Track05" PERFORMER "M. L. Vasanthakumari" INDEX 00 29:39:04 INDEX 01 29:40:51 TRACK 06 AUDIO TITLE "Track06" PERFORMER "M. L. Vasanthakumari" INDEX 00 35:30:17 INDEX 01 35:32:17 TRACK 07 AUDIO TITLE "Track07" PERFORMER "M. L. Vasanthakumari" INDEX 00 70:18:16 INDEX 01 70:20:15
[doutdess.site].t88563.torrent
Torrent: Registered [ 2015-11-09 11:25 ] · 43B6F36F9338D3A5FFBCD7DA99B39DE365D9B0DD

16 KB

Status: checked
Completed: 1 times
Size: 199 MB
(Carnatic, Tamil) M.L. Vasanthakumari - Vasantha Vani - 2004, FLAC (image+.cue), lossless скачать торрент бесплатно и без регистрации

[Profile] [PM]
Forum Topic Author Size
Этническая музыка Индии lossy (Carnatic, Devotional Sanskrit) M.L. Vasanthakumari - Soundarya Lahari - 2000, MP3, 320 kbps Vi$itReal 167 MB
Этническая музыка Индии lossy (Carnatic, Devotional Sanskrit/Tamil) MS Subbulakshmi - Tirupati Lord Balaji (The Complete Collection) - Vol.1-7 - 2010, MP3, 320 kbps Vi$itReal 668 MB
Этническая музыка Индии lossless (Carnatic, Mandolin, Indian Classical) [WEB] Mandolin U. Shrinivas with D. Shreedhar - Classical Icons - U. Srinivas - 2017, FLAC (tracks), lossless RelizMAN 410 MB
Этническая музыка Индии lossless (Carnatic, Tami, Telugu) Priya Sisters - Nayaki - 2007, FLAC (image+.cue), lossless RelizMAN 336 MB
Этническая музыка Индии lossless (Carnatic, Tamil) Aruna Sairam - Arunambujam (Krithis of Ambujam Krishna) - 2007, FLAC (image+.cue), lossless RelizMAN 797 MB
Этническая музыка Индии lossless (Carnatic, Tamil) Aruna Sairam - Unnai Allal - 2007, FLAC (image+.cue), lossless RelizMAN 659 MB
Этническая музыка Индии lossless (Carnatic, Tamil) Nithyasree Mahadevan - Ranjani Mala - 2003, FLAC (image+.cue), lossless RelizMAN 387 MB
Этническая музыка Индии lossless (Carnatic, Tamil) Nithyasree Mahadevan - Thiruppavai - 2009, FLAC (image+.cue), lossless RelizMAN 361 MB
Display posts:    

Current time is: 27-Sep 18:55

All times are UTC + 3



You cannot post new topics in this forum
You cannot reply to topics in this forum
You cannot edit your posts in this forum
You cannot delete your posts in this forum
You cannot vote in polls in this forum
You cannot attach files in this forum
You can download files in this forum