Reply to topic
DL-List and Torrent activity [Update пиров]
Size:  162 MB   |    Registered:  4 years 10 months   |    Completed:  2 times
Seeders:  860  [  0 KB/s  ]   Leechers:  11  [  0 KB/s  ]  
 
     
 
 
Author Message

RelizMAN ®

11

Post 04-Nov-2015 12:30

[Quote]

Michele McLaughlin - Undercurrent

Жанр: New Age
Год издания: 2015
Аудиокодек: FLAC (*.flac)
Тип рипа: image+.cue
Битрейт аудио: 499 kbps
Продолжительность: 00:44:55
Источник (релизер): rsfsr7
Наличие сканов в содержимом раздачи: нет
Трек-лист:
01. 11.000 Miles
02. Living In Awe
03. Changing Skies
04. Full Of Love
05. The Space Between
06. Undercurrent
07. Starstuff
08. Never Give Up
09. Evolution
10. On My Own
11. Melody In Motion
12. Stepping Stones
13. Synesthesia

Лог создания рипа

Exact Audio Copy V0.99 prebeta 5 from 4. May 2009
Отчёт EAC об извлечении, выполненном 25. сентября 2015, 15:35
Michele McLaughlin / Undercurrent (FLAC) by rsfsr7 Obninsk
Дисковод: AXV CD/DVD-ROM Adapter: 1 ID: 0
Режим чтения : ДостоверностьИспользование точного потока : ДаОтключение кэша аудио : ДаИспользование указателей C2 : Нет
Коррекция смещения при чтении : 0Способность читать области Lead-in и Lead-out : НетЗаполнение пропущенных сэмплов тишиной : ДаУдаление блоков с тишиной в начале и конце : НетПри вычислениях CRC использовались нулевые сэмплы : НетИнтерфейс : Встроенный Win32-интерфейс для Win NT/2000
Выходной формат : Пользовательский кодировщикВыбранный битрейт : 768 kBit/sКачество : ВысокийДобавление ID3-тэга : НетУтилита сжатия : C:\Program Files\Exact Audio Copy\FLAC\FLAC.EXEДополнительные параметры : -6 -V -T "ARTIST=%a" -T "TITLE=%t" -T "ALBUM=%g" -T "DATE=%y" -T "TRACKNUMBER=%n" -T "GENRE=%m" -T "COMMENT=%e" %s -o %d
TOC извлечённого CD
Трек | Старт | Длительность | Начальный сектор | Конечный сектор --------------------------------------------------------------------- 1 | 0:00.00 | 3:25.48 | 0 | 15422 2 | 3:25.48 | 4:24.46 | 15423 | 35268 3 | 7:50.19 | 2:22.19 | 35269 | 45937 4 | 10:12.38 | 3:41.15 | 45938 | 62527 5 | 13:53.53 | 4:26.63 | 62528 | 82540 6 | 18:20.41 | 3:18.40 | 82541 | 97430 7 | 21:39.06 | 3:19.06 | 97431 | 112361 8 | 24:58.12 | 2:44.47 | 112362 | 124708 9 | 27:42.59 | 4:04.58 | 124709 | 143066 10 | 31:47.42 | 3:28.40 | 143067 | 158706 11 | 35:16.07 | 3:08.47 | 158707 | 172853 12 | 38:24.54 | 2:40.15 | 172854 | 184868 13 | 41:04.69 | 3:49.35 | 184869 | 202078
Характеристики диапазона извлечения и сообщения об ошибках
Выбранный диапазон
Имя файла C:\Michele McLaughlin - Undercurrent (FLAC) by rsfsr7 Obninsk.wav
Пиковый уровень 99.2 % Качество диапазона 99.9 % CRC теста 417407BC CRC копии 417407BC Копирование... OK
Ошибок не произошло
Конец отчёта

Содержание индексной карты (.CUE)

REM GENRE "New Age"REM DATE 2015REM DISCID 8F0A860DREM COMMENT "ExactAudioCopy v0.99pb5"PERFORMER "Michele McLaughlin"TITLE "Undercurrent (FLAC) by rsfsr7 Obninsk"FILE "Michele McLaughlin - Undercurrent (FLAC) by rsfsr7 Obninsk.flac" WAVE TRACK 01 AUDIO TITLE "11.000 Miles" PERFORMER "Michele McLaughlin" FLAGS DCP INDEX 01 00:00:00 TRACK 02 AUDIO TITLE "Living In Awe" PERFORMER "Michele McLaughlin" FLAGS DCP INDEX 01 03:25:48 TRACK 03 AUDIO TITLE "Changing Skies" PERFORMER "Michele McLaughlin" FLAGS DCP INDEX 01 07:50:19 TRACK 04 AUDIO TITLE "Full Of Love" PERFORMER "Michele McLaughlin" FLAGS DCP INDEX 01 10:12:38 TRACK 05 AUDIO TITLE "The Space Between" PERFORMER "Michele McLaughlin" FLAGS DCP INDEX 01 13:53:53 TRACK 06 AUDIO TITLE "Undercurrent" PERFORMER "Michele McLaughlin" FLAGS DCP INDEX 01 18:20:41 TRACK 07 AUDIO TITLE "Starstuff" PERFORMER "Michele McLaughlin" FLAGS DCP INDEX 01 21:39:06 TRACK 08 AUDIO TITLE "Never Give Up" PERFORMER "Michele McLaughlin" FLAGS DCP INDEX 01 24:58:12 TRACK 09 AUDIO TITLE "Evolution" PERFORMER "Michele McLaughlin" FLAGS DCP INDEX 01 27:42:59 TRACK 10 AUDIO TITLE "On My Own" PERFORMER "Michele McLaughlin" FLAGS DCP INDEX 01 31:47:42 TRACK 11 AUDIO TITLE "Melody In Motion" PERFORMER "Michele McLaughlin" FLAGS DCP INDEX 01 35:16:07 TRACK 12 AUDIO TITLE "Stepping Stones" PERFORMER "Michele McLaughlin" FLAGS DCP INDEX 01 38:24:54 TRACK 13 AUDIO TITLE "Synesthesia" PERFORMER "Michele McLaughlin" FLAGS DCP INDEX 01 41:04:69

Лог проверки качества

-----------------------
DON'T MODIFY THIS FILE
-----------------------
PERFORMER: auCDtect Task Manager, ver. 1.5.1RC4 build 1.5.1.5Copyright (c) 2008-2010 y-soft. All rights reservedhttp://y-soft.org
ANALYZER: auCDtect: CD records authenticity detector, version 0.8.2Copyright (c) 2004 Oleg Berngardt. All rights reserved.Copyright (c) 2004 Alexander Djourik. All rights reserved.
FILE: Michele McLaughlin - Undercurrent (FLAC) by rsfsr7 Obninsk.flac Size: 168092355 Hash: 9E22842410BA7D1C563141E13F578AAA Accuracy: -m0 Conclusion: CDDA 85% Signature: DF7800C5D0E2CB5EA4A343781605FD5F3BE5B54F

Скриншот спектра частот

[doutdess.site].t87685.torrent
Torrent: Registered [ 2015-11-04 12:30 ] · 20E8B013176D822059127A4D54547548B31D97A2

14 KB

Status: checked
Completed: 2 times
Size: 162 MB
(New Age) Michele McLaughlin - Undercurrent (2015) FLAC (image+.cue), lossless скачать торрент бесплатно и без регистрации

[Profile] [PM]
Forum Topic Author Size
NewAge & Meditative lossless (New Age) Al Gromer Khan & Emin Corrado - Tantra Electronica - 2004, FLAC (tracks+.cue), lossless RelizMAN 284 MB
NewAge & Meditative lossless (New Age) Al Gromer Khan - Negus - The Royal Principle - 2008, FLAC (tracks+.cue), lossless RelizMAN 227 MB
NewAge & Meditative lossless (New Age) Amethystium - 2005 - "Transversa" [APE (image + .cue)], lossless RelizMAN 437 MB
NewAge & Meditative lossy (New Age) Ani Williams - Goddess In The Field of Light - 2019, MP3 (tracks), 320 kbps Vi$itReal 161 MB
NewAge & Meditative lossless (New Age) Anima - Temple of the Stars - 2010, FLAC (tracks+.cue), lossless RelizMAN 376 MB
NewAge & Meditative lossless (New Age) Anne Linnet - Relax, No. 1 - 2003, FLAC (tracks+.cue), lossless RelizMAN 312 MB
NewAge & Meditative lossless (New Age) Anthony Miles - Music For Children - 1995, APE (image+.cue) lossless RelizMAN 212 MB
NewAge & Meditative lossless (New Age) Anuragi - Highway Back Home (1990), Morning & Evening Meditation (1992), APE (image + .cue), lossless RelizMAN 331 MB
Display posts:    

Current time is: 25-Sep 21:28

All times are UTC + 3



You cannot post new topics in this forum
You cannot reply to topics in this forum
You cannot edit your posts in this forum
You cannot delete your posts in this forum
You cannot vote in polls in this forum
You cannot attach files in this forum
You can download files in this forum