Reply to topic
DL-List and Torrent activity [Update пиров]
Size:  331 MB   |    Registered:  4 years 10 months   |    Completed:  0 times
Seeders:  317  [  0 KB/s  ]   Leechers:  21  [  0 KB/s  ]  
 
     
 
 
Author Message

RelizMAN ®

11

Post 06-Nov-2015 01:15

[Quote]

Malola Kannan - Ramanusa Nottrandhadi
Жанр: Tamil Recital
Носитель: CD
Страна-производитель диска (релиза): India
Год издания: 2006
Издатель (лейбл): Amutham Music
Аудиокодек: FLAC (*.flac)
Тип рипа: image+.cue
Битрейт аудио: lossless
Продолжительность: 01:04:31
Источник (релизер): собственный рип
Наличие сканов в содержимом раздачи: да
Треклист:
01. Ramanusa Nottrandhadi
02. Prabhanda Saram
03. Pillaiandhadi

Об альбоме (сборнике)

Ramanusa Nottrandhadi is a classical hymn in praise of Sri Ramanuja. Prabhanda Saram is the work of Vedanta Desika. Pillaiandhadi is a small poetical work about Vedanta Desika by his illustrious son Nainaarcharya.

Лог создания рипа

Exact Audio Copy V1.1 from 23. June 2015
Отчёт EAC об извлечении, выполненном 4. ноября 2015, 23:13
Maalola Kannan / Ramanusa Nottrandhadi
Дисковод: MATSHITADVD-RAM UJ8B0 Adapter: 1 ID: 0
Режим чтения : Скоростной
Коррекция смещения при чтении : 0
Способность читать области Lead-in и Lead-out : Нет
Заполнение пропущенных сэмплов тишиной : Да
Удаление блоков с тишиной в начале и конце : Нет
При вычислениях CRC использовались нулевые сэмплы : Да
Интерфейс : Встроенный Win32-интерфейс для Win NT/2000
Выходной формат : Пользовательский кодировщик
Выбранный битрейт : 896 kBit/s
Качество : Высокий
Добавление ID3-тега : Нет
Утилита сжатия : C:\flac.exe
Дополнительные параметры : -V -8 -T "Date=%year%" -T "Genre=%genre%" %source%
TOC извлечённого CD
Трек | Старт | Длительность | Начальный сектор | Конечный сектор
---------------------------------------------------------------------
1 | 0:00.00 | 42:31.05 | 0 | 191329
2 | 42:31.05 | 12:23.68 | 191330 | 247122
3 | 54:54.73 | 9:36.27 | 247123 | 290349
Характеристики диапазона извлечения и сообщения об ошибках
Выбранный диапазон
Имя файла C:\Maalola Kannan - Ramanusa Nottrandhadi.wav
Пиковый уровень 100.0 %
Скорость извлечения 6.8 X
CRC теста FAE0406F
CRC копии FAE0406F
Копирование... OK
Ошибок не произошло
Конец отчёта
==== Контрольная сумма отчёта D1655672F4D9E496A393D8497ECD663CA5CF8DD7D5099EBEDAE65A66C21557FD ====

Содержание индексной карты (.CUE)

REM GENRE "Sanskrit Recital"
REM DATE 2006
REM DISCID 250F1F03
REM COMMENT "ExactAudioCopy v1.1"
PERFORMER "Maalola Kannan"
TITLE "Ramanusa Nottrandhadi"
FILE "Maalola Kannan - Ramanusa Nottrandhadi.flac" WAVE
TRACK 01 AUDIO
TITLE "Ramanusa Nottrandhadi"
PERFORMER "Maalola Kannan"
FLAGS DCP
INDEX 01 00:00:00
TRACK 02 AUDIO
TITLE "Prabhanda Saram"
PERFORMER "Maalola Kannan"
FLAGS DCP
INDEX 01 42:31:05
TRACK 03 AUDIO
TITLE "Pillaiandhadi"
PERFORMER "Maalola Kannan"
FLAGS DCP
INDEX 00 54:54:04
INDEX 01 54:54:73
[doutdess.site].t87976.torrent
Torrent: Registered [ 2015-11-06 01:15 ] · 632F1FD47F8695B93DB82178645F091FC678772E

14 KB

Status: checked
Completed: 0 times
Size: 331 MB
(Tamil Recital) Malola Kannan - Ramanusa Nottrandhadi - 2005, FLAC (image+.cue), lossless скачать торрент бесплатно и без регистрации

[Profile] [PM]
Display posts:    

Current time is: 27-Sep 04:43

All times are UTC + 3



You cannot post new topics in this forum
You cannot reply to topics in this forum
You cannot edit your posts in this forum
You cannot delete your posts in this forum
You cannot vote in polls in this forum
You cannot attach files in this forum
You can download files in this forum