Reply to topic
DL-List and Torrent activity [Update пиров]
Size:  405 MB   |    Registered:  4 years 10 months   |    Completed:  0 times
Seeders:  322  [  0 KB/s  ]   Leechers:  20  [  0 KB/s  ]  
 
     
 
 
Author Message

RelizMAN ®

11

Post 05-Nov-2015 00:20

[Quote]

Malola Kannan - Desika Stotram
Жанр: Sanskrit Recital
Носитель: CD
Страна-производитель диска (релиза): India
Год издания: 2005
Издатель (лейбл): Amutham Music
Аудиокодек: FLAC (*.flac)
Тип рипа: image+.cue
Битрейт аудио: lossless
Продолжительность: 01:10:13
Источник (релизер): собственный рип
Наличие сканов в содержимом раздачи: да
Треклист:
01. Hayagreeva Stotram
02. Dasavathara Stotram
03. Sri Stuthi
04. Kamasikasthakam
05. Raghuveera gadhyam
06. Sri Gopala Vimsathi
07. Godha Stuthi
08. Sri Vedantha Desika Mangalam

Лог создания рипа

Exact Audio Copy V1.1 from 23. June 2015
Отчёт EAC об извлечении, выполненном 4. ноября 2015, 23:48
Maalola Kannan / Unknown Title
Дисковод: MATSHITADVD-RAM UJ8B0 Adapter: 1 ID: 0
Режим чтения : Скоростной
Коррекция смещения при чтении : 0Способность читать области Lead-in и Lead-out : НетЗаполнение пропущенных сэмплов тишиной : ДаУдаление блоков с тишиной в начале и конце : НетПри вычислениях CRC использовались нулевые сэмплы : ДаИнтерфейс : Встроенный Win32-интерфейс для Win NT/2000
Выходной формат : Пользовательский кодировщикВыбранный битрейт : 896 kBit/sКачество : ВысокийДобавление ID3-тега : НетУтилита сжатия : C:\flac.exeДополнительные параметры : -V -8 -T "Date=%year%" -T "Genre=%genre%" %source%
TOC извлечённого CD
Трек | Старт | Длительность | Начальный сектор | Конечный сектор --------------------------------------------------------------------- 1 | 0:00.00 | 12:23.21 | 0 | 55745 2 | 12:23.21 | 7:53.30 | 55746 | 91250 3 | 20:16.51 | 11:24.00 | 91251 | 142550 4 | 31:40.51 | 4:13.72 | 142551 | 161597 5 | 35:54.48 | 10:43.03 | 161598 | 209825 6 | 46:37.51 | 7:50.63 | 209826 | 245138 7 | 54:28.39 | 11:44.10 | 245139 | 297948 8 | 66:12.49 | 4:01.25 | 297949 | 316048
Характеристики диапазона извлечения и сообщения об ошибках
Выбранный диапазон
Имя файла C:\Maalola Kannan - Unknown Title.wav
Пиковый уровень 100.0 % Скорость извлечения 6.9 X CRC теста C2D3CBEB CRC копии C2D3CBEB Копирование... OK
Ошибок не произошло
Конец отчёта
==== Контрольная сумма отчёта 13C3C9B9E202D9F41BEE63AD210D6C3F3DF1BCD879CB37E1B83F9BB0FADAF134 ====

Содержание индексной карты (.CUE)

REM GENRE "Sanskrit Recital"REM DATE 2005REM DISCID 76107508REM COMMENT "ExactAudioCopy v1.1"PERFORMER "Maalola Kannan"TITLE "Unknown Title"FILE "Maalola Kannan - Unknown Title.flac" WAVE TRACK 01 AUDIO TITLE "Hayagreeva Stotram" PERFORMER "Maalola Kannan" INDEX 01 00:00:00 TRACK 02 AUDIO TITLE "Dasavathara Stotram" PERFORMER "Maalola Kannan" INDEX 01 12:23:21 TRACK 03 AUDIO TITLE "Sri Stuthi" PERFORMER "Maalola Kannan" INDEX 00 20:15:02 INDEX 01 20:16:51 TRACK 04 AUDIO TITLE "Kamasikasthakam" PERFORMER "Maalola Kannan" INDEX 00 31:38:47 INDEX 01 31:40:51 TRACK 05 AUDIO TITLE "Raghuveera gadhyam" PERFORMER "Maalola Kannan" INDEX 00 35:52:44 INDEX 01 35:54:48 TRACK 06 AUDIO TITLE "Sri Gopala Vimsathi" PERFORMER "Maalola Kannan" INDEX 00 46:35:47 INDEX 01 46:37:51 TRACK 07 AUDIO TITLE "Godha Stuthi" PERFORMER "Maalola Kannan" INDEX 00 54:26:42 INDEX 01 54:28:39 TRACK 08 AUDIO TITLE "Sri Vedantha Desika Mangalam" PERFORMER "Maalola Kannan" INDEX 00 66:10:45 INDEX 01 66:12:49
[doutdess.site].t87797.torrent
Torrent: Registered [ 2015-11-05 00:20 ] · 0F72D33C181519481EB64DE2D1D261CC28A5C6F7

17 KB

Status: checked
Completed: 0 times
Size: 405 MB
(Sanskrit Recital) Malola Kannan - Desika Stotram - 2005, FLAC (image+.cue), lossless скачать торрент бесплатно и без регистрации

[Profile] [PM]
Forum Topic Author Size
Этническая музыка Индии lossless (Sanskrit Devotional) Nithyasree Mahadevan - Sri Devi Yagna, Vol.1-8 - 2009, FLAC (image+.cue), lossless RelizMAN 2.98 GB
Этническая музыка Индии lossless (Sanskrit Devotional) Sri Vidyabhushana - Shreeman Madhvacharya\'s Dwadasha Sthotrani - 2004, FLAC (image+.cue), lossless RelizMAN 439 MB
Этническая музыка Индии lossless (Sanskrit Devotional) Sri Vidyabhushana - Sri Hari Vayu Stuti, FLAC (image+.cue), lossless RelizMAN 267 MB
Этническая музыка Индии lossless (Sanskrit Devotional, Tamil) Smt. R Vedavalli - Shri Vedanta Desikar Sthothra Maala - 2005-2006, FLAC (image+.cue), lossless RelizMAN 617 MB
Этническая музыка Индии lossless (Sanskrit Recital) Malola Kannan - Sama Gosham - 2008, FLAC (image+.cue), lossless RelizMAN 384 MB
Display posts:    

Current time is: 20-Sep 14:01

All times are UTC + 3



You cannot post new topics in this forum
You cannot reply to topics in this forum
You cannot edit your posts in this forum
You cannot delete your posts in this forum
You cannot vote in polls in this forum
You cannot attach files in this forum
You can download files in this forum