Reply to topic
DL-List and Torrent activity [Update пиров]
Size:  1.72 GB   |    Registered:  4 years 10 months   |    Completed:  6 times
Seeders:  60  [  0 KB/s  ]   Leechers:  9  [  0 KB/s  ]  
 
     
 
 
Author Message

RelizMAN ®

11

Post 09-Nov-2015 15:45

[Quote]

Linda Ronstadt - Box Set [5CD] - 1999
Жанр: country rock
Страна-производитель диска: EU
Год первого выпуска: 1999
Год настоящего издания: 1999
Издатель (лейбл): Elektra Records / WEA
Номер по каталогу: 7559-62717-2
Format: 4xCD, Compilation
Страна исполнителя (группы): US
Аудиокодек: FLAC (*.flac)
Тип рипа: tracks+.cue
Битрейт аудио: lossless
Источник (релизер): What.CD
Наличие сканов в содержимом раздачи: да

CD1: Album Retrospective

Продолжительность: 01:15:25
Треклист:
01. When We Ran (05:08)
02. Ruler of My Heart (03:36)
03. Cry 'Til My Tears Run Dry (04:03)
04. We Will Rock You (01:29)
05. Winter Light (03:19)
06. Anyone Who Had a Heart (03:27)
07. I Just Don't Know What to Do With Myself (03:13)
08. Don't Talk (Put Your Head on My Shoulder) (03:18)
09. Do What You Gotta Do (03:26)
10. Heartbeats Accelerating (03:50)
11. Goodbye My Friend (03:49)
12. Adios (03:37)
13. Cry Like a Rainstorm (03:37)
14. Trouble Again (03:20)
15. Easy for You to Say (04:04)
16. The Moon Is a Harsh Mistress (03:05)
17. Get Closer (02:33)
18. Hurt So Bad (03:16)
19. I Can't Let Go (02:43)
20. Ooo Baby Baby (03:21)
21. Just One Look (03:21)
22. Poor, Poor Pitiful Me (03:43)

Лог создания рипа

Exact Audio Copy V1.0 beta 3 from 29. August 2011
EAC extraction logfile from 27. January 2014, 23:26
Linda Ronstadt / The Linda Ronstadt Box Set: Disc 1 - Album Retrospective
Used drive : TSSTcorpCDDVDW TS-H653B Adapter: 1 ID: 1
Read mode : SecureUtilize accurate stream : YesDefeat audio cache : YesMake use of C2 pointers : No
Read offset correction : 6Overread into Lead-In and Lead-Out : NoFill up missing offset samples with silence : YesDelete leading and trailing silent blocks : NoNull samples used in CRC calculations : YesUsed interface : Native Win32 interface for Win NT & 2000Gap handling : Appended to previous track
Used output format : User Defined EncoderSelected bitrate : 1024 kBit/sQuality : HighAdd ID3 tag : NoCommand line compressor : C:\Program Files\Exact Audio Copy [CD ripper]\Flac\flac.exeAdditional command line options : -8 -V -T "ARTIST=%artist%" -T "TITLE=%title%" -T "ALBUM=%albumtitle%" -T "DATE=%year%" -T "TRACKNUMBER=%tracknr%" -T "GENRE=%genre%" -T "PERFORMER=%albuminterpret%" -T "COMPOSER=%composer%" %haslyrics%--tag-from-file=LYRICS="%lyricsfile%"%haslyrics% -T "ALBUMARTIST=%albumartist%" -T "DISCNUMBER=%cdnumber%" -T "TOTALDISCS=%totalcds%" -T "TOTALTRACKS=%numtracks%" -T "COMMENT=%comment%" %source% -o %dest%
TOC of the extracted CD
Track | Start | Length | Start sector | End sector --------------------------------------------------------- 1 | 0:00.32 | 5:08.53 | 32 | 23184 2 | 5:09.10 | 3:36.20 | 23185 | 39404 3 | 8:45.30 | 4:03.10 | 39405 | 57639 4 | 12:48.40 | 1:29.47 | 57640 | 64361 5 | 14:18.12 | 3:19.08 | 64362 | 79294 6 | 17:37.20 | 3:27.55 | 79295 | 94874 7 | 21:05.00 | 3:13.05 | 94875 | 109354 8 | 24:18.05 | 3:18.22 | 109355 | 124226 9 | 27:36.27 | 3:26.05 | 124227 | 139681 10 | 31:02.32 | 3:50.43 | 139682 | 156974 11 | 34:53.00 | 3:49.00 | 156975 | 174149 12 | 38:42.00 | 3:37.52 | 174150 | 190476 13 | 42:19.52 | 3:37.18 | 190477 | 206769 14 | 45:56.70 | 3:20.07 | 206770 | 221776 15 | 49:17.02 | 4:04.48 | 221777 | 240124 16 | 53:21.50 | 3:05.02 | 240125 | 254001 17 | 56:26.52 | 2:33.05 | 254002 | 265481 18 | 58:59.57 | 3:16.18 | 265482 | 280199 19 | 62:16.00 | 2:43.37 | 280200 | 292461 20 | 64:59.37 | 3:21.60 | 292462 | 307596 21 | 68:21.22 | 3:21.28 | 307597 | 322699 22 | 71:42.50 | 3:43.37 | 322700 | 339461
Track 1
Filename G:\USENET and TORRENTS\MUSIC\RIPPING FROM EAC\Linda Ronstadt - 01 - When We Ran.wav
Pre-gap length 0:00:02.42
Peak level 100.0 % Extraction speed 2.0 X Track quality 100.0 % Test CRC 0D4DFB39 Copy CRC 0D4DFB39 Accurately ripped (confidence 9) [65FB29D5] (AR v2) Copy OK
Track 2
Filename G:\USENET and TORRENTS\MUSIC\RIPPING FROM EAC\Linda Ronstadt - 02 - Ruler Of My Heart.wav
Pre-gap length 0:00:01.73
Peak level 100.0 % Extraction speed 2.1 X Track quality 100.0 % Test CRC F4E0E761 Copy CRC F4E0E761 Accurately ripped (confidence 9) [64924559] (AR v2) Copy OK
Track 3
Filename G:\USENET and TORRENTS\MUSIC\RIPPING FROM EAC\Linda Ronstadt - 03 - Cry eTil My Tears Run Dry.wav
Pre-gap length 0:00:01.66
Peak level 100.0 % Extraction speed 2.3 X Track quality 100.0 % Test CRC 4E4F159A Copy CRC 4E4F159A Accurately ripped (confidence 10) [EB9FBBCA] (AR v2) Copy OK
Track 4
Filename G:\USENET and TORRENTS\MUSIC\RIPPING FROM EAC\Linda Ronstadt - 04 - We Will Rock You.wav
Pre-gap length 0:00:02.13
Peak level 97.8 % Extraction speed 1.4 X Track quality 99.8 % Test CRC BDED939A Copy CRC BDED939A Accurately ripped (confidence 10) [C4AE51D8] (AR v2) Copy OK
Track 5
Filename G:\USENET and TORRENTS\MUSIC\RIPPING FROM EAC\Linda Ronstadt - 05 - Winter Light.wav
Peak level 100.0 % Extraction speed 2.4 X Track quality 100.0 % Test CRC 417DB56A Copy CRC 417DB56A Accurately ripped (confidence 9) [F6546D8E] (AR v2) Copy OK
Track 6
Filename G:\USENET and TORRENTS\MUSIC\RIPPING FROM EAC\Linda Ronstadt - 06 - Anyone Who Had A Heart.wav
Pre-gap length 0:00:01.80
Peak level 100.0 % Extraction speed 2.5 X Track quality 100.0 % Test CRC B0CE4704 Copy CRC B0CE4704 Accurately ripped (confidence 9) [B5454F19] (AR v2) Copy OK
Track 7
Filename G:\USENET and TORRENTS\MUSIC\RIPPING FROM EAC\Linda Ronstadt - 07 - I Just Don't Know What To Do With Myself.wav
Pre-gap length 0:00:01.57
Peak level 100.0 % Extraction speed 2.6 X Track quality 100.0 % Test CRC 3D991D7B Copy CRC 3D991D7B Accurately ripped (confidence 9) [62C2E4C2] (AR v2) Copy OK
Track 8
Filename G:\USENET and TORRENTS\MUSIC\RIPPING FROM EAC\Linda Ronstadt - 08 - Don't Talk (Put Your Head On My Shoulder).wav
Pre-gap length 0:00:01.30
Peak level 100.0 % Extraction speed 2.8 X Track quality 100.0 % Test CRC 84CC6557 Copy CRC 84CC6557 Accurately ripped (confidence 10) [6F698AD4] (AR v2) Copy OK
Track 9
Filename G:\USENET and TORRENTS\MUSIC\RIPPING FROM EAC\Linda Ronstadt - 09 - Do What You Gotta Do.wav
Pre-gap length 0:00:02.16
Peak level 100.0 % Extraction speed 2.8 X Track quality 100.0 % Test CRC 1F8F10B1 Copy CRC 1F8F10B1 Accurately ripped (confidence 10) [A03DC141] (AR v2) Copy OK
Track 10
Filename G:\USENET and TORRENTS\MUSIC\RIPPING FROM EAC\Linda Ronstadt - 10 - Heartbeats Accelerating.wav
Pre-gap length 0:00:01.16
Peak level 100.0 % Extraction speed 3.0 X Track quality 100.0 % Test CRC 59199ECA Copy CRC 59199ECA Accurately ripped (confidence 10) [343226F7] (AR v2) Copy OK
Track 11
Filename G:\USENET and TORRENTS\MUSIC\RIPPING FROM EAC\Linda Ronstadt - 11 - Goodbye My Friend.wav
Pre-gap length 0:00:01.40
Peak level 100.0 % Extraction speed 3.1 X Track quality 100.0 % Test CRC 46A41D36 Copy CRC 46A41D36 Accurately ripped (confidence 10) [8DD59882] (AR v2) Copy OK
Track 12
Filename G:\USENET and TORRENTS\MUSIC\RIPPING FROM EAC\Linda Ronstadt - 12 - Adios.wav
Pre-gap length 0:00:02.17
Peak level 100.0 % Extraction speed 3.2 X Track quality 100.0 % Test CRC 168B8230 Copy CRC 168B8230 Accurately ripped (confidence 10) [5FBCA669] (AR v2) Copy OK
Track 13
Filename G:\USENET and TORRENTS\MUSIC\RIPPING FROM EAC\Linda Ronstadt - 13 - Cry Like A Rainstorm.wav
Pre-gap length 0:00:01.49
Peak level 100.0 % Extraction speed 3.3 X Track quality 100.0 % Test CRC 567DECE5 Copy CRC 567DECE5 Accurately ripped (confidence 9) [DB290950] (AR v2) Copy OK
Track 14
Filename G:\USENET and TORRENTS\MUSIC\RIPPING FROM EAC\Linda Ronstadt - 14 - Trouble Again.wav
Pre-gap length 0:00:01.73
Peak level 100.0 % Extraction speed 3.3 X Track quality 100.0 % Test CRC ADE35FB1 Copy CRC ADE35FB1 Accurately ripped (confidence 10) [854A74A3] (AR v2) Copy OK
Track 15
Filename G:\USENET and TORRENTS\MUSIC\RIPPING FROM EAC\Linda Ronstadt - 15 - Easy For You To Say.wav
Pre-gap length 0:00:01.53
Peak level 100.0 % Extraction speed 3.5 X Track quality 100.0 % Test CRC A17171FD Copy CRC A17171FD Accurately ripped (confidence 9) [E3197943] (AR v2) Copy OK
Track 16
Filename G:\USENET and TORRENTS\MUSIC\RIPPING FROM EAC\Linda Ronstadt - 16 - The Moon Is A Harsh Mistress.wav
Pre-gap length 0:00:01.60
Peak level 100.0 % Extraction speed 3.5 X Track quality 100.0 % Test CRC 80F7BC9E Copy CRC 80F7BC9E Accurately ripped (confidence 9) [0712E1FD] (AR v2) Copy OK
Track 17
Filename G:\USENET and TORRENTS\MUSIC\RIPPING FROM EAC\Linda Ronstadt - 17 - Get Closer.wav
Pre-gap length 0:00:01.46
Peak level 100.0 % Extraction speed 2.2 X Track quality 99.9 % Test CRC 2E0E34E5 Copy CRC 2E0E34E5 Accurately ripped (confidence 10) [095CE876] (AR v2) Copy OK
Track 18
Filename G:\USENET and TORRENTS\MUSIC\RIPPING FROM EAC\Linda Ronstadt - 18 - Hurts So Bad.wav
Pre-gap length 0:00:02.02
Peak level 100.0 % Extraction speed 3.6 X Track quality 100.0 % Test CRC 97E8A53E Copy CRC 97E8A53E Accurately ripped (confidence 10) [2264A4E2] (AR v2) Copy OK
Track 19
Filename G:\USENET and TORRENTS\MUSIC\RIPPING FROM EAC\Linda Ronstadt - 19 - I Can't Let Go.wav
Pre-gap length 0:00:02.10
Peak level 100.0 % Extraction speed 3.6 X Track quality 100.0 % Test CRC E0CC3F6E Copy CRC E0CC3F6E Accurately ripped (confidence 10) [25610A12] (AR v2) Copy OK
Track 20
Filename G:\USENET and TORRENTS\MUSIC\RIPPING FROM EAC\Linda Ronstadt - 20 - Ooh Baby Baby.wav
Pre-gap length 0:00:01.86
Peak level 100.0 % Extraction speed 3.7 X Track quality 100.0 % Test CRC A5B6D902 Copy CRC A5B6D902 Accurately ripped (confidence 10) [B3C09E20] (AR v2) Copy OK
Track 21
Filename G:\USENET and TORRENTS\MUSIC\RIPPING FROM EAC\Linda Ronstadt - 21 - Just One Look.wav
Pre-gap length 0:00:01.56
Peak level 100.0 % Extraction speed 3.9 X Track quality 100.0 % Test CRC 00492F27 Copy CRC 00492F27 Accurately ripped (confidence 10) [79EEF78A] (AR v2) Copy OK
Track 22
Filename G:\USENET and TORRENTS\MUSIC\RIPPING FROM EAC\Linda Ronstadt - 22 - Poor Poor Pitiful Me.wav
Pre-gap length 0:00:01.30
Peak level 100.0 % Extraction speed 2.2 X Track quality 99.9 % Test CRC 4F4101EC Copy CRC 4F4101EC Accurately ripped (confidence 10) [98232431] (AR v2) Copy OK
All tracks accurately ripped
No errors occurred
End of status report
==== Log checksum E350ADEA48FBCDAEE92EB3AD04D7FC801E32EECAE2C3CA29467F192ED359FAFF ====

Содержание индексной карты (.CUE)

REM GENRE Pop/RockREM DATE 1999REM DISCID 3911AE16REM COMMENT "ExactAudioCopy v1.0b3"CATALOG 0075596247221PERFORMER "Linda Ronstadt"TITLE "The Linda Ronstadt Box Set: Disc 1 - Album Retrospective"FILE "Linda Ronstadt - 01 - When We Ran.wav" WAVE TRACK 01 AUDIO TITLE "When We Ran" PERFORMER "Linda Ronstadt" ISRC H2
[doutdess.site].t88590.torrent
Torrent: Registered [ 2015-11-09 15:45 ] · 8586A0308C2740900CD194A68D206DEBA6775762

27 KB

Status: checked
Completed: 6 times
Size: 1.72 GB
(country rock) Linda Ronstadt - Box Set [5CD] - 1999, FLAC (tracks+.cue), lossless скачать торрент бесплатно и без регистрации

[Profile] [PM]
Forum Topic Author Size
Country, Bluegrass lossy (Country Rap / Country) Charlie Farley - Winning With the Losers - 2018, MP3, 192 kbps Vi$itReal 55 MB
Country, Bluegrass lossy (Country Rap / Country) VA - Mud Digger 9 - 2018, MP3, 192 kbps Vi$itReal 61 MB
Country, Bluegrass lossy (Country Rap) Boondock Kingz, Mic Manik - ManiKingz(2018) - 2018, MP3, 192 kbps Vi$itReal 62 MB
Country, Bluegrass lossy (Country Rap) Sloppy Jones - Sloppy Jones - 2019, MP3, 192 kbps Vi$itReal 51 MB
Country, Bluegrass lossy (Country rap) VA - Party in the Woods Vol 1 - 2018, MP3, 192 kbps Vi$itReal 47 MB
Зарубежный Рэп, Хип-Хоп lossless (Country Rap) [CD] Mikel Knight - Urban Cowboy - 2014, FLAC (tracks+.cue), lossless Vi$itReal 539 MB
Country, Bluegrass lossless (Country Rap) [WEB] Cowboy Troy - Black In The Saddle - 2007, FLAC (tracks), lossless RelizMAN 328 MB
Country, Bluegrass lossless (Country Rap) [WEB] Cowboy Troy - Loco Motive - 2005, FLAC (tracks), lossless RelizMAN 313 MB
Display posts:    

Current time is: 27-Sep 06:38

All times are UTC + 3



You cannot post new topics in this forum
You cannot reply to topics in this forum
You cannot edit your posts in this forum
You cannot delete your posts in this forum
You cannot vote in polls in this forum
You cannot attach files in this forum
You can download files in this forum