Reply to topic
DL-List and Torrent activity [Update пиров]
Size:  191 MB   |    Registered:  4 years 10 months   |    Completed:  0 times
Seeders:  246  [  0 KB/s  ]   Leechers:  33  [  0 KB/s  ]  
 
     
 
 
Author Message

RelizMAN ®

11

Post 05-Nov-2015 23:05

[Quote]

Johannes Brahms - Piano Sonata No.3; Handel Variations - Jonathan Plowright
Жанр: Classical
Страна-производитель диска: Sweden
Год издания диска: 2012
Издатель (лейбл): BIS
Номер по каталогу: BIS-SACD-2047
Дата записи: 2011
Аудиокодек: FLAC
Тип рипа: image+.cue
Битрейт аудио: lossless
Продолжительность: 72:45
Источник: собственный рип
Наличие сканов в содержимом раздачи: да
Треклист:
Johannes Brahms (1833–97)
[1]-[5] Piano Sonata No. 3 in F minor, Op. 5 (1853)
[6]-[32] Variations and Fugue on a Theme by Handel, Op. 24 (1861)
Исполнители:
Jonathan Plowright piano

Лог создания рипа

Exact Audio Copy V1.0 beta 3 from 29. August 2011
EAC extraction logfile from 25. March 2015, 7:41
Jonathan Plowright / Brahms - Piano Sonata No.3; Handel Variations
Used drive : HL-DT-STDVDRAM GU70N Adapter: 0 ID: 0
Read mode : SecureUtilize accurate stream : YesDefeat audio cache : YesMake use of C2 pointers : No
Read offset correction : 48Overread into Lead-In and Lead-Out : NoFill up missing offset samples with silence : YesDelete leading and trailing silent blocks : NoNull samples used in CRC calculations : YesUsed interface : Native Win32 interface for Win NT & 2000
Used output format : User Defined EncoderSelected bitrate : 128 kBit/sQuality : HighAdd ID3 tag : NoCommand line compressor : C:\Program Files (x86)\Exact Audio Copy\Flac\flac.exeAdditional command line options : -V -8 -T "Date=%year%" -T "Genre=%genre%" %source%
TOC of the extracted CD
Track | Start | Length | Start sector | End sector --------------------------------------------------------- 1 | 0:00.00 | 10:46.03 | 0 | 48452 2 | 10:46.03 | 13:59.72 | 48453 | 111449 3 | 24:46.00 | 4:39.27 | 111450 | 132401 4 | 29:25.27 | 5:16.50 | 132402 | 156151 5 | 34:42.02 | 7:56.43 | 156152 | 191894 6 | 42:38.45 | 0:53.40 | 191895 | 195909 7 | 43:32.10 | 0:54.53 | 195910 | 200012 8 | 44:26.63 | 0:54.05 | 200013 | 204067 9 | 45:20.68 | 0:49.20 | 204068 | 207762 10 | 46:10.13 | 0:49.44 | 207763 | 211481 11 | 46:59.57 | 1:14.61 | 211482 | 217092 12 | 48:14.43 | 1:18.33 | 217093 | 222975 13 | 49:33.01 | 0:33.63 | 222976 | 225513 14 | 50:06.64 | 0:34.63 | 225514 | 228126 15 | 50:41.52 | 1:41.62 | 228127 | 235763 16 | 52:23.39 | 0:32.17 | 235764 | 238180 17 | 52:55.56 | 0:52.31 | 238181 | 242111 18 | 53:48.12 | 0:53.47 | 242112 | 246133 19 | 54:41.59 | 1:46.63 | 246134 | 254146 20 | 56:28.47 | 0:36.32 | 254147 | 256878 21 | 57:05.04 | 0:41.31 | 256879 | 259984 22 | 57:46.35 | 0:32.35 | 259985 | 262419 23 | 58:18.70 | 0:37.11 | 262420 | 265205 24 | 58:56.06 | 0:56.13 | 265206 | 269418 25 | 59:52.19 | 1:06.22 | 269419 | 274390 26 | 60:58.41 | 1:34.58 | 274391 | 281498 27 | 62:33.24 | 0:51.15 | 281499 | 285338 28 | 63:24.39 | 0:53.35 | 285339 | 289348 29 | 64:17.74 | 0:35.33 | 289349 | 292006 30 | 64:53.32 | 0:34.18 | 292007 | 294574 31 | 65:27.50 | 0:44.24 | 294575 | 297898 32 | 66:11.74 | 6:33.31 | 297899 | 327404
Range status and errors
Selected range
Filename C:\temp\BIS-SACD-2047 - Brahms - Piano Sonata No.3; Handel Variations - Plowright\Brahms - Piano Sonata No.3; Handel Variations.wav
Peak level 99.4 % Extraction speed 2.3 X Range quality 100.0 % Test CRC ABD3E3EE Copy CRC ABD3E3EE Copy OK
No errors occurred
AccurateRip summary
Track 1 accurately ripped (confidence 4) [3682D546] (AR v2)Track 2 accurately ripped (confidence 4) [498CABDF] (AR v2)Track 3 accurately ripped (confidence 4) [CC5BC216] (AR v2)Track 4 accurately ripped (confidence 4) [2CAC286B] (AR v2)Track 5 accurately ripped (confidence 4) [5B862396] (AR v2)Track 6 accurately ripped (confidence 4) [7BBC6773] (AR v2)Track 7 accurately ripped (confidence 4) [26FF19C4] (AR v2)Track 8 accurately ripped (confidence 4) [E8CDD332] (AR v2)Track 9 accurately ripped (confidence 4) [30878D0A] (AR v2)Track 10 accurately ripped (confidence 4) [73856D0B] (AR v2)Track 11 accurately ripped (confidence 4) [56933816] (AR v2)Track 12 accurately ripped (confidence 4) [01D540B8] (AR v2)Track 13 accurately ripped (confidence 4) [F36D7423] (AR v2)Track 14 accurately ripped (confidence 4) [DBFD3EBF] (AR v2)Track 15 accurately ripped (confidence 4) [45C3FD3D] (AR v2)Track 16 accurately ripped (confidence 4) [2339D460] (AR v2)Track 17 accurately ripped (confidence 4) [30B397DA] (AR v2)Track 18 accurately ripped (confidence 4) [9152751E] (AR v2)Track 19 accurately ripped (confidence 4) [92723EDA] (AR v2)Track 20 accurately ripped (confidence 4) [668ED931] (AR v2)Track 21 accurately ripped (confidence 4) [221863CE] (AR v2)Track 22 accurately ripped (confidence 4) [DFEE17BE] (AR v2)Track 23 accurately ripped (confidence 4) [D5E6B11A] (AR v2)Track 24 accurately ripped (confidence 4) [1D83E5D0] (AR v2)Track 25 accurately ripped (confidence 4) [2E8CFC18] (AR v2)Track 26 accurately ripped (confidence 4) [D2C4D57A] (AR v2)Track 27 accurately ripped (confidence 4) [7A354CFE] (AR v2)Track 28 accurately ripped (confidence 4) [324B2A27] (AR v2)Track 29 accurately ripped (confidence 4) [79C113B0] (AR v2)Track 30 accurately ripped (confidence 4) [3D12D9FD] (AR v2)Track 31 accurately ripped (confidence 4) [80111502] (AR v2)Track 32 accurately ripped (confidence 4) [D100500B] (AR v2)
All tracks accurately ripped
End of status report
==== Log checksum 24E645EF1358902CF6D652799E56FE775B8719ECECC234B0FC8B9B0EF0173F75 ====
[doutdess.site].t87943.torrent
Torrent: Registered [ 2015-11-05 23:05 ] · 2B829CB3DF96FFDE15315B08B01355FDB18FCAD9

31 KB

Status: checked
Completed: 0 times
Size: 191 MB
(Classical) Johannes Brahms - Piano Sonata No.3; Handel Variations - Jonathan Plowright - 2012, FLAC (image+.cue) lossless скачать торрент бесплатно и без регистрации

[Profile] [PM]
Forum Topic Author Size
Вокальная музыка в lossless ((classical/operetta)) Schönes bleibt. Unvergessene Tenöre bei WDR 4 / Прекрасное остаётся - 2000, FLAC (image+.cue) lossless Vi$itReal 401 MB
Вокальная и хоровая музыка lossy (Classical (Lieder)) (Lieder) Norman Bailey - Songs of Hugo Wolf - 1979, MP3 (tracks) 320 kbps RelizMAN 120 MB
Концерт для инструмента с оркестром в lossless (Classical ) Top 20 CDs for your Classical Music Collection - ClassicalCDguide.com: 02 - W. A. Mozart - Great Piano Concertos N 20 - 25 (1997) APE (tracks), 450-566 kb/s RelizMAN 582 MB
Концерт для инструмента с оркестром в lossless (Classical ) Top 20 CDs for your Classical Music Collection - ClassicalCDguide.com: 04 - Bach: Die Brandenburgische Konzerte - Orchestra of the Age of Enlightenment 2 CD (1999) APE (tracks), 610-769... RelizMAN 462 MB
Оркестровая музыка в lossless (Classical ) Top 20 CDs for your Classical Music Collection - ClassicalCDguide.com: 06 - Igor Stravinsky; Petroushka, Le Sacre du Printemps - Columbia Symphony Orchestra (Sony 1990) APE (tracks),... Vi$itReal 274 MB
Камерная инструментальная музыка в lossless (Classical ) Top 20 CDs for your Classical Music Collection - ClassicalCDguide.com: 07 - Franz Schubert - \'Trout\' Quintet & \'Death and the Maiden\' - Amadeus Quartet (DG ... Vi$itReal 343 MB
Камерная инструментальная музыка в lossless (Classical ) Top 20 CDs for your Classical Music Collection - ClassicalCDguide.com: 10 - Georges Bizet; Carmen - Sir Thomas Beecham, de Los Angeles, Gedda, Michau, Blanc (EMI 2000) аре (по-треково),... Vi$itReal 745 MB
Камерная инструментальная музыка в lossless (Classical ) Top 20 CDs for your Classical Music Collection - ClassicalCDguide.com: 12 - Франц Шуберт - Симфония No. 3, Unfinished 39; - Carlos Kleiber и Wiener Philharmoniker (DG 1... Vi$itReal 186 MB
Display posts:    

Current time is: 27-Sep 02:58

All times are UTC + 3



You cannot post new topics in this forum
You cannot reply to topics in this forum
You cannot edit your posts in this forum
You cannot delete your posts in this forum
You cannot vote in polls in this forum
You cannot attach files in this forum
You can download files in this forum