Reply to topic
DL-List and Torrent activity [Update пиров]
Size:  297 MB   |    Registered:  4 years 10 months   |    Completed:  0 times
Seeders:  655  [  0 KB/s  ]   Leechers:  7  [  0 KB/s  ]  
 
     
 
 
Author Message

RelizMAN ®

11

Post 06-Nov-2015 20:40

[Quote]

Şirin Pancaroğlu, Ignace Jang / Kuyruklu Yıldız Altında
Жанр: Classical, Harp
Год издания диска: 2000
Аудиокодек: FLAC
Тип рипа: tracks+.cue
Битрейт аудио: lossless
Продолжительность: 01:10:29
Источник: собственный рип
Треклист:
01. Beau Soir (Claude Debussy) (3:39)
02. La plus que lente (Claude Debussy) (5:42)
03. Jaromiluna (Ricardo Lorenz) (11:59)
04. Nocturno de la Luna en Tu Frente (Gerardo Dirié) (7:30)
05. Bordel 1900 (Astor Piazzolla) (3:42)
06. Café 1900 (Astor Piazzolla) (8:50)
07. Nightclub 1960 (Astor Piazzolla) (7:03)
08. Longing Under the Moon (Jeeyoung Kim) (6:09)
09. Valse Romantique (Claude Debussy) (3:15)
10. İspanyol Dansı No. 5 (Enrique Granados) (4:56)
11. İspanyol Dansı (La Vida Breve) (Manuel de Falla) (4:08)
12. Seresta (Carlos de Almeida) (3:36)
Şirin Pancaroğlu - арфа
Ignace Jang - скрипка

Лог создания рипа

Exact Audio Copy V1.0 beta 3 from 29. August 2011
EAC extraction logfile from 29. May 2014, 16:41
Şirin Pancaroğlu, Ignace Jang / Kuyruklu Yıldız Altında
Used drive : PIONEER DVD-RW DVRTD08A Adapter: 0 ID: 1
Read mode : SecureUtilize accurate stream : YesDefeat audio cache : YesMake use of C2 pointers : No
Read offset correction : 48Overread into Lead-In and Lead-Out : NoFill up missing offset samples with silence : YesDelete leading and trailing silent blocks : NoNull samples used in CRC calculations : YesUsed interface : Native Win32 interface for Win NT & 2000Gap handling : Appended to previous track
Used output format : User Defined EncoderSelected bitrate : 1024 kBit/sQuality : HighAdd ID3 tag : NoCommand line compressor : C:\Program Files (x86)\Exact Audio Copy\Flac\flac.exeAdditional command line options : -8 -V -T "ARTIST=%artist%" -T "TITLE=%title%" -T "ALBUM=%albumtitle%" -T "DATE=%year%" -T "TRACKNUMBER=%tracknr%" -T "GENRE=%genre%" -T "PERFORMER=%albuminterpret%" -T "COMPOSER=%composer%" %haslyrics%--tag-from-file=LYRICS="%lyricsfile%"%haslyrics% -T "ALBUMARTIST=%albumartist%" -T "DISCNUMBER=%cdnumber%" -T "TOTALDISCS=%totalcds%" -T "TOTALTRACKS=%numtracks%" -T "COMMENT=%comment%" %source% -o %dest%
TOC of the extracted CD
Track | Start | Length | Start sector | End sector --------------------------------------------------------- 1 | 0:00.00 | 3:38.72 | 0 | 16421 2 | 3:38.72 | 5:41.53 | 16422 | 42049 3 | 9:20.50 | 11:59.25 | 42050 | 95999 4 | 21:20.00 | 7:29.72 | 96000 | 129746 5 | 28:49.72 | 3:41.45 | 129747 | 146366 6 | 32:31.42 | 8:50.11 | 146367 | 186127 7 | 41:21.53 | 7:02.70 | 186128 | 217847 8 | 48:24.48 | 6:08.39 | 217848 | 245486 9 | 54:33.12 | 3:15.00 | 245487 | 260111 10 | 57:48.12 | 4:56.24 | 260112 | 282335 11 | 62:44.36 | 4:07.39 | 282336 | 300899 12 | 66:52.00 | 3:36.21 | 300900 | 317120
Track 1
Filename C:\EAC Rips\(2000) Kuyruklu Yıldız Altında\01. Beau Soir.wav
Pre-gap length 0:00:02.00
Peak level 61.3 % Extraction speed 2.8 X Track quality 100.0 % Test CRC 4B96A109 Copy CRC 4B96A109 Track not present in AccurateRip database Copy OK
Track 2
Filename C:\EAC Rips\(2000) Kuyruklu Yıldız Altında\02. La plus que lente.wav
Pre-gap length 0:00:03.40
Peak level 89.2 % Extraction speed 3.2 X Track quality 100.0 % Test CRC DA18DDBF Copy CRC DA18DDBF Track not present in AccurateRip database Copy OK
Track 3
Filename C:\EAC Rips\(2000) Kuyruklu Yıldız Altında\03. Jaromiluna.wav
Pre-gap length 0:00:05.44
Peak level 69.2 % Extraction speed 4.0 X Track quality 100.0 % Test CRC 291CF630 Copy CRC 291CF630 Track not present in AccurateRip database Copy OK
Track 4
Filename C:\EAC Rips\(2000) Kuyruklu Yıldız Altında\04. Nocturno de la Luna en Tu Frente.wav
Pre-gap length 0:00:07.14
Peak level 88.9 % Extraction speed 4.4 X Track quality 100.0 % Test CRC F44D72F2 Copy CRC F44D72F2 Track not present in AccurateRip database Copy OK
Track 5
Filename C:\EAC Rips\(2000) Kuyruklu Yıldız Altında\05. Bordel 1900.wav
Pre-gap length 0:00:06.10
Peak level 85.4 % Extraction speed 4.2 X Track quality 100.0 % Test CRC 970FE3B3 Copy CRC 970FE3B3 Track not present in AccurateRip database Copy OK
Track 6
Filename C:\EAC Rips\(2000) Kuyruklu Yıldız Altında\06. Café 1900.wav
Pre-gap length 0:00:05.49
Peak level 87.8 % Extraction speed 5.0 X Track quality 100.0 % Test CRC 2B1AFEA4 Copy CRC 2B1AFEA4 Track not present in AccurateRip database Copy OK
Track 7
Filename C:\EAC Rips\(2000) Kuyruklu Yıldız Altında\07. Nightclub 1960.wav
Pre-gap length 0:00:00.25
Peak level 90.8 % Extraction speed 4.8 X Track quality 99.9 % Test CRC FFD66160 Copy CRC FFD66160 Track not present in AccurateRip database Copy OK
Track 8
Filename C:\EAC Rips\(2000) Kuyruklu Yıldız Altında\08. Longing Under the Moon.wav
Pre-gap length 0:00:07.96
Peak level 99.5 % Extraction speed 4.9 X Track quality 99.9 % Test CRC F172C14C Copy CRC F172C14C Track not present in AccurateRip database Copy OK
Track 9
Filename C:\EAC Rips\(2000) Kuyruklu Yıldız Altında\09. Valse Romantique.wav
Pre-gap length 0:00:03.64
Peak level 84.8 % Extraction speed 5.0 X Track quality 100.0 % Test CRC E2DE13D3 Copy CRC E2DE13D3 Track not present in AccurateRip database Copy OK
Track 10
Filename C:\EAC Rips\(2000) Kuyruklu Yıldız Altında\10. İspanyol Dansı No. 5.wav
Pre-gap length 0:00:05.17
Peak level 87.3 % Extraction speed 5.5 X Track quality 100.0 % Test CRC 6434C2B6 Copy CRC 6434C2B6 Track not present in AccurateRip database Copy OK
Track 11
Filename C:\EAC Rips\(2000) Kuyruklu Yıldız Altında\11. İspanyol Dansı (La Vida Breve).wav
Pre-gap length 0:00:01.46
Peak level 91.0 % Extraction speed 5.3 X Track quality 100.0 % Test CRC 85DF4529 Copy CRC 85DF4529 Track not present in AccurateRip database Copy OK
Track 12
Filename C:\EAC Rips\(2000) Kuyruklu Yıldız Altında\12. Seresta.wav
Pre-gap length 0:00:07.65
Peak level 84.6 % Extraction speed 5.1 X Track quality 100.0 % Test CRC BEADEA4A Copy CRC BEADEA4A Track not present in AccurateRip database Copy OK
None of the tracks are present in the AccurateRip database
No errors occurred
End of status report
---- CUETools DB Plugin V2.1.3
[CTDB TOCID: nzCEcVa_LSCAi81pFWtWEGgDpHc-] disk not present in database, Submit result: nzCEcVa_LSCAi81pFWtWEGgDpHc- has been uploaded
==== Log checksum EDAC52A0EDFDBBFDB72E91E79C8B9399EF5E35809D4452D28C3C9C3550DC7824 ====

Содержание индексной карты (.CUE)

REM DATE 2000REM DISCID 9E10840CREM COMMENT "ExactAudioCopy v1.0b3"PERFORMER "Şirin Pancaroğlu, Ignace Jang"TITLE "Kuyruklu Yıldız Altında"FILE "01. Beau Soir.wav" WAVE TRACK 01 AUDIO TITLE "Beau Soir" PERFORMER "Şirin Pancaroğlu, Ignace Jang" ISRC CAKGS0020000 FLAGS DCP INDEX 01 00:00:00 TRACK 02 AUDIO TITLE "La plus que lente" PERFORMER "Şirin Pancaroğlu, Ignace Jang" ISRC CAKGS0020001 FLAGS DCP INDEX 00 03:35:42FILE "02. La plus que lente.wav" WAVE INDEX 01 00:00:00 TRACK 03 AUDIO TITLE "Jaromiluna" PERFORMER "Şirin Pancaroğlu, Ignace Jang" ISRC CAKGS0020002 FLAGS DCP INDEX 00 05:36:20FILE "03. Jaromiluna.wav" WAVE INDEX 01 00:00:00 TRACK 04 AUDIO TITLE "Nocturno de la Luna en Tu Frente " PERFORMER "Şirin Pancaroğlu, Ignace Jang" ISRC CAKGS0020003 FLAGS DCP INDEX 00 11:52:14FILE "04. Nocturno de la Luna en Tu Frente.wav" WAVE INDEX 01 00:00:00 TRACK 05 AUDIO TITLE "Bordel 1900" PERFORMER "Şirin Pancaroğlu, Ignace Jang" ISRC CAKGS0020004 FLAGS DCP INDEX 00 07:23:64FILE "05. Bordel 1900.wav" WAVE INDEX 01 00:00:00 TRACK 06 AUDIO TITLE "Café 1900" PERFORMER "Şirin Pancaroğlu, Ignace Jang" ISRC CAKGS0020005 FLAGS DCP INDEX 00 03:36:08FILE "06. Café 1900.wav" WAVE INDEX 01 00:00:00 TRACK 07 AUDIO TITLE "Nightclub 1960" PERFORMER "Şirin Pancaroğlu, Ignace Jang" ISRC CAKGS0020006 FLAGS DCP INDEX 00 08:49:67FILE "07. Nightclub 1960.wav" WAVE INDEX 01 00:00:00 TRACK 08 AUDIO TITLE "Longing Under the Moon" PERFORMER "Şirin Pancaroğlu, Ignace Jang" ISRC CAKGS0020007 FLAGS DCP INDEX 00 06:54:73FILE "08. Longing Under the Moon.wav" WAVE INDEX 01 00:00:00 TRACK 09 AUDIO TITLE "Valse Romantique" PERFORMER "Şirin Pancaroğlu, Ignace Jang" ISRC CAKGS0020008 FLAGS DCP INDEX 00 06:04:66FILE "09. Valse Romantique.wav" WAVE INDEX 01 00:00:00 TRACK 10 AUDIO TITLE "İspanyol Dansı No. 5" PERFORMER "Şirin Pancaroğlu, Ignace Jang" ISRC CAKGS0020009 FLAGS DCP INDEX 00 03:09:62FILE "10. İspanyol Dansı No. 5.wav" WAVE INDEX 01 00:00:00 TRACK 11 AUDIO TITLE "İspanyol Dansı (La Vida Breve)" PERFORMER "Şirin Pancaroğlu, Ignace Jang" ISRC CAKGS0020010 FLAGS DCP INDEX 00 04:54:64FILE "11. İspanyol Dansı (La Vida Breve).wav" WAVE INDEX 01 00:00:00 TRACK 12 AUDIO TITLE "Seresta" PERFORMER "Şirin Pancaroğlu, Ignace Jang" ISRC CAKGS0020011 FLAGS DCP INDEX 00 03:59:65FILE "12. Seresta.wav" WAVE INDEX 01 00:00:00
[doutdess.site].t88107.torrent
Torrent: Registered [ 2015-11-06 20:40 ] · CCAA3AB48CA5BCF9121591F132A3980BA25FC38A

13 KB

Status: checked
Completed: 0 times
Size: 297 MB
(Classical, Harp, Violin) Şirin Pancaroğlu (Sirin Pancaroglu), Ignace Jang - Kuyruklu Yıldız Altında (Debussy, Piazzola, de Falla, Granados) - 2000, FLAC (tracks+.cue) lossless скачать торрент бесплатно и без регистрации

[Profile] [PM]
Forum Topic Author Size
Вокальная музыка в lossless ((classical/operetta)) Schönes bleibt. Unvergessene Tenöre bei WDR 4 / Прекрасное остаётся - 2000, FLAC (image+.cue) lossless Vi$itReal 401 MB
Вокальная и хоровая музыка lossy (Classical (Lieder)) (Lieder) Norman Bailey - Songs of Hugo Wolf - 1979, MP3 (tracks) 320 kbps RelizMAN 120 MB
Концерт для инструмента с оркестром в lossless (Classical ) Top 20 CDs for your Classical Music Collection - ClassicalCDguide.com: 02 - W. A. Mozart - Great Piano Concertos N 20 - 25 (1997) APE (tracks), 450-566 kb/s RelizMAN 582 MB
Концерт для инструмента с оркестром в lossless (Classical ) Top 20 CDs for your Classical Music Collection - ClassicalCDguide.com: 04 - Bach: Die Brandenburgische Konzerte - Orchestra of the Age of Enlightenment 2 CD (1999) APE (tracks), 610-769... RelizMAN 462 MB
Оркестровая музыка в lossless (Classical ) Top 20 CDs for your Classical Music Collection - ClassicalCDguide.com: 06 - Igor Stravinsky; Petroushka, Le Sacre du Printemps - Columbia Symphony Orchestra (Sony 1990) APE (tracks),... Vi$itReal 274 MB
Камерная инструментальная музыка в lossless (Classical ) Top 20 CDs for your Classical Music Collection - ClassicalCDguide.com: 07 - Franz Schubert - \'Trout\' Quintet & \'Death and the Maiden\' - Amadeus Quartet (DG ... Vi$itReal 343 MB
Камерная инструментальная музыка в lossless (Classical ) Top 20 CDs for your Classical Music Collection - ClassicalCDguide.com: 10 - Georges Bizet; Carmen - Sir Thomas Beecham, de Los Angeles, Gedda, Michau, Blanc (EMI 2000) аре (по-треково),... Vi$itReal 745 MB
Камерная инструментальная музыка в lossless (Classical ) Top 20 CDs for your Classical Music Collection - ClassicalCDguide.com: 12 - Франц Шуберт - Симфония No. 3, Unfinished 39; - Carlos Kleiber и Wiener Philharmoniker (DG 1... Vi$itReal 186 MB
Display posts:    

Current time is: 27-Sep 04:14

All times are UTC + 3



You cannot post new topics in this forum
You cannot reply to topics in this forum
You cannot edit your posts in this forum
You cannot delete your posts in this forum
You cannot vote in polls in this forum
You cannot attach files in this forum
You can download files in this forum