Reply to topic
DL-List and Torrent activity [Update пиров]
Size:  399 MB   |    Registered:  4 years 10 months   |    Completed:  0 times
Seeders:  286  [  0 KB/s  ]   Leechers:  21  [  0 KB/s  ]  
 
     
 
 
Author Message

RelizMAN ®

11

Post 04-Nov-2015 16:50

[Quote]

Guido Negraszus - Night Cafe [Forgotten Jewels]

Жанр: New Age
Год издания: 2010
Аудиокодек: FLAC (*.flac)
Тип рипа: image+.cue
Битрейт аудио: 783 kbps
Продолжительность: 01:11:13
Источник (релизер): rsfsr7
Наличие сканов в содержимом раздачи: нет
Трек-лист:
01. Changing Waters
02. Across The Mountains
03. Desert Moon's
04. Night Cafe
05. Floating Ice
06. Galaxy Of A Hundred Dreams
07. Secret Worlds Wonderland
08. Forgotten World
09. Sun And Moon
10. Cafe Marrakesh
11. Call Of The Ocean
12. Song Of Amazon
13. Mystery Of The Dreams
14. Secret Echoes
15. Excursion
16. Waves On Castle Rock

Лог создания рипа

Exact Audio Copy V0.99 prebeta 5 from 4. May 2009
Отчёт EAC об извлечении, выполненном 3. ноября 2015, 12:39
Guido Negraszus / Night Cafe [Forgotten Jewels] (FLAC) by rsfsr7 Obninsk
Дисковод: AXV CD/DVD-ROM Adapter: 1 ID: 0
Режим чтения : ДостоверностьИспользование точного потока : ДаОтключение кэша аудио : ДаИспользование указателей C2 : Нет
Коррекция смещения при чтении : 0Способность читать области Lead-in и Lead-out : НетЗаполнение пропущенных сэмплов тишиной : ДаУдаление блоков с тишиной в начале и конце : НетПри вычислениях CRC использовались нулевые сэмплы : НетИнтерфейс : Встроенный Win32-интерфейс для Win NT/2000
Выходной формат : Пользовательский кодировщикВыбранный битрейт : 768 kBit/sКачество : ВысокийДобавление ID3-тэга : НетУтилита сжатия : C:\Program Files\Exact Audio Copy\FLAC\FLAC.EXEДополнительные параметры : -6 -V -T "ARTIST=%a" -T "TITLE=%t" -T "ALBUM=%g" -T "DATE=%y" -T "TRACKNUMBER=%n" -T "GENRE=%m" -T "COMMENT=%e" %s -o %d
TOC извлечённого CD
Трек | Старт | Длительность | Начальный сектор | Конечный сектор --------------------------------------------------------------------- 1 | 0:00.00 | 3:48.19 | 0 | 17118 2 | 3:48.19 | 4:14.72 | 17119 | 36240 3 | 8:03.16 | 3:33.00 | 36241 | 52215 4 | 11:36.16 | 4:06.18 | 52216 | 70683 5 | 15:42.34 | 3:59.42 | 70684 | 88650 6 | 19:42.01 | 4:55.74 | 88651 | 110849 7 | 24:38.00 | 4:23.37 | 110850 | 130611 8 | 29:01.37 | 6:16.63 | 130612 | 158874 9 | 35:18.25 | 3:45.67 | 158875 | 175816 10 | 39:04.17 | 4:12.52 | 175817 | 194768 11 | 43:16.69 | 3:32.58 | 194769 | 210726 12 | 46:49.52 | 4:10.36 | 210727 | 229512 13 | 51:00.13 | 5:09.25 | 229513 | 252712 14 | 56:09.38 | 3:45.15 | 252713 | 269602 15 | 59:54.53 | 7:43.32 | 269603 | 304359 16 | 67:38.10 | 3:34.30 | 304360 | 320439
Характеристики диапазона извлечения и сообщения об ошибках
Выбранный диапазон
Имя файла C:\Guido Negraszus - Night Cafe [Forgotten Jewels] (FLAC) by rsfsr7 Obninsk.wav
Пиковый уровень 98.9 % Качество диапазона 100.0 % CRC теста A781C27B CRC копии A781C27B Копирование... OK
Ошибок не произошло
Конец отчёта

Содержание индексной карты (.CUE)

REM GENRE "New Age"REM DATE 2010REM DISCID DC10B010REM COMMENT "ExactAudioCopy v0.99pb5"PERFORMER "Guido Negraszus"TITLE "Night Cafe [Forgotten Jewels] (FLAC) by rsfsr7 Obninsk"FILE "Guido Negraszus - Night Cafe [Forgotten Jewels] (FLAC) by rsfsr7 Obninsk.flac" WAVE TRACK 01 AUDIO TITLE "Changing Waters" PERFORMER "Guido Negraszus" FLAGS DCP INDEX 01 00:00:00 TRACK 02 AUDIO TITLE "Across The Mountains" PERFORMER "Guido Negraszus" FLAGS DCP INDEX 01 03:48:19 TRACK 03 AUDIO TITLE "Desert Moon's" PERFORMER "Guido Negraszus" FLAGS DCP INDEX 01 08:03:16 TRACK 04 AUDIO TITLE "Night Cafe" PERFORMER "Guido Negraszus" FLAGS DCP INDEX 01 11:36:16 TRACK 05 AUDIO TITLE "Floating Ice" PERFORMER "Guido Negraszus" FLAGS DCP INDEX 01 15:42:34 TRACK 06 AUDIO TITLE "Galaxy Of A Hundred Dreams" PERFORMER "Guido Negraszus" FLAGS DCP INDEX 01 19:42:01 TRACK 07 AUDIO TITLE "Secret Worlds Wonderland" PERFORMER "Guido Negraszus" FLAGS DCP INDEX 01 24:38:00 TRACK 08 AUDIO TITLE "Forgotten World" PERFORMER "Guido Negraszus" FLAGS DCP INDEX 01 29:01:37 TRACK 09 AUDIO TITLE "Sun And Moon" PERFORMER "Guido Negraszus" FLAGS DCP INDEX 01 35:18:25 TRACK 10 AUDIO TITLE "Cafe Marrakesh" PERFORMER "Guido Negraszus" FLAGS DCP INDEX 01 39:04:17 TRACK 11 AUDIO TITLE "Call Of The Ocean" PERFORMER "Guido Negraszus" FLAGS DCP INDEX 01 43:16:69 TRACK 12 AUDIO TITLE "Song Of Amazon" PERFORMER "Guido Negraszus" FLAGS DCP INDEX 01 46:49:52 TRACK 13 AUDIO TITLE "Mystery Of The Dreams" PERFORMER "Guido Negraszus" FLAGS DCP INDEX 01 51:00:13 TRACK 14 AUDIO TITLE "Secret Echoes" PERFORMER "Guido Negraszus" FLAGS DCP INDEX 01 56:09:38 TRACK 15 AUDIO TITLE "Excursion" PERFORMER "Guido Negraszus" FLAGS DCP INDEX 01 59:54:53 TRACK 16 AUDIO TITLE "Waves On Castle Rock" PERFORMER "Guido Negraszus" FLAGS DCP INDEX 01 67:38:10

Лог проверки качества

-----------------------
DON'T MODIFY THIS FILE
-----------------------
PERFORMER: auCDtect Task Manager, ver. 1.5.1RC4 build 1.5.1.5Copyright (c) 2008-2010 y-soft. All rights reservedhttp://y-soft.org
ANALYZER: auCDtect: CD records authenticity detector, version 0.8.2Copyright (c) 2004 Oleg Berngardt. All rights reserved.Copyright (c) 2004 Alexander Djourik. All rights reserved.
FILE: Guido Negraszus - Night Cafe [Forgotten Jewels] (FLAC) by rsfsr7 Obninsk.flac Size: 418157784 Hash: C49DF8FB6ECA685A022137411C9CD787 Accuracy: -m0 Conclusion: CDDA 100% Signature: 08B2440589D85A6FAAFFA16715F323DE793FDC0A

Скриншот спектра частот

[doutdess.site].t87717.torrent
Torrent: Registered [ 2015-11-04 16:50 ] · B1E3A60B21E73BC26EF3D5E1630B80423B41BCA4

17 KB

Status: checked
Completed: 0 times
Size: 399 MB
(New Age) Guido Negraszus - Night Cafe [Forgotten Jewels] (2010) FLAC (image+.cue), lossless скачать торрент бесплатно и без регистрации

[Profile] [PM]
Forum Topic Author Size
NewAge & Meditative lossless (New Age) Al Gromer Khan & Emin Corrado - Tantra Electronica - 2004, FLAC (tracks+.cue), lossless RelizMAN 284 MB
NewAge & Meditative lossless (New Age) Al Gromer Khan - Negus - The Royal Principle - 2008, FLAC (tracks+.cue), lossless RelizMAN 227 MB
NewAge & Meditative lossless (New Age) Amethystium - 2005 - "Transversa" [APE (image + .cue)], lossless RelizMAN 437 MB
NewAge & Meditative lossy (New Age) Ani Williams - Goddess In The Field of Light - 2019, MP3 (tracks), 320 kbps Vi$itReal 161 MB
NewAge & Meditative lossless (New Age) Anima - Temple of the Stars - 2010, FLAC (tracks+.cue), lossless RelizMAN 376 MB
NewAge & Meditative lossless (New Age) Anne Linnet - Relax, No. 1 - 2003, FLAC (tracks+.cue), lossless RelizMAN 312 MB
NewAge & Meditative lossless (New Age) Anthony Miles - Music For Children - 1995, APE (image+.cue) lossless RelizMAN 212 MB
NewAge & Meditative lossless (New Age) Anuragi - Highway Back Home (1990), Morning & Evening Meditation (1992), APE (image + .cue), lossless RelizMAN 331 MB
Display posts:    

Current time is: 27-Sep 06:09

All times are UTC + 3



You cannot post new topics in this forum
You cannot reply to topics in this forum
You cannot edit your posts in this forum
You cannot delete your posts in this forum
You cannot vote in polls in this forum
You cannot attach files in this forum
You can download files in this forum