Reply to topic
DL-List and Torrent activity [Update пиров]
Size:  436 MB   |    Registered:  4 years 10 months   |    Completed:  1 time
Seeders:  865  [  0 KB/s  ]   Leechers:  22  [  0 KB/s  ]  
 
     
 
 
Author Message

RelizMAN ®

11

Post 09-Nov-2015 11:25

[Quote]

Gayathri Girish - Rama Namam
Жанр: Carnatic
Носитель: CD
Страна-производитель диска (релиза): India
Год издания: 2006
Издатель (лейбл): Amutham Music
Аудиокодек: FLAC (*.flac)
Тип рипа: image+.cue
Битрейт аудио: lossless
Продолжительность: 01:12:35
Источник (релизер): собственный рип
Наличие сканов в содержимом раздачи: да
Треклист:
1. Raghurama
Sugunamule (Telugu)
2. Seetharama
Kalabarana (Telugu)
3. Kodhandarama
kodhandaramam (Sanskrit)
4. Kalyanarama
kalyanarama (Sanskrit)
5. Saketharama
Chalamelara (Telugu)
6. Pattabhirama
Nannu Vidachi (Telugu)
7. Sundhararama
Karunayelagante (Telugu)
8. Jayarama
Sri Rama Jayarama (Telugu)

Лог создания рипа

Exact Audio Copy V1.1 from 23. June 2015
EAC extraction logfile from 8. November 2015, 19:35
Gayathri Girish / Rama Namam
Used drive : MATSHITADVD-RAM UJ8B0 Adapter: 1 ID: 0
Read mode : SecureUtilize accurate stream : YesDefeat audio cache : YesMake use of C2 pointers : No
Read offset correction : 102Overread into Lead-In and Lead-Out : NoFill up missing offset samples with silence : YesDelete leading and trailing silent blocks : NoNull samples used in CRC calculations : YesUsed interface : Native Win32 interface for Win NT & 2000
Used output format : User Defined EncoderSelected bitrate : 896 kBit/sQuality : HighAdd ID3 tag : YesCommand line compressor : C:\flac.exeAdditional command line options : -V -8 -T "Date=%year%" -T "Genre=%genre%" %source%
TOC of the extracted CD
Track | Start | Length | Start sector | End sector --------------------------------------------------------- 1 | 0:00.00 | 9:02.49 | 0 | 40698 2 | 9:02.49 | 4:38.24 | 40699 | 61572 3 | 13:40.73 | 3:59.58 | 61573 | 79555 4 | 17:40.56 | 23:07.27 | 79556 | 183607 5 | 40:48.08 | 5:43.01 | 183608 | 209333 6 | 46:31.09 | 17:18.40 | 209334 | 287223 7 | 63:49.49 | 4:42.72 | 287224 | 308445 8 | 68:32.46 | 4:03.14 | 308446 | 326684
Range status and errors
Selected range
Filename C:\Users\ats777333\Gayathri Girish - Rama Namam.wav
Peak level 98.9 % Extraction speed 2.2 X Range quality 100.0 % Test CRC 95B3BC97 Copy CRC 95B3BC97 Copy OK
No errors occurred
AccurateRip summary
Track 1 accurately ripped (confidence 1) [D16EE46D] (AR v1)Track 2 accurately ripped (confidence 1) [CE47F824] (AR v1)Track 3 accurately ripped (confidence 1) [7F915915] (AR v1)Track 4 accurately ripped (confidence 1) [4345E5F2] (AR v1)Track 5 accurately ripped (confidence 1) [B864F530] (AR v1)Track 6 accurately ripped (confidence 1) [281E3C68] (AR v1)Track 7 accurately ripped (confidence 1) [9C7D6A61] (AR v1)Track 8 accurately ripped (confidence 1) [0CF11227] (AR v1)
All tracks accurately ripped
End of status report
==== Log checksum 7EC7DDBD1D07C20CFA0377CE739AFB8CB8F91B8B6C68B7DE24D069F1F641AC97 ====

Содержание индексной карты (.CUE)

REM DISCID 5D110308REM COMMENT "ExactAudioCopy v1.1"PERFORMER "Gayathri Girish"TITLE "Rama Namam"FILE "Gayathri Girish - Rama Namam.flac" WAVE TRACK 01 AUDIO TITLE "Трек01" PERFORMER "Gayathri Girish" FLAGS DCP INDEX 01 00:00:00 TRACK 02 AUDIO TITLE "Трек02" PERFORMER "Gayathri Girish" FLAGS DCP INDEX 00 09:02:48 INDEX 01 09:02:49 TRACK 03 AUDIO TITLE "Трек03" PERFORMER "Gayathri Girish" FLAGS DCP INDEX 00 13:39:29 INDEX 01 13:40:73 TRACK 04 AUDIO TITLE "Трек04" PERFORMER "Gayathri Girish" FLAGS DCP INDEX 00 17:39:11 INDEX 01 17:40:56 TRACK 05 AUDIO TITLE "Трек05" PERFORMER "Gayathri Girish" FLAGS DCP INDEX 00 40:47:25 INDEX 01 40:48:08 TRACK 06 AUDIO TITLE "Трек06" PERFORMER "Gayathri Girish" FLAGS DCP INDEX 00 46:29:39 INDEX 01 46:31:09 TRACK 07 AUDIO TITLE "Трек07" PERFORMER "Gayathri Girish" FLAGS DCP INDEX 00 63:48:04 INDEX 01 63:49:49 TRACK 08 AUDIO TITLE "Трек08" PERFORMER "Gayathri Girish" FLAGS DCP INDEX 00 68:31:01 INDEX 01 68:32:46
[doutdess.site].t88561.torrent
Torrent: Registered [ 2015-11-09 11:25 ] · 61F2C543D93501AA222A6D01B9ADFD5EA24576C1

18 KB

Status: checked
Completed: 1 times
Size: 436 MB
(Carnatic) Gayathri Girish - Rama Namam - 2006, FLAC (image+.cue), lossless скачать торрент бесплатно и без регистрации

[Profile] [PM]
Forum Topic Author Size
Этническая музыка Индии lossless (Carnatic) K.J. Yesudas - Saint Thyagaraja Sri Rama Divya Namavali - 1990 (2009), FLAC (image+.cue), lossless RelizMAN 234 MB
Этническая музыка Индии lossless (Carnatic) Sikkil Gurucharan - Ramayanam (3 CD) - 2005, FLAC (image+.cue), lossless RelizMAN 790 MB
Display posts:    

Current time is: 25-Sep 22:21

All times are UTC + 3



You cannot post new topics in this forum
You cannot reply to topics in this forum
You cannot edit your posts in this forum
You cannot delete your posts in this forum
You cannot vote in polls in this forum
You cannot attach files in this forum
You can download files in this forum