Reply to topic
DL-List and Torrent activity [Update пиров]
Size:  1.25 GB   |    Registered:  4 years 10 months   |    Completed:  0 times
Seeders:  765  [  0 KB/s  ]   Leechers:  47  [  0 KB/s  ]  
 
     
 
 
Author Message

RelizMAN ®

11

Post 06-Nov-2015 15:15

[Quote]

Gary Stewart - коллекция 1976-1997 (3CD)
Жанр: Country Rock, Honky-Tonk
Носитель: CD
Год издания: 1997-2005
Страна исполнителя (группы): US

Gary Stewart - Steppin' Out / Little Junior - 2005

Страна-производитель диска: US
Год первого выпуска: 1976,1978
Год настоящего издания: 2005
Издатель (лейбл): Raven
Номер по каталогу: RAVN 223
Format: CD, Albums, Split
Аудиокодек: FLAC (*.flac)
Тип рипа: tracks+.cue
Битрейт аудио: lossless
Продолжительность: 01:17:09
Источник (релизер): What.CD
Наличие сканов в содержимом раздачи: front
Треклист:
Steppin' Out - 1976
01. Flat Natural Born Good-Timin' Man (Stewart) (02:46)
02. Quits (O'Keefe) (03:16)
03. Trudy (Daniels) (04:56)
04. I Still Can't Believe You'reGone (Nelson) (04:01)
05. Lord What a Woman (Carson, Stewart) (02:56)
06. Oh, Sweet Temptation (Carson) (02:53)
07. If You've Got the Money (I've Got the Time) (Beck, Frizzell) (01:44)
08. (I Can't Be) Your Backdoor (Anderson, Anderson, Barnhill) (02:41)
09. Hank Western (Stewart) (03:26)
10. Easy People (Eldridge, Stewart) (03:01)
11. In Some Room Above the Street (Whipple) (03:11)
Little Junior - 1978
12. Whiskey Trip (Carson, Tankersley) (03:08)
13. Little Junior (Stewart) (03:03)
14. Stone Wall (Around Your Heart) (Twitty) (03:11)
15. Can't You See (Caldwell) (02:40)
16. Single Again (Stewart) (03:05)
17. Tequila After Midnight (Moeller) (02:44)
18. I Got Mine (Traditional) (03:23)
19. If My Eyes Touch You (Carson, Tankersley) (03:15)
20. Honky Tonkin' (Williams) (02:38)
21. You're Running Wild (Edenton, Winters) (03:11)
Bonus:
22. Let's Forget That We're Married (Lewis, Stewart, Tackett) (02:40)
23. Honky Tonk Man (Stewart) (03:16)
24. Memories Swim in Whiskey (Beach) (03:12)
25. Half Alive and Still Drinking (Carson, Reno) (02:41)

Лог создания рипа

Exact Audio Copy V1.0 beta 2 from 29. April 2011
EAC extraction logfile from 24. September 2011, 11:01
Gary Stewart / Steppin' Out - Little Junior
Used drive : MAD DOG MD-16XDVD9A4 Adapter: 1 ID: 1
Read mode : SecureUtilize accurate stream : YesDefeat audio cache : YesMake use of C2 pointers : No
Read offset correction : 48Overread into Lead-In and Lead-Out : NoFill up missing offset samples with silence : YesDelete leading and trailing silent blocks : NoNull samples used in CRC calculations : YesUsed interface : Installed external ASPI interfaceGap handling : Appended to previous track
Used output format : User Defined EncoderSelected bitrate : 1024 kBit/sQuality : HighAdd ID3 tag : NoCommand line compressor : C:\Program Files\Exact Audio Copy\flac.exeAdditional command line options : -8 -V -T "ARTIST=%artist%" -T "TITLE=%title%" -T "ALBUM=%albumtitle%" -T "DATE=%year%" -T "TRACKNUMBER=%tracknr%" -T "GENRE=%genre%" -T "PERFORMER=%albuminterpret%" -T "COMPOSER=%composer%" %haslyrics%--tag-from-file=LYRICS
TOC of the extracted CD
Track | Start | Length | Start sector | End sector --------------------------------------------------------- 1 | 0:00.00 | 2:46.07 | 0 | 12456 2 | 2:46.07 | 3:16.29 | 12457 | 27185 3 | 6:02.36 | 4:56.20 | 27186 | 49405 4 | 10:58.56 | 4:01.35 | 49406 | 67515 5 | 15:00.16 | 2:56.00 | 67516 | 80715 6 | 17:56.16 | 2:53.65 | 80716 | 93755 7 | 20:50.06 | 1:44.17 | 93756 | 101572 8 | 22:34.23 | 2:41.38 | 101573 | 113685 9 | 25:15.61 | 3:26.35 | 113686 | 129170 10 | 28:42.21 | 3:01.42 | 129171 | 142787 11 | 31:43.63 | 3:11.12 | 142788 | 157124 12 | 34:55.00 | 3:08.60 | 157125 | 171284 13 | 38:03.60 | 3:03.00 | 171285 | 185009 14 | 41:06.60 | 3:11.21 | 185010 | 199355 15 | 44:18.06 | 2:40.07 | 199356 | 211362 16 | 46:58.13 | 3:05.47 | 211363 | 225284 17 | 50:03.60 | 2:44.00 | 225285 | 237584 18 | 52:47.60 | 3:23.73 | 237585 | 252882 19 | 56:11.58 | 3:15.72 | 252883 | 267579 20 | 59:27.55 | 2:38.59 | 267580 | 279488 21 | 62:06.39 | 3:11.24 | 279489 | 293837 22 | 65:17.63 | 2:40.68 | 293838 | 305905 23 | 67:58.56 | 3:16.01 | 305906 | 320606 24 | 71:14.57 | 3:12.53 | 320607 | 335059 25 | 74:27.35 | 2:41.65 | 335060 | 347199
Track 1
Filename E:\GOLD\what.cd\Gary Stewart - Steppin' Out - Little Junior (2005) FLAC\01 Flat Natural Born Good Timin' Man.wav
Pre-gap length 0:00:02.00
Peak level 100.0 % Extraction speed 4.3 X Track quality 100.0 % Test CRC 3C9B66B1 Copy CRC 3C9B66B1 Accurately ripped (confidence 1) [93641AF7] (AR v1) Copy OK
Track 2
Filename E:\GOLD\what.cd\Gary Stewart - Steppin' Out - Little Junior (2005) FLAC\02 Quits.wav
Pre-gap length 0:00:02.76
Peak level 100.0 % Extraction speed 4.8 X Track quality 100.0 % Test CRC 1FF37DCF Copy CRC 1FF37DCF Accurately ripped (confidence 1) [B80E327F] (AR v1) Copy OK
Track 3
Filename E:\GOLD\what.cd\Gary Stewart - Steppin' Out - Little Junior (2005) FLAC\03 Trudy.wav
Pre-gap length 0:00:02.81
Peak level 100.0 % Extraction speed 5.5 X Track quality 100.0 % Test CRC B3A9D623 Copy CRC B3A9D623 Accurately ripped (confidence 1) [457ACF98] (AR v1) Copy OK
Track 4
Filename E:\GOLD\what.cd\Gary Stewart - Steppin' Out - Little Junior (2005) FLAC\04 I Still Can't Believe You're Gone.wav
Pre-gap length 0:00:02.74
Peak level 100.0 % Extraction speed 5.8 X Track quality 100.0 % Test CRC 6AF6CDB5 Copy CRC 6AF6CDB5 Accurately ripped (confidence 1) [9FBABB36] (AR v1) Copy OK
Track 5
Filename E:\GOLD\what.cd\Gary Stewart - Steppin' Out - Little Junior (2005) FLAC\05 Lord What a Woman.wav
Pre-gap length 0:00:02.84
Peak level 100.0 % Extraction speed 5.8 X Track quality 100.0 % Test CRC 19ACEBD5 Copy CRC 19ACEBD5 Accurately ripped (confidence 1) [AD78F517] (AR v1) Copy OK
Track 6
Filename E:\GOLD\what.cd\Gary Stewart - Steppin' Out - Little Junior (2005) FLAC\06 Oh Sweet Temptation.wav
Pre-gap length 0:00:02.85
Peak level 100.0 % Extraction speed 6.0 X Track quality 100.0 % Test CRC 510531B0 Copy CRC 510531B0 Accurately ripped (confidence 1) [743CB1A7] (AR v1) Copy OK
Track 7
Filename E:\GOLD\what.cd\Gary Stewart - Steppin' Out - Little Junior (2005) FLAC\07 If You've Got the Money (I've Got the Time).wav
Pre-gap length 0:00:02.73
Peak level 100.0 % Extraction speed 4.0 X Track quality 99.8 % Test CRC F3CBEFE5 Copy CRC F3CBEFE5 Accurately ripped (confidence 1) [B372EE31] (AR v1) Copy OK
Track 8
Filename E:\GOLD\what.cd\Gary Stewart - Steppin' Out - Little Junior (2005) FLAC\08 I Can't Be Your Backdoor.wav
Pre-gap length 0:00:02.77
Peak level 100.0 % Extraction speed 6.3 X Track quality 100.0 % Test CRC 49CC6CEE Copy CRC 49CC6CEE Accurately ripped (confidence 1) [46D1BFC7] (AR v1) Copy OK
Track 9
Filename E:\GOLD\what.cd\Gary Stewart - Steppin' Out - Little Junior (2005) FLAC\09 Hank Western.wav
Pre-gap length 0:00:02.85
Peak level 100.0 % Extraction speed 5.5 X Track quality 99.9 % Test CRC F7608D7B Copy CRC F7608D7B Accurately ripped (confidence 1) [30710F8C] (AR v1) Copy OK
Track 10
Filename E:\GOLD\what.cd\Gary Stewart - Steppin' Out - Little Junior (2005) FLAC\10 Easy People.wav
Pre-gap length 0:00:02.86
Peak level 100.0 % Extraction speed 5.5 X Track quality 99.9 % Test CRC 0CA6CCC7 Copy CRC 0CA6CCC7 Accurately ripped (confidence 1) [A2B6B393] (AR v1) Copy OK
Track 11
Filename E:\GOLD\what.cd\Gary Stewart - Steppin' Out - Little Junior (2005) FLAC\11 In Some Room By the Street.wav
Pre-gap length 0:00:02.81
Peak level 100.0 % Extraction speed 7.2 X Track quality 100.0 % Test CRC 1AAB8995 Copy CRC 1AAB8995 Accurately ripped (confidence 1) [18F7F6B5] (AR v1) Copy OK
Track 12
Filename E:\GOLD\what.cd\Gary Stewart - Steppin' Out - Little Junior (2005) FLAC\12 Whiskey Trip.wav
Pre-gap length 0:00:02.84
Peak level 99.0 % Extraction speed 7.3 X Track quality 100.0 % Test CRC F77BAC56 Copy CRC F77BAC56 Accurately ripped (confidence 1) [2D25A039] (AR v1) Copy OK
Track 13
Filename E:\GOLD\what.cd\Gary Stewart - Steppin' Out - Little Junior (2005) FLAC\13 Little Junior.wav
Pre-gap length 0:00:02.81
Peak level 100.0 % Extraction speed 7.3 X Track quality 100.0 % Test CRC EA042DA5 Copy CRC EA042DA5 Cannot be verified as accurate (confidence 1) [456E5684], AccurateRip returned [4F78FF76] (AR v2) Copy OK
Track 14
Filename E:\GOLD\what.cd\Gary Stewart - Steppin' Out - Little Junior (2005) FLAC\14 Stone Wall(All Around Your Heart).wav
Pre-gap length 0:00:02.77
Peak level 100.0 % Extraction speed 7.8 X Track quality 100.0 % Test CRC 016FA30E Copy CRC 016FA30E Cannot be verified as accurate (confidence 1) [9D4CEAF4], AccurateRip returned [A1C7F8C7] (AR v2) Copy OK
Track 15
Filename E:\GOLD\what.cd\Gary Stewart - Steppin' Out - Little Junior (2005) FLAC\15 Can't You See.wav
Pre-gap length 0:00:02.74
Peak level 100.0 % Extraction speed 7.6 X Track quality 100.0 % Test CRC D5706C5D Copy CRC D5706C5D Cannot be verified as accurate (confidence 1) [0A7672AA], AccurateRip returned [88C9641B] (AR v2) Copy OK
Track 16
Filename E:\GOLD\what.cd\Gary Stewart - Steppin' Out - Little Junior (2005) FLAC\16 Single Again.wav
Pre-gap length 0:00:02.93
Peak level 100.0 % Extraction speed 8.0 X Track quality 100.0 % Test CRC B40C7569 Copy CRC B40C7569 Cannot be verified as accurate (confidence 1) [91075B67], AccurateRip returned [698DD269] (AR v2) Copy OK
Track 17
Filename E:\GOLD\what.cd\Gary Stewart - Steppin' Out - Little Junior (2005) FLAC\17 Tequila After Midnight.wav
Pre-gap length 0:00:02.78
Peak level 96.4 % Extraction speed 6.2 X Track quality 99.9 % Test CRC 6A99FF19 Copy CRC 5E6FAAAF Accurately ripped (confidence 1) [5FF70B8D] (AR v1) Copy OK
Track 18
Filename E:\GOLD\what.cd\Gary Stewart - Steppin' Out - Little Junior (2005) FLAC\18 I Got Mine.wav
Pre-gap length 0:00:02.82
Peak level 100.0 % Extraction speed 8.4 X Track quality 100.0 % Test CRC 1B0E9B5B Copy CRC 1B0E9B5B Accurately ripped (confidence 1) [99862F44] (AR v1) Copy OK
Track 19
Filename E:\GOLD\what.cd\Gary Stewart - Steppin' Out - Little Junior (2005) FLAC\19 If My Eyes Touch You.wav
Pre-gap length 0:00:03.14
Peak level 100.0 % Extraction speed 8.5 X Track quality 100.0 % Test CRC 79FBE77D Copy CRC 79FBE77D Accurately ripped (confidence 1) [DD46A9F8] (AR v1) Copy OK
Track 20
Filename E:\GOLD\what.cd\Gary Stewart - Steppin' Out - Little Junior (2005) FLAC\20 Honky Tonkin'.wav
Pre-gap length 0:00:02.92
Peak level 100.0 % Extraction speed 8.3 X Track quality 100.0 % Test CRC AA8FB66C Copy CRC AA8FB66C Accurately ripped (confidence 1) [A20461FE] (AR v1) Copy OK
Track 21
Filename E:\GOLD\what.cd\Gary Stewart - Steppin' Out - Little Junior (2005) FLAC\21 You're Running Wild.wav
Pre-gap length 0:00:02.92
Peak level 100.0 % Extraction speed 8.8 X Track quality 100.0 % Test CRC 9A6E91E3 Copy CRC 9A6E91E3 Accurately ripped (confidence 1) [6FC22381] (AR v1) Copy OK
Track 22
Filename E:\GOLD\what.cd\Gary Stewart - Steppin' Out - Little Junior (2005) FLAC\22 Let's Forget That We're Married.wav
Pre-gap length 0:00:02.77
Peak level 100.0 % Extraction speed 8.5 X Track quality 100.0 % Test CRC 68296DD7 Copy CRC 68296DD7 Accurately ripped (confidence 1) [2617DD1B] (AR v1) Copy OK
Track 23
Filename E:\GOLD\what.cd\Gary Stewart - Steppin' Out - Little Junior (2005) FLAC\23 Honky Tonk Man.wav
Pre-gap length 0:00:03.00
Peak level 75.1 % Extraction speed 9.1 X Track quality 100.0 % Test CRC DC4835E1 Copy CRC DC4835E1 Accurately ripped (confidence 1) [56BFD399] (AR v1) Copy OK
Track 24
Filename E:\GOLD\what.cd\Gary Stewart - Steppin' Out - Little Junior (2005) FLAC\24 Memories Swim in Whiskey.wav
Pre-gap length 0:00:02.77
Peak level 100.0 % Extraction speed 9.1 X Track quality 100.0 % Test CRC FAF1943F Copy CRC FAF1943F Accurately ripped (confidence 1) [06162A20] (AR v1) Copy OK
Track 25
Filename E:\GOLD\what.cd\Gary Stewart - Steppin' Out - Little Junior (2005) FLAC\25 Half Alive and Still Drinking.wav
Pre-gap length 0:00:02.90
Peak level 100.0 % Extraction speed 8.6 X Track quality 100.0 % Test CRC D8D6371E Copy CRC D8D6371E Accurately ripped (confidence 1) [ECE5034D] (AR v1) Copy OK
21 track(s) accurately ripped 4 track(s) could not be verified as accurate
Some tracks could not be verified as accurate
No errors occurred
End of status report
==== Log checksum B82B9C420420295DEB9FD34E6D1A2F7CB33DEA3C6A1A4C3D8BDD6BE0E16BB3CD ====

Содержание индексной карты (.CUE)

REM GENRE CountryREM DATE 2005REM DISCID 7D121519REM COMMENT "ExactAudioCopy v1.0b2"FILE "01 Flat Natural Born Good Timin' Man.wav" WAVE TRACK 01 AUDIO INDEX 01 00:00:00 TRACK 02 AUDIO INDEX 00 02:43:25FILE "02 Quits.wav" WAVE INDEX 01 00:00:00 TRACK 03 AUDIO INDEX 00 03:13:43FILE "03 Trudy.wav" WAVE INDEX 01 00:00:00 TRACK 04 AUDIO INDEX 00 04:53:39FILE "04 I Still Can't Believe You're Gone.wav" WAVE INDEX 01 00:00:00 TRACK 05 AUDIO INDEX 00 03:58:47FILE "05 Lord What a Woman.wav" WAVE INDEX 01 00:00:00 TRACK 06 AUDIO INDEX 00 02:53:11FILE "06 Oh Sweet Temptation.wav" WAVE INDEX 01 00:00:00 TRACK 07 AUDIO INDEX 00 02:51:10FILE "07 If You've Got the Money (I've Got the Time).wav" WAVE INDEX 01 00:00:00 TRACK 08 AUDIO INDEX 00 01:41:34FILE "08 I Can't Be Your Backdoor.wav" WAVE INDEX 01 00:00:00 TRACK 09 AUDIO INDEX 00 02:38:49FILE "09 Hank Western.wav" WAVE INDEX 01 00:00:00 TRACK 10 AUDIO INDEX 00 03:23:45FILE "10 Easy People.wav" WAVE INDEX 01 00:00:00 TRACK 11 AUDIO INDEX 00 02:58:56FILE "11 In Some Room By the Street.wav" WAVE INDEX 01 00:00:00 TRACK 12 AUDIO INDEX 00 03:08:24FILE "12 Whiskey Trip.wav" WAVE INDEX 01 00:00:00 TRACK 13 AUDIO INDEX 00 03:05:74FILE "13 Little Junior.wav" WAVE INDEX 01 00:00:00 TRACK 14 AUDIO INDEX 00 03:00:17FILE "14 Stone Wall(All Around Your Heart).wav" WAVE INDEX 01 00:00:00 TRACK 15 AUDIO INDEX 00 03:08:40FILE "15 Can't You See.wav" WAVE INDEX 01 00:00:00 TRACK 16 AUDIO INDEX 00 02:37:12FILE "16 Single Again.wav" WAVE INDEX 01 00:00:00 TRACK 17 AUDIO INDEX 00 03:02:63FILE "17 Tequila After Midnight.wav" WAVE INDEX 01 00:00:00 TRACK 18 AUDIO INDEX 00 02:41:13FILE "18 I Got Mine.wav" WAVE INDEX 01 00:00:00 TRACK 19 AUDIO INDEX 00 03:20:62FILE "19 If My Eyes Touch You.wav" WAVE INDEX 01 00:00:00 TRACK 20 AUDIO INDEX 00 03:13:03FILE "20 Honky Tonkin'.wav" WAVE INDEX 01 00:00:00 TRACK 21 AUDIO INDEX 00 02:35:65FILE "21 You're Running Wild.wav" WAVE INDEX 01 00:00:00 TRACK 22 AUDIO INDEX 00 03:08:41FILE "22 Let's Forget That We're Married.wav" WAVE INDEX 01 00:00:00 TRACK 23 AUDIO INDEX 00 02:37:68FILE "23 Honky Tonk Man.wav" WAVE INDEX 01 00:00:00 TRACK 24 AUDIO INDEX 00 03:13:18FILE "24 Memories Swim in Whiskey.wav" WAVE INDEX 01 00:00:00 TRACK 25 AUDIO INDEX 00 03:09:60FILE "25 Half Alive and Still Drinking.wav" WAVE INDEX 01 00:00:00

Лог проверки качества

AUDIOCHECKER v2.0 beta (build 457) - by Dester - [email protected]
-=== DO NOT EDIT THIS FILE! ===-
Path: ...\1.Gary Stewart - Steppin' Out - Little Junior - 2005
01 -=- 01 Flat Natural Born Good Timin' Man.flac -=- CDDA (100%)02 -=- 02 Quits.flac -=- CDDA (99%)03 -=- 03 Trudy.flac -=- CDDA (100%)04 -=- 04 I Still Can't Believe You're Gone.flac -=- CDDA (100%)05 -=- 05 Lord What a Woman.flac -=- CDDA (100%)06 -=- 06 Oh Sweet Temptation.flac -=- CDDA (100%)07 -=- 07 If You've Got the Money (I've Got the Time).flac -=- CDDA (99%)08 -=- 08 I Can't Be Your Backdoor.flac -=- CDDA (100%)09 -=- 09 Hank Western.flac -=- CDDA (100%)10 -=- 10 Easy People.flac -=- CDDA (100%)11 -=- 11 In Some Room By the Street.flac -=- CDDA (99%)12 -=- 12 Whiskey Trip.flac -=- CDDA (100%)13 -=- 13 Little Junior.flac -=- CDDA (100%)14 -=- 14 Stone Wall(All Around Your Heart).flac -=- MPEG (95%)15 -=- 15 Can't You See.flac -=- CDDA (100%)16 -=- 16 Single Again.flac -=- MPEG (95%)17 -=- 17 Tequila After Midnight.flac -=- CDDA (100%)18 -=- 18 I Got Mine.flac -=- CDDA (100%)19 -=- 19 If My Eyes Touch You.flac -=- MPEG (95%)20 -=- 20 Honky Tonkin'.flac -=- CDDA (100%)21 -=- 21 You're Running Wild.flac -=- CDDA (100%)22 -=- 22 Let's Forget That We're Married.flac -=- CDDA (100%)23 -=- 23 Honky Tonk Man.flac -=- CDDA (100%)24 -=- 24 Memories Swim in Whiskey.flac -=- CDDA (100%)25 -=- 25 Half Alive and Still Drinking.flac -=- CDDA (100%)
Summary 88,48% CDDA
200345588

Gary Stewart & Dean Dillon - Brotherly Love - Those Were The Days - 2005

Страна-производитель диска: US
Год первого выпуска: 1982,1983
Год настоящего издания: 2005
Издатель (лейбл): Raven
Номер по каталогу: RAVN 226
Format: CD, Albums, Split
Аудиокодек: FLAC (*.flac)
Тип рипа: tracks+.cue
Битрейт аудио: lossless
Продолжительность: 01:17:11
Источник (релизер): What.CD
Наличие сканов в содержимом раздачи: front
Треклист:
Brotherly Love - 1982
01. Brotherly Love (Dillon, Stewart) (02:39)
02. Cold Turkey (Dekley, Paxton, Paxton) (03:04)
03. You to Come Home To (Dekley, Phillips) (02:28)
04. Honky Tonk Crazy (Dillon, Dycus) (02:58)
05. Body Shop (Borchers, Klang) (02:33)
06. Suburban Life (Dillon, Knapp, Long) (03:09)
07. Play This Old Working Day Away (Dekley, Lane) (03:06)
08. She Sings Amazing Grace (Foster, Rice) (02:52)
09. Firewater Friends (Dillon, Huston, Stewart) (02:15)
10. Let's Start a War (Dekley, Kirby, Shofner) (02:52)
Bonus tracks
11. I'm into the Bottle (To Get You out of My Mind) (Abbott, Dillon) (03:30)
12. Tonight (Dillon) (01:58)
13. What Good Is a Heart (Dillon) (02:43)
14. He's Number One (Dillon, Robbins) (03:04)
15. Nobody in His Right Mind (Would've Left Her) (Dillon) (02:30)
16. Smelling Like a Rose (Dillon) (03:00)
17. They'll Never Take Me Alive (Dillon, Dycus) (02:23)
18. Tonight One of Us Is Going out of My Mind (Capps, Dillon, Hatch, Moore, Taylor) (02:59)
19. Jesus Let Me Slide (Dekley, Dillon, Dycus, Gore) (03:13)
20. If You're Going Crazy (I'm Headed That Way) (Dillon, Dycus) (02:41)
21. Famous Last Words of a Fool (Dillon, Huston) (03:35)
Those Were The Days - 1983
22. Those Were the Days (Dillon, Huston, Stewart) (02:43)
23. Misfits (Dillon, Stewart) (03:29)
24. Hard Time for Lovers (Cannon, Dillon, Stewart) (03:26)
25. Living on the Ragged Edge (Dillon) (02:27)
26. Losers and Lovers (Dillon, Huston, Stewart, Vickery) (02:29)
27. Smokin' in the Rockies (Cannon, Dillon, Huston, Stewart) (02:50)

Лог создания рипа

Exact Audio Copy V1.0 beta 2 from 29. April 2011
EAC extraction logfile from 24. September 2011, 12:33
Gary Stewart & Dean Dillon / Brotherly Love - Those Were The Days
Used drive : MAD DOG MD-16XDVD9A4 Adapter: 1 ID: 1
Read mode : SecureUtilize accurate stream : YesDefeat audio cache : YesMake use of C2 pointers : No
Read offset correction : 48Overread into Lead-In and Lead-Out : NoFill up missing offset samples with silence : YesDelete leading and trailing silent blocks : NoNull samples used in CRC calculations : YesUsed interface : Installed external ASPI interfaceGap handling : Appended to previous track
Used output format : User Defined EncoderSelected bitrate : 1024 kBit/sQuality : HighAdd ID3 tag : NoCommand line compressor : C:\Program Files\Exact Audio Copy\flac.exeAdditional command line options : -8 -V -T "ARTIST=%artist%" -T "TITLE=%title%" -T "ALBUM=%albumtitle%" -T "DATE=%year%" -T "TRACKNUMBER=%tracknr%" -T "GENRE=%genre%" -T "PERFORMER=%albuminterpret%" -T "COMPOSER=%composer%" %haslyrics%--tag-from-file=LYRICS
TOC of the extracted CD
Track | Start | Length | Start sector | End sector --------------------------------------------------------- 1 | 0:00.00 | 2:39.16 | 0 | 11940 2 | 2:39.16 | 3:04.01 | 11941 | 25741 3 | 5:43.17 | 2:28.73 | 25742 | 36914 4 | 8:12.15 | 2:58.15 | 36915 | 50279 5 | 11:10.30 | 2:33.74 | 50280 | 61828 6 | 13:44.29 | 3:09.08 | 61829 | 76011 7 | 16:53.37 | 3:06.74 | 76012 | 90035 8 | 20:00.36 | 2:52.72 | 90036 | 103007 9 | 22:53.33 | 2:15.25 | 103008 | 113157 10 | 25:08.58 | 2:52.28 | 113158 | 126085 11 | 28:01.11 | 3:30.64 | 126086 | 141899 12 | 31:32.00 | 1:58.30 | 141900 | 150779 13 | 33:30.30 | 2:43.73 | 150780 | 163077 14 | 36:14.28 | 3:04.23 | 163078 | 176900 15 | 39:18.51 | 2:30.74 | 176901 | 188224 16 | 41:49.50 | 3:00.32 | 188225 | 201756 17 | 44:50.07 | 2:23.05 | 201757 | 212486 18 | 47:13.12 | 2:59.16 | 212487 | 225927 19 | 50:12.28 | 3:13.60 | 225928 | 240462 20 | 53:26.13 | 2:41.71 | 240463 | 252608 21 | 56:08.09 | 3:35.06 | 252609 | 268739 22 | 59:43.15 | 2:43.68 | 268740 | 281032 23 | 62:27.08 | 3:29.43 | 281033 | 296750 24 | 65:56.51 | 3:26.70 | 296751 | 312270 25 | 69:23.46 | 2:27.70 | 312271 | 323365 26 | 71:51.41 | 2:29.35 | 323366 | 334575 27 | 74:21.01 | 2:50.50 | 334576 | 347375
Track 1
Filename E:\GOLD\what.cd\Gary Stewart & Dean Dillon - Brotherly Love - Those Were The Days (2005) FLAC\01 Brotherly Love.wav
Pre-gap length 0:00:02.00
Peak level 100.0 % Extraction speed 1.2 X Track quality 100.0 % Test CRC AB069265 Copy CRC AB069265 Accurately ripped (confidence 1) [3910B3FD] (AR v1) Copy OK
Track 2
Filename E:\GOLD\what.cd\Gary Stewart & Dean Dillon - Brotherly Love - Those Were The Days (2005) FLAC\02 Cold Turkey.wav
Pre-gap length 0:00:02.54
Peak level 100.0 % Extraction speed 2.5 X Track quality 100.0 % Test CRC A74BC58A Copy CRC A74BC58A Accurately ripped (confidence 1) [A4C32E6F] (AR v1) Copy OK
Track 3
Filename E:\GOLD\what.cd\Gary Stewart & Dean Dillon - Brotherly Love - Those Were The Days (2005) FLAC\03 You To Come Home To.wav
Pre-gap length 0:00:03.21
Peak level 100.0 % Extraction speed 4.8 X Track quality 100.0 % Test CRC D499929B Copy CRC D499929B Accurately ripped (confidence 1) [A152B66C] (AR v1) Copy OK
Track 4
Filename E:\GOLD\what.cd\Gary Stewart & Dean Dillon - Brotherly Love - Those Were The Days (2005) FLAC\04 Honkey Tonk Crazy.wav
Pre-gap length 0:00:02.88
Peak level 93.3 % Extraction speed 5.3 X Track quality 100.0 % Test CRC 4FD02F42 Copy CRC 4FD02F42 Accurately ripped (confidence 1) [EF38B3EA] (AR v1) Copy OK
Track 5
Filename E:\GOLD\what.cd\Gary Stewart & Dean Dillon - Brotherly Love - Those Were The Days (2005) FLAC\05 Body Shop.wav
Pre-gap length 0:00:02.82
Peak level 100.0 % Extraction speed 5.3 X Track quality 100.0 % Test CRC 253CA251 Copy CRC 253CA251 Accurately ripped (confidence 1) [7DD8BC3C] (AR v1) Copy OK
Track 6
Filename E:\GOLD\what.cd\Gary Stewart & Dean Dillon - Brotherly Love - Those Were The Days (2005) FLAC\06 Suburban Life.wav
Pre-gap length 0:00:02.93
Peak level 100.0 % Extraction speed 5.8 X Track quality 100.0 % Test CRC 366AD1DF Copy CRC 366AD1DF Accurately ripped (confidence 1) [C180F5AF] (AR v1) Copy OK
Track 7
Filename E:\GOLD\what.cd\Gary Stewart & Dean Dillon - Brotherly Love - Those Were The Days (2005) FLAC\07 Play This Old Working Day Away.wav
Pre-gap length 0:00:02.80
Peak level 100.0 % Extraction speed 6.0 X Track quality 100.0 % Test CRC 737035F5 Copy CRC 737035F5 Accurately ripped (confidence 1) [C198A093] (AR v1) Copy OK
Track 8
Filename E:\GOLD\what.cd\Gary Stewart & Dean Dillon - Brotherly Love - Those Were The Days (2005) FLAC\08 She Sings Amazing Grace.wav
Pre-gap length 0:00:02.80
Peak level 100.0 % Extraction speed 4.9 X Track quality 99.9 % Test CRC B478AA29 Copy CRC B478AA29 Accurately ripped (confidence 1) [CE725710] (AR v1) Copy OK
Track 9
Filename E:\GOLD\what.cd\Gary Stewart & Dean Dillon - Brotherly Love - Those Were The Days (2005) FLAC\09 Firewater Friends.wav
Pre-gap length 0:00:02.49
Peak level 100.0 % Extraction speed 6.1 X Track quality 100.0 % Test CRC CEBCDA44 Copy CRC CEBCDA44 Accurately ripped (confidence 1) [E2C81BEB] (AR v1) Copy OK
Track 10
Filename E:\GOLD\what.cd\Gary Stewart & Dean Dillon - Brotherly Love - Those Were The Days (2005) FLAC\10 Let's Start A War.wav
Pre-gap length 0:00:02.77
Peak level 100.0 % Extraction speed 6.6 X Track quality 100.0 % Test CRC E6371C0E Copy CRC E6371C0E Accurately ripped (confidence 1) [694E572A] (AR v1) Copy OK
Track 11
Filename E:\GOLD\what.cd\Gary Stewart & Dean Dillon - Brotherly Love - Those Were The Days (2005) FLAC\11 I'm Into The Bottle ( To Get You Out Of My Mind ).wav
Pre-gap length 0:00:02.90
Peak level 100.0 % Extraction speed 7.0 X Track quality 100.0 % Test CRC 705393B7 Copy CRC 705393B7 Accurately ripped (confidence 1) [34DBE022] (AR v1) Copy OK
Track 12
Filename E:\GOLD\what.cd\Gary Stewart & Dean Dillon - Brotherly Love - Those Were The Days (2005) FLAC\12 Tonight.wav
Pre-gap length 0:00:02.80
Peak level 100.0 % Extraction speed 6.5 X Track quality 100.0 % Test CRC 1CE2DA3C Copy CRC 1CE2DA3C Accurately ripped (confidence 1) [488AC3A8] (AR v1) Copy OK
Track 13
Filename E:\GOLD\what.cd\Gary Stewart & Dean Dillon - Brotherly Love - Those Were The Days (2005) FLAC\13 What Good Is A Heart.wav
Pre-gap length 0:00:02.70
Peak level 100.0 % Extraction speed 5.5 X Track quality 99.9 % Test CRC 070DB680 Copy CRC E4531FC0 Cannot be verified as accurate (confidence 1) [459B2037], AccurateRip returned [107D8A42] (AR v2) Copy OK
Track 14
Filename E:\GOLD\what.cd\Gary Stewart & Dean Dillon - Brotherly Love - Those Were The Days (2005) FLAC\14 He's Number One.wav
Pre-gap length 0:00:02.70
Peak level 100.0 % Extraction speed 7.4 X Track quality 100.0 % Test CRC 8507B14F Copy CRC 8507B14F Cannot be verified as accurate (confidence 1) [34A2F02A], AccurateRip returned [609F9C9A] (AR v2) Copy OK
Track 15
Filename E:\GOLD\what.cd\Gary Stewart & Dean Dillon - Brotherly Love - Those Were The Days (2005) FLAC\15 Nobody In His Right Mind ( Would've Left Her ).wav
Pre-gap length 0:00:02.69
Peak level 100.0 % Extraction speed 7.3 X Track quality 100.0 % Test CRC 3505BE0F Copy CRC 3505BE0F Cannot be verified as accurate (confidence 1) [106ABE99], AccurateRip returned [69151D5E] (AR v2) Copy OK
Track 16
Filename E:\GOLD\what.cd\Gary Stewart & Dean Dillon - Brotherly Love - Those Were The Days (2005) FLAC\16 Smelling Like A Rose.wav
Pre-gap length 0:00:02.65
Peak level 100.0 % Extraction speed 0.0 X Track quality 97.0 % Test CRC C5F69446 Copy CRC C5F69446 Cannot be verified as accurate (confidence 1) [C5D5BA83], AccurateRip returned [2DAFAB26] (AR v2) Copy OK
Track 17
Filename E:\GOLD\what.cd\Gary Stewart & Dean Dillon - Brotherly Love - Those Were The Days (2005) FLAC\17 They'll Never Take Me Alive.wav
Pre-gap length 0:00:02.70
Peak level 100.0 % Extraction speed 5.6 X Track quality 99.9 % Test CRC 4938558C Copy CRC 625DE150 Cannot be verified as accurate (confidence 1) [02E0910C], AccurateRip returned [5FCBC9FF] (AR v2) Copy OK
Track 18
Filename E:\GOLD\what.cd\Gary Stewart & Dean Dillon - Brotherly Love - Those Were The Days (2005) FLAC\18 Tonight One Of Us Is Going Out Of My Mind.wav
Pre-gap length 0:00:02.85
Peak level 100.0 % Extraction speed 2.2 X Track quality 100.0 % Test CRC A42D659F Copy CRC A42D659F Accurately ripped (confidence 1) [CAFB1077] (AR v1) Copy OK
Track 19
Filename E:\GOLD\what.cd\Gary Stewart & Dean Dillon - Brotherly Love - Those Were The Days (2005) FLAC\19 Jesus Let Me Slide.wav
Pre-gap length 0:00:02.81
Peak level 100.0 % Extraction speed 4.5 X Track quality 100.0 % Test CRC 180FB8CA Copy CRC 180FB8CA Accurately ripped (confidence 1) [4F45F3BA] (AR v1) Copy OK
Track 20
Filename E:\GOLD\what.cd\Gary Stewart & Dean Dillon - Brotherly Love - Those Were The Days (2005) FLAC\20 If You're Going Crazy ( I'm Headed That Way ).wav
Pre-gap length 0:00:02.77
Peak level 97.2 % Extraction speed 2.3 X Track quality 100.0 % Test CRC 1D3E6ECE Copy CRC 1D3E6ECE Accurately ripped (confidence 1) [1ED63B0A] (AR v1) Copy OK
Track 21
Filename E:\GOLD\what.cd\Gary Stewart & Dean Dillon - Brotherly Love - Those Were The Days (2005) FLAC\21 Famous Last Words Of A Fool.wav
Pre-gap length 0:00:02.73
Peak level 100.0 % Extraction speed 4.7 X Track quality 100.0 % Test CRC BC6B4B22 Copy CRC BC6B4B22 Accurately ripped (confidence 1) [FBB4B132] (AR v1) Copy OK
Track 22
Filename E:\GOLD\what.cd\Gary Stewart & Dean Dillon - Brotherly Love - Those Were The Days (2005) FLAC\22 Those Were The Days.wav
Pre-gap length 0:00:02.82
Peak level 100.0 % Extraction speed 4.6 X Track quality 100.0 % Test CRC 144BB607 Copy CRC 144BB607 Accurately ripped (confidence 1) [1C4CDE1F] (AR v1) Copy OK
Track 23
Filename E:\GOLD\what.cd\Gary Stewart & Dean Dillon - Brotherly Love - Those Were The Days (2005) FLAC\23 Misfits.wav
Pre-gap length 0:00:02.74
Peak level 100.0 % Extraction speed 2.6 X Track quality 100.0 % Test CRC FEC635DB Copy CRC FEC635DB Accurately ripped (confidence 1) [AC50845E] (AR v1) Copy OK
Track 24
Filename E:\GOLD\what.cd\Gary Stewart & Dean Dillon - Brotherly Love - Those Were The Days (2005) FLAC\24 Hard Time For Lovers.wav
Pre-gap length 0:00:02.82
Peak level 100.0 % Extraction speed 2.6 X Track quality 100.0 % Test CRC 4F1C0867 Copy CRC 4F1C0867 Accurately ripped (confidence 1) [97AE7C4F] (AR v1) Copy OK
Track 25
Filename E:\GOLD\what.cd\Gary Stewart & Dean Dillon - Brotherly Love - Those Were The Days (2005) FLAC\25 Living On The Ragged Edge.wav
Pre-gap length 0:00:02.81
Peak level 100.0 % Extraction speed 2.5 X Track quality 100.0 % Test CRC 23A30417 Copy CRC 23A30417 Accurately ripped (confidence 1) [9EDC6A3F] (AR v1) Copy OK
Track 26
Filename E:\GOLD\what.cd\Gary Stewart & Dean Dillon - Brotherly Love - Those Were The Days (2005) FLAC\26 Lovers And Losers.wav
Pre-gap length 0:00:02.76
Peak level 100.0 % Extraction speed 2.5 X Track quality 100.0 % Test CRC D841E151 Copy CRC D841E151 Accurately ripped (confidence 1) [56F7A6A0] (AR v1) Copy OK
Track 27
Filename E:\GOLD\what.cd\Gary Stewart & Dean Dillon - Brotherly Love - Those Were The Days (2005) FLAC\27 Smokin' In The Rockies.wav
Pre-gap length 0:00:02.73
Peak level 100.0 % Extraction speed 2.2 X Track quality 99.9 % Test CRC BE95B6E8 Copy CRC 81174471 Cannot be verified as accurate (confidence 1) [DF08EB1C], AccurateRip returned [52C520BD] (AR v2) Copy OK
21 track(s) accurately ripped 6 track(s) could not be verified as accurate
Some tracks could not be verified as accurate
No errors occurred
End of status report
==== Log checksum EB8A5B3AE50A5CC292C4329A39AB76C801BB89EBB9925E9EA15C8B8185D4C558 ====

Содержание индексной карты (.CUE)

REM GENRE CountryREM DATE 2005REM DISCID 7312171BREM COMMENT "ExactAudioCopy v1.0b2"FILE "01 Brotherly Love.wav" WAVE TRACK 01 AUDIO INDEX 01 00:00:00 TRACK 02 AUDIO INDEX 00 02:36:50FILE "02 Cold Turkey.wav" WAVE INDEX 01 00:00:00 TRACK 03 AUDIO INDEX 00 03:00:60FILE "03 You To Come Home To.wav" WAVE INDEX 01 00:00:00 TRACK 04 AUDIO INDEX 00 02:26:07FILE "04 Honkey Tonk Crazy.wav" WAVE INDEX 01 00:00:00 TRACK 05 AUDIO INDEX 00 02:55:28FILE "05 Body Shop.wav" WAVE INDEX 01 00:00:00 TRACK 06 AUDIO INDEX 00 02:31:04FILE "06 Suburban Life.wav" WAVE INDEX 01 00:00:00 TRACK 07 AUDIO INDEX 00 03:06:23FILE "07 Play This Old Working Day Away.wav" WAVE INDEX 01 00:00:00 TRACK 08 AUDIO INDEX 00 03:04:14FILE "08 She Sings Amazing Grace.wav" WAVE INDEX 01 00:00:00 TRACK 09 AUDIO INDEX 00 02:50:35FILE "09 Firewater Friends.wav" WAVE INDEX 01 00:00:00 TRACK 10 AUDIO INDEX 00 02:12:42FILE "10 Let's Start A War.wav" WAVE INDEX 01 00:00:00 TRACK 11 AUDIO INDEX 00 02:49:35FILE "11 I'm Into The Bottle ( To Get You Out Of My Mind ).wav" WAVE INDEX 01 00:00:00 TRACK 12 AUDIO INDEX 00 03:28:04FILE "12 Tonight.wav" WAVE INDEX 01 00:00:00 TRACK 13 AUDIO INDEX 00 01:55:52FILE "13 What Good Is A Heart.wav" WAVE INDEX 01 00:00:00 TRACK 14 AUDIO INDEX 00 02:41:20FILE "14 He's Number One.wav" WAVE INDEX 01 00:00:00 TRACK 15 AUDIO INDEX 00 03:01:46FILE "15 Nobody In His Right Mind ( Would've Left Her ).wav" WAVE INDEX 01 00:00:00 TRACK 16 AUDIO INDEX 00 02:28:25FILE "16 Smelling Like A Rose.wav" WAVE INDEX 01 00:00:00 TRACK 17 AUDIO INDEX 00 02:57:54FILE "17 They'll Never Take Me Alive.wav" WAVE INDEX 01 00:00:00 TRACK 18 AUDIO INDEX 00 02:20:16FILE "18 Tonight One Of Us Is Going Out Of My Mind.wav" WAVE INDEX 01 00:00:00 TRACK 19 AUDIO INDEX 00 02:56:30FILE "19 Jesus Let Me Slide.wav" WAVE INDEX 01 00:00:00 TRACK 20 AUDIO INDEX 00 03:11:02FILE "20 If You're Going Crazy ( I'm Headed That Way ).wav" WAVE INDEX 01 00:00:00 TRACK 21 AUDIO INDEX 00 02:39:16FILE "21 Famous Last Words Of A Fool.wav" WAVE INDEX 01 00:00:00 TRACK 22 AUDIO INDEX 00 03:32:19FILE "22 Those Were The Days.wav" WAVE INDEX 01 00:00:00 TRACK 23 AUDIO INDEX 00 02:41:12FILE "23 Misfits.wav" WAVE INDEX 01 00:00:00 TRACK 24 AUDIO INDEX 00 03:26:56FILE "24 Hard Time For Lovers.wav" WAVE INDEX 01 00:00:00 TRACK 25 AUDIO INDEX 00 03:24:09FILE "25 Living On The Ragged Edge.wav" WAVE INDEX 01 00:00:00 TRACK 26 AUDIO INDEX 00 02:25:13FILE "26 Lovers And Losers.wav" WAVE INDEX 01 00:00:00 TRACK 27 AUDIO INDEX 00 02:26:55FILE "27 Smokin' In The Rockies.wav" WAVE INDEX 01 00:00:00

Лог проверки качества

AUDIOCHECKER v2.0 beta (build 457) - by Dester - [email protected]
-=== DO NOT EDIT THIS FILE! ===-
Path: ...\2.Gary Stewart & Dean Dillon - Brotherly Love - Those Were The Days - 2005
01 -=- 01 Brotherly Love.flac -=- CDDA (100%)02 -=- 02 Cold Turkey.flac -=- CDDA (100%)03 -=- 03 You To Come Home To.flac -=- CDDA (100%)04 -=- 04 Honkey Tonk Crazy.flac -=- CDDA (100%)05 -=- 05 Body Shop.flac -=- CDDA (100%)06 -=- 06 Suburban Life.flac -=- CDDA (100%)07 -=- 07 Play This Old Working Day Away.flac -=- CDDA (100%)08 -=- 08 She Sings Amazing Grace.flac -=- CDDA (100%)09 -=- 09 Firewater Friends.flac -=- CDDA (100%)10 -=- 10 Let's Start A War.flac -=- CDDA (100%)11 -=- 11 I'm Into The Bottle ( To Get You Out Of My Mind ).flac -=- CDDA (100%)12 -=- 12 Tonight.flac -=- CDDA (100%)13 -=- 13 What Good Is A Heart.flac -=- CDDA (100%)14 -=- 14 He's Number One.flac -=- CDDA (100%)15 -=- 15 Nobody In His Right Mind ( Would've Left Her ).flac -=- CDDA (99%)16 -=- 16 Smelling Like A Rose.flac -=- CDDA (100%)17 -=- 17 They'll Never Take Me Alive.flac -=- CDDA (100%)18 -=- 18 Tonight One Of Us Is Going Out Of My Mind.flac -=- CDDA (100%)19 -=- 19 Jesus Let Me Slide.flac -=- CDDA (99%)20 -=- 20 If You're Going Crazy ( I'm Headed That Way ).flac -=- CDDA (99%)21 -=- 21 Famous Last Words Of A Fool.flac -=- CDDA (99%)22 -=- 22 Those Were The Days.flac -=- CDDA (100%)23 -=- 23 Misfits.flac -=- CDDA (100%)24 -=- 24 Hard Time For Lovers.flac -=- CDDA (100%)25 -=- 25 Living On The Ragged Edge.flac -=- CDDA (100%)26 -=- 26 Lovers And Losers.flac -=- CDDA (100%)27 -=- 27 Smokin' In The Rockies.flac -=- CDDA (100%)
Summary 99,85% CDDA
246644724

Gary Stewart - The Essential Gary Stewart - 1997

Страна-производитель диска: US
Год первого выпуска: 1997
Год настоящего издания: 1997
Издатель (лейбл): RCA
Номер по каталогу: 66932
Format: CD, Compilation, Original
Аудиокодек: FLAC (*.flac)
Тип рипа: tracks+.cue
Битрейт аудио: lossless
Продолжительность:
Источник (релизер): What.CD
Наличие сканов в содержимом раздачи: да
Треклист:
01. Drinkin' Thing (02:59)
02. Honky-Tonkin' (02:50)
03. Roarin' (03:55)
04. She's Actin' Single (I'm Drinkin' Doubles) (02:49)
05. Back Sliders Wine (03:06)
06. Out Of Hand (03:02)
07. Single Again (03:06)
08. Quits (03:17)
09. Oh, Sweet Temptation (02:55)
10. In Some Room Above The Street (03:12)
11. Your Place Or Mine (03:04)
12. Ten Years Of This (02:35)
13. Whiskey Trip (03:09)
14. Stone Wall (Around Your Heart) (03:12)
15. Flat Natural Born Good-Timin' Man (02:47)
16. Mazelle (03:15)
17. Cactus And A Rose (03:22)
18. Are We Dreamin' The Same Dream (04:02)
19. I See The Want In Your Eyes (02:41)
20. Brotherly Love (02:39)

Лог создания рипа

Exact Audio Copy V1.0 beta 3 from 29. August 2011
EAC extraction logfile from 5. November 2014, 0:15
Gary Stewart / The Essential Gary Stewart
Used drive : TSSTcorpCDDVDW TS-H653N Adapter: 0 ID: 1
Read mode : SecureUtilize accurate stream : YesDefeat audio cache : YesMake use of C2 pointers : No
Read offset correction : 6Overread into Lead-In and Lead-Out : NoFill up missing offset samples with silence : YesDelete leading and trailing silent blocks : NoNull samples used in CRC calculations : YesUsed interface : Native Win32 interface for Win NT & 2000Gap handling : Appended to previous track
Used output format : User Defined EncoderSelected bitrate : 1024 kBit/sQuality : HighAdd ID3 tag : NoCommand line compressor : C:\Program Files (x86)\Exact Audio Copy\FLAC\FLAC.EXEAdditional command line options : -6 -V -T "ARTIST=%artist%" -T "TITLE=%title%" -T "ALBUM=%albumtitle%" -T "DATE=%year%" -T "TRACKNUMBER=%tracknr%" -T "GENRE=%genre%" -T "COMMENT=%comment%" -T "BAND=%albuminterpret%" -T "ALBUMARTIST=%albuminterpret%" -T "COMPOSER=%composer%" %haslyrics%--tag-from-file=LYRICS="%lyricsfile%"%haslyrics% -T "DISCNUMBER=%cdnumber%" -T "TOTALDISCS=%totalcds%" -T "TOTALTRACKS=%numtracks%" %hascover%--picture="%coverfile%"%hascover% %source% -o %dest%
TOC of the extracted CD
Track | Start | Length | Start sector | End sector --------------------------------------------------------- 1 | 0:00.37 | 2:59.03 | 37 | 13464 2 | 2:59.40 | 2:50.12 | 13465 | 26226 3 | 5:49.52 | 3:54.45 | 26227 | 43821 4 | 9:44.22 | 2:48.70 | 43822 | 56491 5 | 12:33.17 | 3:06.08 | 56492 | 70449 6 | 15:39.25 | 3:01.72 | 70450 | 84096 7 | 18:41.22 | 3:06.05 | 84097 | 98051 8 | 21:47.27 | 3:17.30 | 98052 | 112856 9 | 25:04.57 | 2:55.25 | 112857 | 126006 10 | 28:00.07 | 3:12.30 | 126007 | 140436 11 | 31:12.37 | 3:03.73 | 140437 | 154234 12 | 34:16.35 | 2:34.55 | 154235 | 165839 13 | 36:51.15 | 3:09.30 | 165840 | 180044 14 | 40:00.45 | 3:12.00 | 180045 | 194444 15 | 43:12.45 | 2:47.00 | 194445 | 206969 16 | 45:59.45 | 3:15.25 | 206970 | 221619 17 | 49:14.70 | 3:22.25 | 221620 | 236794 18 | 52:37.20 | 4:02.22 | 236795 | 254966 19 | 56:39.42 | 2:41.23 | 254967 | 267064 20 | 59:20.65 | 2:39.32 | 267065 | 279021
Track 1
Filename I:\What.CD\My Rips\Gary Stewart - The Essential Gary Stewart (1997) [FLAC]\01 Drinkin' Thing.wav
Pre-gap length 0:00:02.49
Peak level 93.1 % Extraction speed 4.1 X Track quality 100.0 % Test CRC 37903BE8 Copy CRC 37903BE8 Accurately ripped (confidence 4) [EE8F948F] (AR v1) Copy OK
Track 2
Filename I:\What.CD\My Rips\Gary Stewart - The Essential Gary Stewart (1997) [FLAC]\02 Honky-Tonkin'.wav
Pre-gap length 0:00:01.32
Peak level 90.0 % Extraction speed 4.4 X Track quality 100.0 % Test CRC 7181128B Copy CRC 7181128B Accurately ripped (confidence 4) [D052105F] (AR v1) Copy OK
Track 3
Filename I:\What.CD\My Rips\Gary Stewart - The Essential Gary Stewart (1997) [FLAC]\03 Roarin'.wav
Pre-gap length 0:00:02.28
Peak level 91.8 % Extraction speed 5.0 X Track quality 100.0 % Test CRC CE3802A6 Copy CRC CE3802A6 Accurately ripped (confidence 4) [7C8952BA] (AR v1) Copy OK
Track 4
Filename I:\What.CD\My Rips\Gary Stewart - The Essential Gary Stewart (1997) [FLAC]\04 She's Actin' Single (I'm Drinkin' Doubles).wav
Pre-gap length 0:00:02.28
Peak level 88.6 % Extraction speed 5.0 X Track quality 100.0 % Test CRC CCAB5DAF Copy CRC CCAB5DAF Accurately ripped (confidence 5) [2D850BF6] (AR v1) Copy OK
Track 5
Filename I:\What.CD\My Rips\Gary Stewart - The Essential Gary Stewart (1997) [FLAC]\05 Back Sliders Wine.wav
Pre-gap length 0:00:02.28
Peak level 90.9 % Extraction speed 5.4 X Track quality 100.0 % Test CRC F02C96F6 Copy CRC F02C96F6 Accurately ripped (confidence 4) [DABCB29A] (AR v1) Copy OK
Track 6
Filename I:\What.CD\My Rips\Gary Stewart - The Essential Gary Stewart (1997) [FLAC]\06 Out Of Hand.wav
Pre-gap length 0:00:02.29
Peak level 91.2 % Extraction speed 5.6 X Track quality 100.0 % Test CRC 4958585D Copy CRC 4958585D Accurately ripped (confidence 5) [E4D1074C] (AR v1) Copy OK
Track 7
Filename I:\What.CD\My Rips\Gary Stewart - The Essential Gary Stewart (1997) [FLAC]\07 Single Again.wav
Pre-gap length 0:00:02.28
Peak level 80.9 % Extraction speed 5.9 X Track quality 100.0 % Test CRC FE0BA754 Copy CRC FE0BA754 Accurately ripped (confidence 4) [68156618] (AR v1) Copy OK
Track 8
Filename I:\What.CD\My Rips\Gary Stewart - The Essential Gary Stewart (1997) [FLAC]\08 Quits.wav
Pre-gap length 0:00:02.28
Peak level 94.4 % Extraction speed 6.2 X Track quality 100.0 % Test CRC 88BD7DEC Copy CRC 88BD7DEC Accurately ripped (confidence 4) [FF7CCF87] (AR v1) Copy OK
Track 9
Filename I:\What.CD\My Rips\Gary Stewart - The Essential Gary Stewart (1997) [FLAC]\09 Oh, Sweet Temptation.wav
Pre-gap length 0:00:02.28
Peak level 93.6 % Extraction speed 6.3 X Track quality 100.0 % Test CRC 19D07F7E Copy CRC 19D07F7E Accurately ripped (confidence 4) [6190EFA4] (AR v1) Copy OK
Track 10
Filename I:\What.CD\My Rips\Gary Stewart - The Essential Gary Stewart (1997) [FLAC]\10 In Some Room Above The Street.wav
Pre-gap length 0:00:02.28
Peak level 94.4 % Extraction speed 6.7 X Track quality 100.0 % Test CRC 1E439184 Copy CRC 1E439184 Accurately ripped (confidence 4) [B8F1B80B] (AR v1) Copy OK
Track 11
Filename I:\What.CD\My Rips\Gary Stewart - The Essential Gary Stewart (1997) [FLAC]\11 Your Place Or Mine.wav
Pre-gap length 0:00:02.28
Peak level 94.4 % Extraction speed 6.8 X Track quality 100.0 % Test CRC DCB1CA34 Copy CRC DCB1CA34 Accurately ripped (confidence 4) [77EB7F31] (AR v1) Copy OK
Track 12
Filename I:\What.CD\My Rips\Gary Stewart - The Essential Gary Stewart (1997) [FLAC]\12 Ten Years Of This.wav
Pre-gap length 0:00:02.29
Peak level 92.1 % Extraction speed 6.6 X Track quality 100.0 % Test CRC 5E97913A Copy CRC 5E97913A Accurately ripped (confidence 4) [69F88AAF] (AR v1) Copy OK
Track 13
Filename I:\What.CD\My Rips\Gary Stewart - The Essential Gary Stewart (1997) [FLAC]\13 Whiskey Trip.wav
Pre-gap length 0:00:01.82
Peak level 92.1 % Extraction speed 7.1 X Track quality 100.0 % Test CRC 324DB858 Copy CRC 324DB858 Accurately ripped (confidence 4) [8AE0E82E] (AR v1) Copy OK
Track 14
Filename I:\What.CD\My Rips\Gary Stewart - The Essential Gary Stewart (1997) [FLAC]\14 Stone Wall (Around Your Heart).wav
Pre-gap length 0:00:01.38
Peak level 91.8 % Extraction speed 7.4 X Track quality 100.0 % Test CRC EF4C8F56 Copy CRC EF4C8F56 Accurately ripped (confidence 4) [F2C34E68] (AR v1) Copy OK
Track 15
Filename I:\What.CD\My Rips\Gary Stewart - The Essential Gary Stewart (1997) [FLAC]\15 Flat Natural Born Good-Timin' Man.wav
Pre-gap length 0:00:02.29
Peak level 94.1 % Extraction speed 3.1 X Track quality 99.9 % Test CRC 2783D5A7 Copy CRC 2783D5A7 Accurately ripped (confidence 4) [D8D607BD] (AR v1) Copy OK
Track 16
Filename I:\What.CD\My Rips\Gary Stewart - The Essential Gary Stewart (1997) [FLAC]\16 Mazelle.wav
Pre-gap length 0:00:02.29
Peak level 93.1 % Extraction speed 7.7 X Track quality 100.0 % Test CRC 30E2B208 Copy CRC 30E2B208 Accurately ripped (confidence 4) [0CFD7170] (AR v1) Copy OK
Track 17
Filename I:\What.CD\My Rips\Gary Stewart - The Essential Gary Stewart (1997) [FLAC]\17 Cactus And A Rose.wav
Pre-gap length 0:00:02.29
Peak level 88.8 % Extraction speed 7.9 X Track quality 100.0 % Test CRC 59A92D55 Copy CRC 59A92D55 Accurately ripped (confidence 4) [C7B1B484] (AR v1) Copy OK
Track 18
Filename I:\What.CD\My Rips\Gary Stewart - The Essential Gary Stewart (1997) [FLAC]\18 Are We Dreamin' The Same Dream.wav
Pre-gap length 0:00:01.65
Peak level 92.5 % Extraction speed 8.3 X Track quality 100.0 % Test CRC FB06FDB2 Copy CRC FB06FDB2 Accurately ripped (confidence 4) [DD05E373] (AR v1) Copy OK
Track 19
Filename I:\What.CD\My Rips\Gary Stewart - The Essential Gary Stewart (1997) [FLAC]\19 I See The Want In Your Eyes.wav
Pre-gap length 0:00:02.28
Peak level 89.8 % Extraction speed 3.0 X Track quality 99.9 % Test CRC 4B8E1ED7 Copy CRC 4B8E1ED7 Accurately ripped (confidence 4) [FCA6746A] (AR v1) Copy OK
Track 20
Filename I:\What.CD\My Rips\Gary Stewart - The Essential Gary Stewart (1997) [FLAC]\20 Brotherly Love (Duet with Dean Dillon).wav
Pre-gap length 0:00:02.29
Peak level 94.4 % Extraction speed 8.1 X Track quality 100.0 % Test CRC B09F764D Copy CRC B09F764D Accurately ripped (confidence 4) [2FC9CF58] (AR v1) Copy OK
All tracks accurately ripped
No errors occurred
End of status report
==== Log checksum 0358BE36F9052790234316E4B619721DFE1BDC0D957259AE8290AB59FF4C0E83 ====

Содержание индексной карты (.CUE)

REM DATE 1997REM DISCID 100E8814REM COMMENT "ExactAudioCopy v1.0b3"CATALOG 0000000000000PERFORMER "Gary Stewart"TITLE "The Essential Gary Stewart"FILE "01 Drinkin' Thing.wav" WAVE TRACK 01 AUDIO TITLE "Drinkin' Thing" PERFORMER "Gary Stewart" ISRC H2JN19600297 PREGAP 00:00:37 INDEX 01 00:00:00 TRACK 02 AUDIO TITLE "Honky-Tonkin'" PERFORMER "Gary Stewart" ISRC H2JN19600298 INDEX 00 02:57:54FILE "02 Honky-Tonkin'.wav" WAVE INDEX 01 00:00:00 TRACK 03 AUDIO TITLE "Roarin'" PERFORMER "Gary Stewart" ISRC H2JN19600299 INDEX 00 02:47:66FILE "03 Roarin'.wav" WAVE INDEX 01 00:00:00 TRACK 04 AUDIO TITLE "She's Actin' Single (I'm Drinkin' Doubles)" PERFORMER "Gary Stewart" ISRC H2JN19600300 INDEX 00 03:52:24FILE "04 She's Actin' Single (I'm Drinkin' Doubles).wav" WAVE INDEX 01 00:00:00 TRACK 05 AUDIO TITLE "Back Sliders Wine" PERFORMER "Gary Stewart" ISRC H2JN19600301 INDEX 00 02:46:49FILE "05 Back Sliders Wine.wav" WAVE INDEX 01 00:00:00 TRACK 06 AUDIO TITLE "Out Of Hand" PERFORMER "Gary Stewart" ISRC H2JN19600302 INDEX 00 03:03:61FILE "06 Out Of Hand.wav" WAVE INDEX 01 00:00:00 TRACK 07 AUDIO TITLE "Single Again" PERFORMER "Gary Stewart" ISRC H2JN19600303 INDEX 00 02:59:51FILE "07 Single Again.wav" WAVE INDEX 01 00:00:00 TRACK 08 AUDIO TITLE "Quits" PERFORMER "Gary Stewart" ISRC H2JN19600304 INDEX 00 03:03:59FILE "08 Quits.wav" WAVE INDEX 01 00:00:00 TRACK 09 AUDIO TITLE "Oh, Sweet Temptation" PERFORMER "Gary Stewart" ISRC H2JN19600305 INDEX 00 03:15:09FILE "09 Oh, Sweet Temptation.wav" WAVE INDEX 01 00:00:00 TRACK 10 AUDIO TITLE "In Some Room Above The Street" PERFORMER "Gary Stewart" ISRC H2JN19600306 INDEX 00 02:53:04FILE "10 In Some Room Above The Street.wav" WAVE INDEX 01 00:00:00 TRACK 11 AUDIO TITLE "Your Place Or Mine" PERFORMER "Gary Stewart" ISRC H2JN19600307 INDEX 00 03:10:09FILE "11 Your Place Or Mine.wav" WAVE INDEX 01 00:00:00 TRACK 12 AUDIO TITLE "Ten Years Of This" PERFORMER "Gary Stewart" ISRC H2JN19600308 INDEX 00 03:01:51FILE "12 Ten Years Of This.wav" WAVE INDEX 01 00:00:00 TRACK 13 AUDIO TITLE "Whiskey Trip" PERFORMER "Gary Stewart" ISRC H2JN19600309 INDEX 00 02:32:68FILE "13 Whiskey Trip.wav" WAVE INDEX 01 00:00:00 TRACK 14 AUDIO TITLE "Stone Wall (Around Your Heart)" PERFORMER "Gary Stewart" ISRC H2JN19600310 INDEX 00 03:08:01FILE "14 Stone Wall (Around Your Heart).wav" WAVE INDEX 01 00:00:00 TRACK 15 AUDIO TITLE "Flat Natural Born Good-Timin' Man" PERFORMER "Gary Stewart" ISRC H2JN19600311 INDEX 00 03:09:53FILE "15 Flat Natural Born Good-Timin' Man.wav" WAVE INDEX 01 00:00:00 TRACK 16 AUDIO TITLE "Mazelle" PERFORMER "Gary Stewart" ISRC H2JN19600312 INDEX 00 02:44:53FILE "16 Mazelle.wav" WAVE INDEX 01 00:00:00 TRACK 17 AUDIO TITLE "Cactus And A Rose" PERFORMER "Gary Stewart" ISRC H2JN19600313 INDEX 00 03:13:03FILE "17 Cactus And A Rose.wav" WAVE INDEX 01 00:00:00 TRACK 18 AUDIO TITLE "Are We Dreamin' The Same Dream" PERFORMER "Gary Stewart" ISRC H2JN19600314 INDEX 00 03:20:51FILE "18 Are We Dreamin' The Same Dream.wav" WAVE INDEX 01 00:00:00 TRACK 19 AUDIO TITLE "I See The Want In Your Eyes" PERFORMER "Gary Stewart" ISRC H2JN19600315 INDEX 00 04:00:01FILE "19 I See The Want In Your Eyes.wav" WAVE INDEX 01 00:00:00 TRACK 20 AUDIO TITLE "Brotherly Love (Duet with Dean Dillon)" PERFORMER "Gary Stewart" ISRC H2JN19600316 INDEX 00 02:39:01FILE "20 Brotherly Love (Duet with Dean Dillon).wav" WAVE INDEX 01 00:00:00

Лог проверки качества

AUDIOCHECKER v2.0 beta (build 457) - by Dester - [email protected]
-=== DO NOT EDIT THIS FILE! ===-
Path: ...\3.Gary Stewart - The Essential Gary Stewart - 1997
01 -=- 01 Drinkin' Thing.flac -=- CDDA (100%)02 -=- 02 Honky-Tonkin'.flac -=- CDDA (99%)03 -=- 03 Roarin'.flac -=- CDDA (100%)04 -=- 04 She's Actin' Single (I'm Drinkin' Doubles).flac -=- CDDA (100%)05 -=- 05 Back Sliders Wine.flac -=- CDDA (100%)06 -=- 06 Out Of Hand.flac -=- CDDA (100%)07 -=- 07 Single Again.flac -=- CDDA (100%)08 -=- 08 Quits.flac -=- CDDA (99%)09 -=- 09 Oh, Sweet Temptation.flac -=- CDDA (100%)10 -=- 10 In Some Room Above The Street.flac -=- CDDA (100%)11 -=- 11 Your Place Or Mine.flac -=- CDDA (99%)12 -=- 12 Ten Years Of This.flac -=- CDDA (100%)13 -=- 13 Whiskey Trip.flac -=- CDDA (100%)14 -=- 14 Stone Wall (Around Your Heart).flac -=- CDDA (100%)15 -=- 15 Flat Natural Born Good-Timin' Man.flac -=- CDDA (100%)16 -=- 16 Mazelle.flac -=- CDDA (100%)17 -=- 17 Cactus And A Rose.flac -=- CDDA (99%)18 -=- 18 Are We Dreamin' The Same Dream.flac -=- CDDA (100%)19 -=- 19 I See The Want In Your Eyes.flac -=- CDDA (100%)20 -=- 20 Brotherly Love (Duet with Dean Dillon).flac -=- CDDA (100%)
Summary 99,80% CDDA
242892724
Доп. информация: Замечательный исполнитель. Записывался и самостоятельно, и вместе с Dean Dillon, Dickey Betts, Gregg Allman. Представлена небольшая часть его творчества.

Об исполнителе (группе)

Instruments: Piano, guitar, bass, vocal
https://en.wikipedia.org/wiki/Gary_Stewart_(singer)
[doutdess.site].t88045.torrent
Torrent: Registered [ 2015-11-06 15:15 ] · 960DC045AC54DCE9555D0335258F54FC8BC98709

23 KB

Status: checked
Completed: 0 times
Size: 1.25 GB
(Country Rock, Honky-Tonk) Gary Stewart - коллекция 1976-1997 (3CD), FLAC (tracks+.cue), lossless скачать торрент бесплатно и без регистрации

[Profile] [PM]
Forum Topic Author Size
Country, Bluegrass lossy (Country Rap / Country) Charlie Farley - Winning With the Losers - 2018, MP3, 192 kbps Vi$itReal 55 MB
Country, Bluegrass lossy (Country Rap / Country) VA - Mud Digger 9 - 2018, MP3, 192 kbps Vi$itReal 61 MB
Country, Bluegrass lossy (Country Rap) Boondock Kingz, Mic Manik - ManiKingz(2018) - 2018, MP3, 192 kbps Vi$itReal 62 MB
Country, Bluegrass lossy (Country Rap) Sloppy Jones - Sloppy Jones - 2019, MP3, 192 kbps Vi$itReal 51 MB
Country, Bluegrass lossy (Country rap) VA - Party in the Woods Vol 1 - 2018, MP3, 192 kbps Vi$itReal 47 MB
Зарубежный Рэп, Хип-Хоп lossless (Country Rap) [CD] Mikel Knight - Urban Cowboy - 2014, FLAC (tracks+.cue), lossless Vi$itReal 539 MB
Country, Bluegrass lossless (Country Rap) [WEB] Cowboy Troy - Black In The Saddle - 2007, FLAC (tracks), lossless RelizMAN 328 MB
Country, Bluegrass lossless (Country Rap) [WEB] Cowboy Troy - Loco Motive - 2005, FLAC (tracks), lossless RelizMAN 313 MB
Display posts:    

Current time is: 27-Sep 19:30

All times are UTC + 3



You cannot post new topics in this forum
You cannot reply to topics in this forum
You cannot edit your posts in this forum
You cannot delete your posts in this forum
You cannot vote in polls in this forum
You cannot attach files in this forum
You can download files in this forum