Reply to topic
DL-List and Torrent activity [Update пиров]
Size:  275 MB   |    Registered:  4 years 10 months   |    Completed:  0 times
Seeders:  404  [  0 KB/s  ]   Leechers:  15  [  0 KB/s  ]  
 
     
 
 
Author Message

RelizMAN ®

11

Post 06-Nov-2015 03:25

[Quote]

G. Balakrishna Prasad - Annamayya Sankeerthana Manihaaram
Жанр: Annamacharya Kruthis, Telugu
Носитель: CD
Страна-производитель диска (релиза): India
Год издания: 2005
Издатель (лейбл): Swaravani Audios (Tirupati)
Аудиокодек: FLAC (*.flac)
Тип рипа: image+.cue
Битрейт аудио: lossless
Продолжительность: 01:03:50
Источник (релизер): собственный рип
Наличие сканов в содержимом раздачи: да
Треклист:
01. Trikarana Shuddhiga
02. Devadumdubhulathoda
03. Nede Nagavalli
04. Idiye Naaku Matamu
05. Ee Padame Kada
06. Kadiri Nrusimhudu
07. Ade Lanka Saadinche
08. Marda Marda Mama Bhandhani
09. Sripati Puranayaka

Лог создания рипа

Exact Audio Copy V1.1 from 23. June 2015
Отчёт EAC об извлечении, выполненном 6. ноября 2015, 1:52
G. Balakrishna Prasad / Annamayya Sankeerthana Manihaaram
Дисковод: MATSHITADVD-RAM UJ8B0 Adapter: 1 ID: 0
Режим чтения : ДостоверностьИспользование точного потока : ДаОтключение кэша аудио : ДаИспользование указателей C2 : Нет
Коррекция смещения при чтении : 0Способность читать области Lead-in и Lead-out : НетЗаполнение пропущенных сэмплов тишиной : ДаУдаление блоков с тишиной в начале и конце : НетПри вычислениях CRC использовались нулевые сэмплы : ДаИнтерфейс : Встроенный Win32-интерфейс для Win NT/2000
Выходной формат : Пользовательский кодировщикВыбранный битрейт : 896 kBit/sКачество : ВысокийДобавление ID3-тега : НетУтилита сжатия : C:\flac.exeДополнительные параметры : -V -8 -T "Date=%year%" -T "Genre=%genre%" %source%
TOC извлечённого CD
Трек | Старт | Длительность | Начальный сектор | Конечный сектор --------------------------------------------------------------------- 1 | 0:00.00 | 6:12.19 | 0 | 27918 2 | 6:12.19 | 5:27.65 | 27919 | 52508 3 | 11:40.09 | 4:47.60 | 52509 | 74093 4 | 16:27.69 | 5:30.40 | 74094 | 98883 5 | 21:58.34 | 7:02.25 | 98884 | 130558 6 | 29:00.59 | 3:17.37 | 130559 | 145370 7 | 32:18.21 | 20:14.27 | 145371 | 236447 8 | 52:32.48 | 4:34.20 | 236448 | 257017 9 | 57:06.68 | 6:43.34 | 257018 | 287276
Характеристики диапазона извлечения и сообщения об ошибках
Выбранный диапазон
Имя файла C:\G. Balakrishna Prasad - Annamayya Sankeerthana Manihaaram\G. Balakrishna Prasad - Annamayya Sankeerthana Manihaaram.wav
Пиковый уровень 100.0 % Скорость извлечения 2.0 X Качество диапазона 100.0 % CRC теста 80A8879D CRC копии 80A8879D Копирование... OK
Ошибок не произошло
Конец отчёта
==== Контрольная сумма отчёта CADC9CBE36E5D8A04BD581846F4856965BD3469B88697EC8FF780E38AC7619FC ====

Содержание индексной карты (.CUE)

REM DISCID 730EF609REM COMMENT "ExactAudioCopy v1.1"PERFORMER "G. Balakrishna Prasad"TITLE "Annamayya Sankeerthana Manihaaram"FILE "G. Balakrishna Prasad - Annamayya Sankeerthana Manihaaram.flac" WAVE TRACK 01 AUDIO TITLE "Track01" PERFORMER "G. Balakrishna Prasad" INDEX 01 00:00:00 TRACK 02 AUDIO TITLE "Track02" PERFORMER "G. Balakrishna Prasad" INDEX 01 06:12:19 TRACK 03 AUDIO TITLE "Track03" PERFORMER "G. Balakrishna Prasad" INDEX 01 11:40:09 TRACK 04 AUDIO TITLE "Track04" PERFORMER "G. Balakrishna Prasad" INDEX 01 16:27:69 TRACK 05 AUDIO TITLE "Track05" PERFORMER "G. Balakrishna Prasad" INDEX 01 21:58:34 TRACK 06 AUDIO TITLE "Track06" PERFORMER "G. Balakrishna Prasad" INDEX 01 29:00:59 TRACK 07 AUDIO TITLE "Track07" PERFORMER "G. Balakrishna Prasad" INDEX 01 32:18:21 TRACK 08 AUDIO TITLE "Track08" PERFORMER "G. Balakrishna Prasad" INDEX 01 52:32:48 TRACK 09 AUDIO TITLE "Track09" PERFORMER "G. Balakrishna Prasad" INDEX 01 57:06:68
[doutdess.site].t87996.torrent
Torrent: Registered [ 2015-11-06 03:25 ] · 14408EDBAFE18B3B6E08B64DF51E567AFA8185AC

12 KB

Status: checked
Completed: 0 times
Size: 275 MB
(Annamacharya Kruthis, Telugu) G. Balakrishna Prasad - Annamayya Sankeerthana Manihaaram - 2005, FLAC (image+.cue), lossless скачать торрент бесплатно и без регистрации

[Profile] [PM]
Forum Topic Author Size
Этническая музыка Индии lossless (Annamacharya Kruthis, Telugu) G. Balakrishna Prasad - Annamayya Madhura Gaanam - 2003, FLAC (image+.cue), lossless RelizMAN 236 MB
Этническая музыка Индии lossless (Annamacharya Kruthis, Telugu) G. Balakrishna Prasad - Annamayya Vinnapalu - 2003, FLAC (image+.cue), lossless RelizMAN 271 MB
Этническая музыка Индии lossless (Annamacharya Sankeertanas, Telugu) G. Balakrishna Prasad - Annamayya Hari Siri Padahela - 2006, FLAC (image+.cue), lossless RelizMAN 388 MB
Display posts:    

Current time is: 20-Sep 13:58

All times are UTC + 3



You cannot post new topics in this forum
You cannot reply to topics in this forum
You cannot edit your posts in this forum
You cannot delete your posts in this forum
You cannot vote in polls in this forum
You cannot attach files in this forum
You can download files in this forum