Reply to topic
DL-List and Torrent activity [Update пиров]
Size:  388 MB   |    Registered:  4 years 10 months   |    Completed:  0 times
Seeders:  106  [  0 KB/s  ]   Leechers:  43  [  0 KB/s  ]  
 
     
 
 
Author Message

RelizMAN ®

11

Post 04-Nov-2015 03:55

[Quote]

G. Balakrishna Prasad - Annamayya Hari Siri Padahela
Жанр: Annamacharya Sankeertanas, Telugu
Носитель: CD
Страна-производитель диска (релиза): India
Год издания: 2006
Издатель (лейбл): Supreethi Audios
Аудиокодек: FLAC (*.flac)
Тип рипа: image+.cue
Битрейт аудио: lossless
Продолжительность: 57:07
Источник (релизер): собственный рип
Наличие сканов в содержимом раздачи: да
Треклист:
01. Sri Venkatachalam
02. Avadbharinchagadavayya
03. Pattamu Gattithivinka
04. Vemanti Vemanti
05. Achyutha Saraname
06. Melu Melu Eemelutha
07. Shodasa Kalanidhiki
08. Moola Moola Nammudu
09. Yedi Thuda Deenikedi
10. Jaya Jaya Nrusimha

Лог создания рипа

Exact Audio Copy V1.1 from 23. June 2015
Отчёт EAC об извлечении, выполненном 4. ноября 2015, 2:14
G. Balakrishna Prasad / Annamayya Hari Siri Padahela
Дисковод: MATSHITADVD-RAM UJ8B0 Adapter: 1 ID: 0
Режим чтения : Скоростной
Коррекция смещения при чтении : 0Способность читать области Lead-in и Lead-out : НетЗаполнение пропущенных сэмплов тишиной : ДаУдаление блоков с тишиной в начале и конце : НетПри вычислениях CRC использовались нулевые сэмплы : ДаИнтерфейс : Встроенный Win32-интерфейс для Win NT/2000
Выходной формат : Пользовательский кодировщикВыбранный битрейт : 896 kBit/sКачество : ВысокийДобавление ID3-тега : НетУтилита сжатия : C:\flac.exeДополнительные параметры : -V -8 -T "Date=%year%" -T "Genre=%genre%" %source%
TOC извлечённого CD
Трек | Старт | Длительность | Начальный сектор | Конечный сектор --------------------------------------------------------------------- 1 | 0:00.00 | 1:20.58 | 0 | 6057 2 | 1:20.58 | 7:05.68 | 6058 | 38000 3 | 8:26.51 | 6:31.07 | 38001 | 67332 4 | 14:57.58 | 6:27.09 | 67333 | 96366 5 | 21:24.67 | 7:09.13 | 96367 | 128554 6 | 28:34.05 | 5:11.39 | 128555 | 151918 7 | 33:45.44 | 7:02.39 | 151919 | 183607 8 | 40:48.08 | 5:23.03 | 183608 | 207835 9 | 46:11.11 | 6:01.67 | 207836 | 234977 10 | 52:13.03 | 4:54.17 | 234978 | 257044
Характеристики диапазона извлечения и сообщения об ошибках
Выбранный диапазон
Имя файла C:\G. Balakrishna Prasad - Annamayya Hari Siri Padahela.wav
Пиковый уровень 100.0 % Скорость извлечения 14.1 X CRC теста A74F8876 CRC копии A74F8876 Копирование... OK
Ошибок не произошло
Конец отчёта
==== Контрольная сумма отчёта EAC5EEF3869F2509A5DD0DA5FD146C64E047C8BB420996E0F9332F64FD426A56 ====

Содержание индексной карты (.CUE)

REM GENRE AnnamayyaREM DATE 2006REM DISCID 880D630AREM COMMENT "ExactAudioCopy v1.1"PERFORMER "G. Balakrishna Prasad"TITLE "Annamayya Hari Siri Padahela"FILE "G. Balakrishna Prasad - Annamayya Hari Siri Padahela.flac" WAVE TRACK 01 AUDIO TITLE "Sri Venkatachalam" PERFORMER "G. Balakrishna Prasad" INDEX 01 00:00:00 TRACK 02 AUDIO TITLE "Avadbharinchagadavayya" PERFORMER "G. Balakrishna Prasad" INDEX 00 01:20:57 INDEX 01 01:20:58 TRACK 03 AUDIO TITLE "Pattamu Gattithivinka" PERFORMER "G. Balakrishna Prasad" INDEX 00 08:25:32 INDEX 01 08:26:51 TRACK 04 AUDIO TITLE "Vemanti Vemanti" PERFORMER "G. Balakrishna Prasad" INDEX 00 14:56:56 INDEX 01 14:57:58 TRACK 05 AUDIO TITLE "Achyutha Saraname" PERFORMER "G. Balakrishna Prasad" INDEX 00 21:23:61 INDEX 01 21:24:67 TRACK 06 AUDIO TITLE "Melu Melu Eemelutha" PERFORMER "G. Balakrishna Prasad" INDEX 00 28:32:46 INDEX 01 28:34:05 TRACK 07 AUDIO TITLE "Shodasa Kalanidhiki" PERFORMER "G. Balakrishna Prasad" INDEX 00 33:43:44 INDEX 01 33:45:44 TRACK 08 AUDIO TITLE "Moola Moola Nammudu" PERFORMER "G. Balakrishna Prasad" INDEX 00 40:46:60 INDEX 01 40:48:08 TRACK 09 AUDIO TITLE "Yedi Thuda Deenikedi" PERFORMER "G. Balakrishna Prasad" INDEX 00 46:09:11 INDEX 01 46:11:11 TRACK 10 AUDIO TITLE "Jaya Jaya Nrusimha" PERFORMER "G. Balakrishna Prasad" INDEX 00 52:11:03 INDEX 01 52:13:03
[doutdess.site].t87619.torrent
Torrent: Registered [ 2015-11-04 03:55 ] · 728555FDB2D9896387C9E44E890EE6C2A3AA8D4F

16 KB

Status: checked
Completed: 0 times
Size: 388 MB
(Annamacharya Sankeertanas, Telugu) G. Balakrishna Prasad - Annamayya Hari Siri Padahela - 2006, FLAC (image+.cue), lossless скачать торрент бесплатно и без регистрации

[Profile] [PM]
Forum Topic Author Size
Этническая музыка Индии lossless (Annamacharya Kruthis, Telugu) G. Balakrishna Prasad - Annamayya Madhura Gaanam - 2003, FLAC (image+.cue), lossless RelizMAN 236 MB
Этническая музыка Индии lossless (Annamacharya Kruthis, Telugu) G. Balakrishna Prasad - Annamayya Sankeerthana Manihaaram - 2005, FLAC (image+.cue), lossless RelizMAN 275 MB
Этническая музыка Индии lossless (Annamacharya Kruthis, Telugu) G. Balakrishna Prasad - Annamayya Vinnapalu - 2003, FLAC (image+.cue), lossless RelizMAN 271 MB
Display posts:    

Current time is: 27-Sep 07:15

All times are UTC + 3



You cannot post new topics in this forum
You cannot reply to topics in this forum
You cannot edit your posts in this forum
You cannot delete your posts in this forum
You cannot vote in polls in this forum
You cannot attach files in this forum
You can download files in this forum