Reply to topic
DL-List and Torrent activity [Update пиров]
Size:  230 MB   |    Registered:  4 years 10 months   |    Completed:  1 time
Seeders:  505  [  0 KB/s  ]   Leechers:  33  [  0 KB/s  ]  
 
     
 
 
Author Message

RelizMAN ®

11

Post 05-Nov-2015 00:20

[Quote]

Francis Poulenc - Ballet Suites: Les Biches; Les Animaux modèles; Aubade - Jean-Pierre Armengaud
Жанр: Classical
Год издания диска: 2014
Издатель (лейбл): Naxos
Номер по каталогу: 8.573170
Дата записи: 2013
Аудиокодек: FLAC
Тип рипа: image+.cue
Битрейт аудио: lossless
Продолжительность: 77:14
Источник: собственный рип
Наличие сканов в содержимом раздачи: да
Треклист:
Francis Poulenc (1899–1963)
Ballet Suites
[1]-[8] Les Animaux modèles – Suite (1940–1941)
(arr. Grant Johannesen)
[9]-[14] Les Biches – Suite (1923)
[15]-[22] Aubade (1929)
Исполнители:
Jean-Pierre Armengaud piano

Лог создания рипа

Exact Audio Copy V1.1 from 23. June 2015
EAC extraction logfile from 31. October 2015, 1:22
Jean-Pierre Armengaud / Poulenc - Ballet Suites
Used drive : HL-DT-STDVDRAM GU70N Adapter: 1 ID: 0
Read mode : SecureUtilize accurate stream : YesDefeat audio cache : YesMake use of C2 pointers : No
Read offset correction : 48Overread into Lead-In and Lead-Out : NoFill up missing offset samples with silence : YesDelete leading and trailing silent blocks : NoNull samples used in CRC calculations : YesUsed interface : Native Win32 interface for Win NT & 2000
Used output format : User Defined EncoderSelected bitrate : 128 kBit/sQuality : HighAdd ID3 tag : NoCommand line compressor : C:\Program Files (x86)\Exact Audio Copy\Flac\flac.exeAdditional command line options : -V -8 -T "Date=%year%" -T "Genre=%genre%" %source%
TOC of the extracted CD
Track | Start | Length | Start sector | End sector --------------------------------------------------------- 1 | 0:00.00 | 3:50.29 | 0 | 17278 2 | 3:50.29 | 1:24.70 | 17279 | 23648 3 | 5:15.24 | 3:20.67 | 23649 | 38715 4 | 8:36.16 | 4:08.44 | 38716 | 57359 5 | 12:44.60 | 2:20.01 | 57360 | 67860 6 | 15:04.61 | 6:19.64 | 67861 | 96349 7 | 21:24.50 | 5:40.55 | 96350 | 121904 8 | 27:05.30 | 3:03.27 | 121905 | 135656 9 | 30:08.57 | 3:58.11 | 135657 | 153517 10 | 34:06.68 | 3:37.58 | 153518 | 169850 11 | 37:44.51 | 3:57.57 | 169851 | 187682 12 | 41:42.33 | 6:37.23 | 187683 | 217480 13 | 48:19.56 | 3:30.60 | 217481 | 233290 14 | 51:50.41 | 3:55.43 | 233291 | 250958 15 | 55:46.09 | 3:08.21 | 250959 | 265079 16 | 58:54.30 | 1:51.51 | 265080 | 273455 17 | 60:46.06 | 3:20.56 | 273456 | 288511 18 | 64:06.62 | 1:39.67 | 288512 | 296003 19 | 65:46.54 | 2:13.42 | 296004 | 306020 20 | 68:00.21 | 3:15.65 | 306021 | 320710 21 | 71:16.11 | 0:52.63 | 320711 | 324673 22 | 72:08.74 | 5:02.34 | 324674 | 347357
Range status and errors
Selected range
Filename C:\temp\Naxos_8.573170 - Poulenc - Ballet Suites\Poulenc - Ballet Suites.wav
Peak level 100.0 % Extraction speed 2.3 X Range quality 100.0 % Test CRC 6E1112E9 Copy CRC 6E1112E9 Copy OK
No errors occurred
AccurateRip summary
Track 1 not present in databaseTrack 2 not present in databaseTrack 3 not present in databaseTrack 4 not present in databaseTrack 5 not present in databaseTrack 6 not present in databaseTrack 7 not present in databaseTrack 8 not present in databaseTrack 9 not present in databaseTrack 10 not present in databaseTrack 11 not present in databaseTrack 12 not present in databaseTrack 13 not present in databaseTrack 14 not present in databaseTrack 15 not present in databaseTrack 16 not present in databaseTrack 17 not present in databaseTrack 18 not present in databaseTrack 19 not present in databaseTrack 20 not present in databaseTrack 21 not present in databaseTrack 22 not present in database
None of the tracks are present in the AccurateRip database
End of status report
==== Log checksum 046B56F11007C1F9B67CE91F7569B114E4A1EDC99EDE0A4050093E223771F20D ====
[doutdess.site].t87791.torrent
Torrent: Registered [ 2015-11-05 00:20 ] · F20BA52AD9FB16817FED6FCE985330ACDEB3773A

37 KB

Status: checked
Completed: 1 times
Size: 230 MB
(Classical) Francis Poulenc - Ballet Suites (piano versions): Les Biches; Les Animaux modeles; Aubade - Jean-Pierre Armengaud - 2014, FLAC (image+.cue) lossless скачать торрент бесплатно и без регистрации

[Profile] [PM]
Forum Topic Author Size
Вокальная музыка в lossless ((classical/operetta)) Schönes bleibt. Unvergessene Tenöre bei WDR 4 / Прекрасное остаётся - 2000, FLAC (image+.cue) lossless Vi$itReal 401 MB
Вокальная и хоровая музыка lossy (Classical (Lieder)) (Lieder) Norman Bailey - Songs of Hugo Wolf - 1979, MP3 (tracks) 320 kbps RelizMAN 120 MB
Концерт для инструмента с оркестром в lossless (Classical ) Top 20 CDs for your Classical Music Collection - ClassicalCDguide.com: 02 - W. A. Mozart - Great Piano Concertos N 20 - 25 (1997) APE (tracks), 450-566 kb/s RelizMAN 582 MB
Концерт для инструмента с оркестром в lossless (Classical ) Top 20 CDs for your Classical Music Collection - ClassicalCDguide.com: 04 - Bach: Die Brandenburgische Konzerte - Orchestra of the Age of Enlightenment 2 CD (1999) APE (tracks), 610-769... RelizMAN 462 MB
Оркестровая музыка в lossless (Classical ) Top 20 CDs for your Classical Music Collection - ClassicalCDguide.com: 06 - Igor Stravinsky; Petroushka, Le Sacre du Printemps - Columbia Symphony Orchestra (Sony 1990) APE (tracks),... Vi$itReal 274 MB
Камерная инструментальная музыка в lossless (Classical ) Top 20 CDs for your Classical Music Collection - ClassicalCDguide.com: 07 - Franz Schubert - \'Trout\' Quintet & \'Death and the Maiden\' - Amadeus Quartet (DG ... Vi$itReal 343 MB
Камерная инструментальная музыка в lossless (Classical ) Top 20 CDs for your Classical Music Collection - ClassicalCDguide.com: 10 - Georges Bizet; Carmen - Sir Thomas Beecham, de Los Angeles, Gedda, Michau, Blanc (EMI 2000) аре (по-треково),... Vi$itReal 745 MB
Камерная инструментальная музыка в lossless (Classical ) Top 20 CDs for your Classical Music Collection - ClassicalCDguide.com: 12 - Франц Шуберт - Симфония No. 3, Unfinished 39; - Carlos Kleiber и Wiener Philharmoniker (DG 1... Vi$itReal 186 MB
Display posts:    

Current time is: 21-Sep 12:18

All times are UTC + 3



You cannot post new topics in this forum
You cannot reply to topics in this forum
You cannot edit your posts in this forum
You cannot delete your posts in this forum
You cannot vote in polls in this forum
You cannot attach files in this forum
You can download files in this forum