Reply to topic
DL-List and Torrent activity [Update пиров]
Size:  325 MB   |    Registered:  4 years 10 months   |    Completed:  0 times
Seeders:  94  [  0 KB/s  ]   Leechers:  22  [  0 KB/s  ]  
 
     
 
 
Author Message

RelizMAN ®

11

Post 07-Nov-2015 02:05

[Quote]

Maddie & Tae / Start Here (Deluxe Edition)
Жанр: Country / Rock / Pop
Носитель: CD
Год издания: 2015
Издатель (лейбл): Dot Records
Номер по каталогу: B0023173-02
Страна исполнителя (группы): USA
Аудиокодек: FLAC (*.flac)
Тип рипа: tracks+.cue
Битрейт аудио: lossless
Продолжительность: 00:43:38
Источник (релизер): What.cd
Наличие сканов в содержимом раздачи: нет
Треклист:
01. Waitin’ On A Plane
02. Girl In A Country Song
03. Smoke
04. Shut Up And Fish
05. Fly
06. Sierra
07. Your Side Of Town
08. Right Here, Right Now
09. No Place Like You
10. After The Storm Blows Through
11. Downside Of Growing Up
12. After The Storm Blows Through (Acoustic Version)
13. Downside Of Growing Up (Acoustic Version)

Лог создания рипа

X Lossless Decoder version 20141129a (148.2)
XLD extraction logfile from 2015-09-03 19:37:45 -0600
Maddie & Tae / Start Here (Deluxe Edition)
Used drive : Lenovo Slim_USB_Burner (revision XL34)Media type : Pressed CD
Ripper mode : XLD Secure RipperDisable audio cache : OK for the drive with a cache less than 1375KiBMake use of C2 pointers : NORead offset correction : 6Max retry count : 20Gap status : Analyzed, Appended (except HTOA)
TOC of the extracted CD Track | Start | Length | Start sector | End sector --------------------------------------------------------- 1 | 00:00:00 | 03:26:29 | 0 | 15478 2 | 03:26:29 | 03:38:60 | 15479 | 31888 3 | 07:05:14 | 03:03:39 | 31889 | 45652 4 | 10:08:53 | 03:19:72 | 45653 | 60649 5 | 13:28:50 | 03:38:46 | 60650 | 77045 6 | 17:07:21 | 02:46:50 | 77046 | 89545 7 | 19:53:71 | 03:03:28 | 89546 | 103298 8 | 22:57:24 | 03:39:15 | 103299 | 119738 9 | 26:36:39 | 03:20:70 | 119739 | 134808 10 | 29:57:34 | 03:43:60 | 134809 | 151593 11 | 33:41:19 | 03:30:42 | 151594 | 167385 12 | 37:11:61 | 03:50:48 | 167386 | 184683 13 | 41:02:34 | 03:25:17 | 184684 | 200075
AccurateRip Summary Disc not found in AccurateRip DB.
All Tracks Album gain : -10.58 dB Peak : 1.000000 Statistics Read error : 0 Jitter error (maybe fixed) : 0 Retry sector count : 0 Damaged sector count : 0
Track 01 Filename : /Users/jerad/Desktop/DON'T TM!/What.cd Rips/Maddie & Tae - Start Here (Deluxe Edition) (2015) [FLAC]/01 Waitin' On A Plane.flac Pre-gap length : 00:02:00
Track gain : -10.51 dB Peak : 0.995026 CRC32 hash (test run) : B84093B2 CRC32 hash : B84093B2 CRC32 hash (skip zero) : 182D1E33 AccurateRip v1 signature : 915E8411 AccurateRip v2 signature : 5C9E1D13 ->Track not present in AccurateRip database. Statistics Read error : 0 Jitter error (maybe fixed) : 0 Retry sector count : 0 Damaged sector count : 0
Track 02 Filename : /Users/jerad/Desktop/DON'T TM!/What.cd Rips/Maddie & Tae - Start Here (Deluxe Edition) (2015) [FLAC]/02 Girl In A Country Song.flac
Track gain : -10.67 dB Peak : 1.000000 CRC32 hash (test run) : 8A360DD1 CRC32 hash : 8A360DD1 CRC32 hash (skip zero) : D518EC1E AccurateRip v1 signature : 81B08471 AccurateRip v2 signature : 3367411E ->Track not present in AccurateRip database. Statistics Read error : 0 Jitter error (maybe fixed) : 0 Retry sector count : 0 Damaged sector count : 0
Track 03 Filename : /Users/jerad/Desktop/DON'T TM!/What.cd Rips/Maddie & Tae - Start Here (Deluxe Edition) (2015) [FLAC]/03 Smoke.flac Pre-gap length : 00:00:72
Track gain : -10.45 dB Peak : 0.995209 CRC32 hash (test run) : 5C6BB23F CRC32 hash : 5C6BB23F CRC32 hash (skip zero) : B2455460 AccurateRip v1 signature : 892C602E AccurateRip v2 signature : 468164F8 ->Track not present in AccurateRip database. Statistics Read error : 0 Jitter error (maybe fixed) : 0 Retry sector count : 0 Damaged sector count : 0
Track 04 Filename : /Users/jerad/Desktop/DON'T TM!/What.cd Rips/Maddie & Tae - Start Here (Deluxe Edition) (2015) [FLAC]/04 Shut Up And Fish.flac Pre-gap length : 00:02:04
Track gain : -11.22 dB Peak : 0.993835 CRC32 hash (test run) : 6297A848 CRC32 hash : 6297A848 CRC32 hash (skip zero) : 5C791D0F AccurateRip v1 signature : 0EC0B91F AccurateRip v2 signature : E90E3145 ->Track not present in AccurateRip database. Statistics Read error : 0 Jitter error (maybe fixed) : 0 Retry sector count : 0 Damaged sector count : 0
Track 05 Filename : /Users/jerad/Desktop/DON'T TM!/What.cd Rips/Maddie & Tae - Start Here (Deluxe Edition) (2015) [FLAC]/05 Fly.flac Pre-gap length : 00:01:35
Track gain : -10.51 dB Peak : 0.991974 CRC32 hash (test run) : 36DB7643 CRC32 hash : 36DB7643 CRC32 hash (skip zero) : C9593919 AccurateRip v1 signature : 735F29D8 AccurateRip v2 signature : A1DFC143 ->Track not present in AccurateRip database. Statistics Read error : 0 Jitter error (maybe fixed) : 0 Retry sector count : 0 Damaged sector count : 0
Track 06 Filename : /Users/jerad/Desktop/DON'T TM!/What.cd Rips/Maddie & Tae - Start Here (Deluxe Edition) (2015) [FLAC]/06 Sierra.flac Pre-gap length : 00:01:24
Track gain : -10.31 dB Peak : 0.993896 CRC32 hash (test run) : A3461200 CRC32 hash : A3461200 CRC32 hash (skip zero) : 4420DB9A AccurateRip v1 signature : 0FD5C861 AccurateRip v2 signature : 37195989 ->Track not present in AccurateRip database. Statistics Read error : 0 Jitter error (maybe fixed) : 0 Retry sector count : 0 Damaged sector count : 0
Track 07 Filename : /Users/jerad/Desktop/DON'T TM!/What.cd Rips/Maddie & Tae - Start Here (Deluxe Edition) (2015) [FLAC]/07 Your Side Of Town.flac Pre-gap length : 00:01:30
Track gain : -11.33 dB Peak : 1.000000 CRC32 hash (test run) : 89DD9AFC CRC32 hash : 89DD9AFC CRC32 hash (skip zero) : BE1F9786 AccurateRip v1 signature : 81A2EE3F AccurateRip v2 signature : 2A97DABB ->Track not present in AccurateRip database. Statistics Read error : 0 Jitter error (maybe fixed) : 0 Retry sector count : 0 Damaged sector count : 0
Track 08 Filename : /Users/jerad/Desktop/DON'T TM!/What.cd Rips/Maddie & Tae - Start Here (Deluxe Edition) (2015) [FLAC]/08 Right Here, Right Now.flac Pre-gap length : 00:01:22
Track gain : -10.66 dB Peak : 0.993805 CRC32 hash (test run) : 559E1BD8 CRC32 hash : 559E1BD8 CRC32 hash (skip zero) : B93DD5F6 AccurateRip v1 signature : CB05C5D5 AccurateRip v2 signature : C01C4C77 ->Track not present in AccurateRip database. Statistics Read error : 0 Jitter error (maybe fixed) : 0 Retry sector count : 0 Damaged sector count : 0
Track 09 Filename : /Users/jerad/Desktop/DON'T TM!/What.cd Rips/Maddie & Tae - Start Here (Deluxe Edition) (2015) [FLAC]/09 No Place Like You.flac Pre-gap length : 00:01:18
Track gain : -10.66 dB Peak : 1.000000 CRC32 hash (test run) : 9F03774F CRC32 hash : 9F03774F CRC32 hash (skip zero) : B846BE38 AccurateRip v1 signature : 08F3236A AccurateRip v2 signature : 045ED692 ->Track not present in AccurateRip database. Statistics Read error : 0 Jitter error (maybe fixed) : 0 Retry sector count : 0 Damaged sector count : 0
Track 10 Filename : /Users/jerad/Desktop/DON'T TM!/What.cd Rips/Maddie & Tae - Start Here (Deluxe Edition) (2015) [FLAC]/10 After The Storm Blows Through.flac Pre-gap length : 00:01:48
Track gain : -9.63 dB Peak : 0.990326 CRC32 hash (test run) : 3337083C CRC32 hash : 3337083C CRC32 hash (skip zero) : 8E43B93C AccurateRip v1 signature : 638E4137 AccurateRip v2 signature : F7725582 ->Track not present in AccurateRip database. Statistics Read error : 0 Jitter error (maybe fixed) : 0 Retry sector count : 0 Damaged sector count : 0
Track 11 Filename : /Users/jerad/Desktop/DON'T TM!/What.cd Rips/Maddie & Tae - Start Here (Deluxe Edition) (2015) [FLAC]/11 Downside Of Growing Up.flac Pre-gap length : 00:01:49
Track gain : -10.28 dB Peak : 0.997375 CRC32 hash (test run) : 6E2FFAFE CRC32 hash : 6E2FFAFE CRC32 hash (skip zero) : 1E2C5380 AccurateRip v1 signature : 80E29535 AccurateRip v2 signature : C5B3CC02 ->Track not present in AccurateRip database. Statistics Read error : 0 Jitter error (maybe fixed) : 0 Retry sector count : 0 Damaged sector count : 0
Track 12 Filename : /Users/jerad/Desktop/DON'T TM!/What.cd Rips/Maddie & Tae - Start Here (Deluxe Edition) (2015) [FLAC]/12 After The Storm Blows Through (Acoustic).flac Pre-gap length : 00:04:22
Track gain : -9.80 dB Peak : 0.989471 CRC32 hash (test run) : 14D2C58B CRC32 hash : 14D2C58B CRC32 hash (skip zero) : 21AC1212 AccurateRip v1 signature : 1ACA94B6 AccurateRip v2 signature : 737DAC08 ->Track not present in AccurateRip database. Statistics Read error : 0 Jitter error (maybe fixed) : 0 Retry sector count : 0 Damaged sector count : 0
Track 13 Filename : /Users/jerad/Desktop/DON'T TM!/What.cd Rips/Maddie & Tae - Start Here (Deluxe Edition) (2015) [FLAC]/13 Downside Of Growing Up (Acoustic).flac Pre-gap length : 00:02:00
Track gain : -9.62 dB Peak : 0.992523 CRC32 hash (test run) : 106E10E3 CRC32 hash : 106E10E3 CRC32 hash (skip zero) : 83974196 AccurateRip v1 signature : 307C2D4C AccurateRip v2 signature : BB6B78D3 ->Track not present in AccurateRip database. Statistics Read error : 0 Jitter error (maybe fixed) : 0 Retry sector count : 0 Damaged sector count : 0
No errors occurred
End of status report
-----BEGIN XLD SIGNATURE-----bOSp7p3OSX9PrTZtdOVks4Ud.x8HDhR0w9es7nBxhK888ePNzjiytyeyZxcQ3zlyksc1_5_rZgT4Jos4QmmtXSm8G8Tr.vZXscCcwPe-----END XLD SIGNATURE-----

Содержание индексной карты (.CUE)

TITLE "Start Here (Deluxe Edition)"PERFORMER "Maddie & Tae"CATALOG 0602547326706REM GENRE "Country & Folk"REM DATE "2015"REM DISCNUMBER 1REM TOTALDISCS 1REM DISCID AB0A6B0DREM REPLAYGAIN_ALBUM_GAIN -10.58 dBREM REPLAYGAIN_ALBUM_PEAK 1.000000FILE "01 Waitin' On A Plane.wav" WAVE TRACK 01 AUDIO TITLE "Waitin' On A Plane" ISRC USUM71504905 REM REPLAYGAIN_TRACK_GAIN -10.51 dB REM REPLAYGAIN_TRACK_PEAK 0.995026 INDEX 01 00:00:00FILE "02 Girl In A Country Song.wav" WAVE TRACK 02 AUDIO TITLE "Girl In A Country Song" ISRC USUM71409642 REM REPLAYGAIN_TRACK_GAIN -10.67 dB REM REPLAYGAIN_TRACK_PEAK 1.000000 INDEX 01 00:00:00 TRACK 03 AUDIO TITLE "Smoke" ISRC USUM71504906 REM REPLAYGAIN_TRACK_GAIN -10.45 dB REM REPLAYGAIN_TRACK_PEAK 0.995209 INDEX 00 03:37:63FILE "03 Smoke.wav" WAVE INDEX 01 00:00:00 TRACK 04 AUDIO TITLE "Shut Up And Fish" ISRC USUM71504907 REM REPLAYGAIN_TRACK_GAIN -11.22 dB REM REPLAYGAIN_TRACK_PEAK 0.993835 INDEX 00 03:01:35FILE "04 Shut Up And Fish.wav" WAVE INDEX 01 00:00:00 TRACK 05 AUDIO TITLE "Fly" ISRC USUM71415475 REM REPLAYGAIN_TRACK_GAIN -10.51 dB REM REPLAYGAIN_TRACK_PEAK 0.991974 INDEX 00 03:18:37FILE "05 Fly.wav" WAVE INDEX 01 00:00:00 TRACK 06 AUDIO TITLE "Sierra" ISRC USUM71409644 REM REPLAYGAIN_TRACK_GAIN -10.31 dB REM REPLAYGAIN_TRACK_PEAK 0.993896 INDEX 00 03:37:22FILE "06 Sierra.wav" WAVE INDEX 01 00:00:00 TRACK 07 AUDIO TITLE "Your Side Of Town" ISRC USUM71415476 REM REPLAYGAIN_TRACK_GAIN -11.33 dB REM REPLAYGAIN_TRACK_PEAK 1.000000 INDEX 00 02:45:20FILE "07 Your Side Of Town.wav" WAVE INDEX 01 00:00:00 TRACK 08 AUDIO TITLE "Right Here, Right Now" ISRC USUM71504908 REM REPLAYGAIN_TRACK_GAIN -10.66 dB REM REPLAYGAIN_TRACK_PEAK 0.993805 INDEX 00 03:02:06FILE "08 Right Here, Right Now.wav" WAVE INDEX 01 00:00:00 TRACK 09 AUDIO TITLE "No Place Like You" ISRC USUM71504909 REM REPLAYGAIN_TRACK_GAIN -10.66 dB REM REPLAYGAIN_TRACK_PEAK 1.000000 INDEX 00 03:37:72FILE "09 No Place Like You.wav" WAVE INDEX 01 00:00:00 TRACK 10 AUDIO TITLE "After The Storm Blows Through" ISRC USUM71504910 REM REPLAYGAIN_TRACK_GAIN -9.63 dB REM REPLAYGAIN_TRACK_PEAK 0.990326 INDEX 00 03:19:22FILE "10 After The Storm Blows Through.wav" WAVE INDEX 01 00:00:00 TRACK 11 AUDIO TITLE "Downside Of Growing Up" ISRC USUM71504911 REM REPLAYGAIN_TRACK_GAIN -10.28 dB REM REPLAYGAIN_TRACK_PEAK 0.997375 INDEX 00 03:42:11FILE "11 Downside Of Growing Up.wav" WAVE INDEX 01 00:00:00 TRACK 12 AUDIO TITLE "After The Storm Blows Through (Acoustic)" ISRC USUM71504913 REM REPLAYGAIN_TRACK_GAIN -9.80 dB REM REPLAYGAIN_TRACK_PEAK 0.989471 INDEX 00 03:26:20FILE "12 After The Storm Blows Through (Acoustic).wav" WAVE INDEX 01 00:00:00 TRACK 13 AUDIO TITLE "Downside Of Growing Up (Acoustic)" ISRC USUM71504914 REM REPLAYGAIN_TRACK_GAIN -9.62 dB REM REPLAYGAIN_TRACK_PEAK 0.992523 INDEX 00 03:48:48FILE "13 Downside Of Growing Up (Acoustic).wav" WAVE INDEX 01 00:00:00
[doutdess.site].t88171.torrent
Torrent: Registered [ 2015-11-07 02:05 ] · C219B889A6EBF7E2E6346D35980D090BF7466CCC

3 KB

Status: checked
Completed: 0 times
Size: 325 MB
(Country / Rock / Pop) Maddie & Tae - Start Here (Deluxe Edition) - 2015, FLAC (tracks+.cue), lossless скачать торрент бесплатно и без регистрации

[Profile] [PM]
Forum Topic Author Size
Country, Bluegrass lossy (Country / Alternative Rock/ Modern Rock) Jay Smith - Коллекция: 6 Релизов - 2011 - 2019, MP3, 320 kbps Vi$itReal 358 MB
Country, Bluegrass lossy (Country / Americana / Singer/Songwriter) Sasha Aaron - Look Good Gone - 2017, MP3, 320 kbps Vi$itReal 76 MB
Country, Bluegrass lossy (Country / Americana) Joel Jorgensen - Highway Lullabies - 2019, MP3, 320 kbps Vi$itReal 71 MB
Country, Bluegrass lossy (Country / Americana) Thunder And Rain - Коллекция: 11 Релизов - 2015-2020, MP3, 320 kbps Vi$itReal 426 MB
Country, Bluegrass lossy (Country / Bluegrass) Larry Keel - One - 2019, MP3, 320 kbps Vi$itReal 73 MB
Country, Bluegrass lossy (Country / Bluegrass) Matt Leadbetter - Matt Leadbetter - 2015, MP3, 320 kbps Vi$itReal 112 MB
Country, Bluegrass lossy (Country / Bluegrass) Miles Over Mountains - 2 Альбома: 2015 - Five Star Heart Breaker, 2020 - Work Harder Not Smarter, MP3, 320 kbps Vi$itReal 268 MB
Country, Bluegrass lossy (Country / Blues) Dalton Domino - Коллекция: 3 Альбома - 2019, MP3, 320 kbps Vi$itReal 317 MB
Display posts:    

Current time is: 23-Sep 22:26

All times are UTC + 3



You cannot post new topics in this forum
You cannot reply to topics in this forum
You cannot edit your posts in this forum
You cannot delete your posts in this forum
You cannot vote in polls in this forum
You cannot attach files in this forum
You can download files in this forum