Reply to topic
DL-List and Torrent activity [Update пиров]
Size:  220 MB   |    Registered:  4 years 10 months   |    Completed:  1 time
Seeders:  755  [  0 KB/s  ]   Leechers:  44  [  0 KB/s  ]  
 
     
 
 
Author Message

RelizMAN ®

11

Post 08-Nov-2015 17:00

[Quote]

Catherine Britt / Boneshaker
Жанр: Country
Год издания: 2015
Страна исполнителя (группы): USA
Аудиокодек: FLAC (*.flac)
Тип рипа: tracks+.cue
Битрейт аудио: lossless
Продолжительность: 00: 35:42
Источник (релизер): WEB
Наличие сканов в содержимом раздачи: нет
Треклист:
01. Boneshaker
02. Good To Bad
03. Happier Day
04. Nice Girl
05. Take It Easy
06. When You're Ready
07. We're All Waiting
08. The Way That It Goes
09. Working Class Man
10. Let Your Hair Down
11. You And Me Against The World (feat. steve earle)

Лог создания рипа

Exact Audio Copy V1.0 beta 4 from 7. December 2014
EAC extraction logfile from 2. June 2015, 13:32
Catherine Britt / Boneshaker
Used drive : HL-DT-STDVDRAM GH24NS95 Adapter: 1 ID: 0
Read mode : SecureUtilize accurate stream : YesDefeat audio cache : YesMake use of C2 pointers : No
Read offset correction : 6Overread into Lead-In and Lead-Out : NoFill up missing offset samples with silence : YesDelete leading and trailing silent blocks : NoNull samples used in CRC calculations : YesUsed interface : Native Win32 interface for Win NT & 2000Gap handling : Appended to previous track
Used output format : User Defined EncoderSelected bitrate : 1024 kBit/sQuality : HighAdd ID3 tag : NoCommand line compressor : C:\Program Files (x86)\Exact Audio Copy\Flac\flac.exeAdditional command line options : -8 -V -T "Artist=%artist%" -T "Title=%title%" -T "Album=%albumtitle%" -T "Date=%year%" -T "Tracknumber=%tracknr%" -T "Genre=%genre%" %source% -o %dest%
TOC of the extracted CD
Track | Start | Length | Start sector | End sector --------------------------------------------------------- 1 | 0:00.00 | 2:59.51 | 0 | 13475 2 | 2:59.51 | 3:13.22 | 13476 | 27972 3 | 6:12.73 | 2:50.14 | 27973 | 40736 4 | 9:03.12 | 3:22.49 | 40737 | 55935 5 | 12:25.61 | 3:16.03 | 55936 | 70638 6 | 15:41.64 | 2:18.34 | 70639 | 81022 7 | 18:00.23 | 3:54.49 | 81023 | 98621 8 | 21:54.72 | 3:45.19 | 98622 | 115515 9 | 25:40.16 | 3:20.42 | 115516 | 130557 10 | 29:00.58 | 3:01.52 | 130558 | 144184 11 | 32:02.35 | 3:44.01 | 144185 | 160985
Track 1
Filename E:\Catherine Britt - Boneshaker - flac\01 - Boneshaker.wav
Pre-gap length 0:00:02.00
Peak level 97.5 % Extraction speed 0.9 X Track quality 100.0 % Test CRC 0F02BADF Copy CRC 0F02BADF Track not present in AccurateRip database Copy OK
Track 2
Filename E:\Catherine Britt - Boneshaker - flac\02 - Good To Bad.wav
Pre-gap length 0:00:00.26
Peak level 100.0 % Extraction speed 1.1 X Track quality 100.0 % Test CRC 8009D191 Copy CRC 8009D191 Track not present in AccurateRip database Copy OK
Track 3
Filename E:\Catherine Britt - Boneshaker - flac\03 - Happier Day.wav
Peak level 94.2 % Extraction speed 1.1 X Track quality 100.0 % Test CRC CB7C170F Copy CRC CB7C170F Track not present in AccurateRip database Copy OK
Track 4
Filename E:\Catherine Britt - Boneshaker - flac\04 - Nice Girl.wav
Pre-gap length 0:00:00.30
Peak level 100.0 % Extraction speed 1.2 X Track quality 100.0 % Test CRC E480725C Copy CRC E480725C Track not present in AccurateRip database Copy OK
Track 5
Filename E:\Catherine Britt - Boneshaker - flac\05 - Take It Easy.wav
Pre-gap length 0:00:00.88
Peak level 98.4 % Extraction speed 1.3 X Track quality 100.0 % Test CRC 884A2572 Copy CRC 884A2572 Track not present in AccurateRip database Copy OK
Track 6
Filename E:\Catherine Britt - Boneshaker - flac\06 - When You're Ready.wav
Pre-gap length 0:00:00.60
Peak level 98.8 % Extraction speed 1.1 X Track quality 99.9 % Test CRC BBDDF069 Copy CRC BBDDF069 Track not present in AccurateRip database Copy OK
Track 7
Filename E:\Catherine Britt - Boneshaker - flac\07 - We're All Waiting.wav
Peak level 98.4 % Extraction speed 1.5 X Track quality 100.0 % Test CRC C8EB3587 Copy CRC C8EB3587 Track not present in AccurateRip database Copy OK
Track 8
Filename E:\Catherine Britt - Boneshaker - flac\08 - The Way That It Goes.wav
Peak level 100.0 % Extraction speed 1.6 X Track quality 100.0 % Test CRC E4DD4070 Copy CRC E4DD4070 Track not present in AccurateRip database Copy OK
Track 9
Filename E:\Catherine Britt - Boneshaker - flac\09 - Working Class Man.wav
Pre-gap length 0:00:00.14
Peak level 100.0 % Extraction speed 1.6 X Track quality 100.0 % Test CRC 4F7C1F0D Copy CRC 4F7C1F0D Track not present in AccurateRip database Copy OK
Track 10
Filename E:\Catherine Britt - Boneshaker - flac\10 - Let Your Hair Down.wav
Pre-gap length 0:00:00.36
Peak level 100.0 % Extraction speed 1.6 X Track quality 100.0 % Test CRC 9751B1EE Copy CRC 9751B1EE Track not present in AccurateRip database Copy OK
Track 11
Filename E:\Catherine Britt - Boneshaker - flac\11 - You And Me Against The World (feat. steve earle).wav
Pre-gap length 0:00:00.50
Peak level 98.2 % Extraction speed 1.7 X Track quality 100.0 % Test CRC EDEF4E5B Copy CRC EDEF4E5B Track not present in AccurateRip database Copy OK
None of the tracks are present in the AccurateRip database
No errors occurred
End of status report
---- CUETools DB Plugin V2.1.4
[CTDB TOCID: 2YYWgs278ZBdvr.NYi6zk6WEEGA-] foundSubmit result: 2YYWgs278ZBdvr.NYi6zk6WEEGA- has been confirmedTrack | CTDB Status 1 | (1/1) Accurately ripped 2 | (1/1) Accurately ripped 3 | (1/1) Accurately ripped 4 | (1/1) Accurately ripped 5 | (1/1) Accurately ripped 6 | (1/1) Accurately ripped 7 | (1/1) Accurately ripped 8 | (1/1) Accurately ripped 9 | (1/1) Accurately ripped 10 | (1/1) Accurately ripped 11 | (1/1) Accurately ripped
==== Log checksum 120894E0B8CAF8D830105108B6DD18BD9DFDF3C90B89F053915ACDA4DA6AA7F9 ====

Содержание индексной карты (.CUE)

REM GENRE CountryREM DATE 2015REM DISCID 8A08620BREM COMMENT "ExactAudioCopy v1.0b4"FILE "01 - Boneshaker.wav" WAVE TRACK 01 AUDIO INDEX 01 00:00:00 TRACK 02 AUDIO INDEX 00 02:59:31FILE "02 - Good To Bad.wav" WAVE INDEX 01 00:00:00FILE "03 - Happier Day.wav" WAVE TRACK 03 AUDIO INDEX 01 00:00:00 TRACK 04 AUDIO INDEX 00 02:49:66FILE "04 - Nice Girl.wav" WAVE INDEX 01 00:00:00 TRACK 05 AUDIO INDEX 00 03:21:58FILE "05 - Take It Easy.wav" WAVE INDEX 01 00:00:00 TRACK 06 AUDIO INDEX 00 03:15:33FILE "06 - When You're Ready.wav" WAVE INDEX 01 00:00:00FILE "07 - We're All Waiting.wav" WAVE TRACK 07 AUDIO INDEX 01 00:00:00FILE "08 - The Way That It Goes.wav" WAVE TRACK 08 AUDIO INDEX 01 00:00:00 TRACK 09 AUDIO INDEX 00 03:45:08FILE "09 - Working Class Man.wav" WAVE INDEX 01 00:00:00 TRACK 10 AUDIO INDEX 00 03:20:15FILE "10 - Let Your Hair Down.wav" WAVE INDEX 01 00:00:00 TRACK 11 AUDIO INDEX 00 03:01:14FILE "11 - You And Me Against The World (feat. steve earle).wav" WAVE INDEX 01 00:00:00
[doutdess.site].t88402.torrent
Torrent: Registered [ 2015-11-08 17:00 ] · 2304C7D5FF3720CB7248D3FF5600DE7CB86DFEDF

18 KB

Status: checked
Completed: 1 times
Size: 220 MB
(Country) Catherine Britt - Boneshaker - 2015, FLAC (tracks+.cue), lossless скачать торрент бесплатно и без регистрации

[Profile] [PM]
Forum Topic Author Size
Country, Bluegrass lossy (Country) 1 Uppers - Get Back Rollin\' - 2019, MP3, 320 kbps Vi$itReal 94 MB
Country, Bluegrass lossy (Country) Aaron Goodvin - Aaron Goodvin - 2016, MP3, 320 kbps Vi$itReal 96 MB
Country, Bluegrass lossy (Country) Aaron Watson - Live At The World\'s Biggest Rodeo Show - 2018, MP3, 320 kbps Vi$itReal 127 MB
Country, Bluegrass lossy (Country) Abe Mac Band - A Thousand Pieces - 2017, MP3, 320 kbps Vi$itReal 103 MB
Country, Bluegrass lossy (Country) Adam Brand - Дискография 1999-2016 (14 релизов), MP3, 192-320 kbps Vi$itReal 1.58 GB
Country, Bluegrass lossy (Country) Adam Eckersley, Brooke McClymont - Adam & Brooke - 2018, MP3, 320 kbps Vi$itReal 92 MB
Country, Bluegrass lossy (Country) Adam Hood - Somewhere in Between - 2018, MP3, 320 kbps Vi$itReal 94 MB
Country, Bluegrass lossy (Country) Adam Palm - Morning - 2019, MP3, 320 kbps Vi$itReal 101 MB
Display posts:    

Current time is: 20-Sep 14:58

All times are UTC + 3



You cannot post new topics in this forum
You cannot reply to topics in this forum
You cannot edit your posts in this forum
You cannot delete your posts in this forum
You cannot vote in polls in this forum
You cannot attach files in this forum
You can download files in this forum