Reply to topic
DL-List and Torrent activity [Update пиров]
Size:  315 MB   |    Registered:  4 years 10 months   |    Completed:  1 time
Seeders:  930  [  0 KB/s  ]   Leechers:  50  [  0 KB/s  ]  
 
     
 
 
Author Message

RelizMAN ®

11

Post 07-Nov-2015 01:00

[Quote]

Bombay & Sulamangalam Sisters - Namo Namo Venkatesa
Жанр: Perumal Devotional, Tamil
Носитель: CD
Страна-производитель диска (релиза): India
Год издания: 2002
Издатель (лейбл): Symphony Recording
Аудиокодек: FLAC (*.flac)
Тип рипа: image+.cue
Битрейт аудио: lossless
Продолжительность: 00:49:15
Источник (релизер): собственный рип
Наличие сканов в содержимом раздачи: да
Треклист:
1. Bhoologa Vaikundam - Bombay Sisters
2. Kannaadi Araiyinilae - Sulamangalam Sisters
3. Malaiyendru Sonnaalae - Bombay Sisters
4. Pathiyil Siranthathu - Sulamangalam Sisters
5. Srimann Naaraayana - Bombay Sisters
6. Suzhalum Chakkaram - Bombay Sisters
7. Thaangidathaan Vandhaan - Sulamangalam Sisters
8. Thangamae Unn - Sulamangalam Sisters
9. Yezhai Yen Mel - Sulamangalam Sisters

Лог создания рипа

Exact Audio Copy V1.1 from 23. June 2015
Отчёт EAC об извлечении, выполненном 6. ноября 2015, 23:31
Bombay & Sulamangalam Sisters / Namo Venkatesa
Дисковод: MATSHITADVD-RAM UJ8B0 Adapter: 1 ID: 0
Режим чтения : ДостоверностьИспользование точного потока : ДаОтключение кэша аудио : ДаИспользование указателей C2 : Нет
Коррекция смещения при чтении : 0Способность читать области Lead-in и Lead-out : НетЗаполнение пропущенных сэмплов тишиной : ДаУдаление блоков с тишиной в начале и конце : НетПри вычислениях CRC использовались нулевые сэмплы : ДаИнтерфейс : Встроенный Win32-интерфейс для Win NT/2000
Выходной формат : Пользовательский кодировщикВыбранный битрейт : 896 kBit/sКачество : ВысокийДобавление ID3-тега : НетУтилита сжатия : C:\flac.exeДополнительные параметры : -V -8 -T "Date=%year%" -T "Genre=%genre%" %source%
TOC извлечённого CD
Трек | Старт | Длительность | Начальный сектор | Конечный сектор --------------------------------------------------------------------- 1 | 0:00.00 | 6:25.39 | 0 | 28913 2 | 6:25.39 | 5:27.61 | 28914 | 53499 3 | 11:53.25 | 4:58.08 | 53500 | 75857 4 | 16:51.33 | 3:40.49 | 75858 | 92406 5 | 20:32.07 | 9:13.21 | 92407 | 133902 6 | 29:45.28 | 4:16.19 | 133903 | 153121 7 | 34:01.47 | 6:06.48 | 153122 | 180619 8 | 40:08.20 | 4:30.08 | 180620 | 200877 9 | 44:38.28 | 4:37.21 | 200878 | 221673
Характеристики диапазона извлечения и сообщения об ошибках
Выбранный диапазон
Имя файла C:\Bombay & Sulamangalam Sisters - Namo Venkatesa.wav
Пиковый уровень 96.6 % Скорость извлечения 4.1 X Качество диапазона 100.0 % CRC теста 15A7000A CRC копии 15A7000A Копирование... OK
Ошибок не произошло
Конец отчёта
==== Контрольная сумма отчёта 8B084C29DFCD9CDE0FDB70E5CCC9F2CABA55EB28CED4CD9F2CBA7B4622E93D9E ====

Содержание индексной карты (.CUE)

REM DISCID 670B8B09REM COMMENT "ExactAudioCopy v1.1"PERFORMER "Bombay & Sulamangalam Sisters"TITLE "Namo Venkatesa"FILE "Bombay & Sulamangalam Sisters - Namo Venkatesa.flac" WAVE TRACK 01 AUDIO TITLE "Track01" PERFORMER "Bombay & Sulamangalam Sisters" INDEX 01 00:00:00 TRACK 02 AUDIO TITLE "Track02" PERFORMER "Bombay & Sulamangalam Sisters" INDEX 01 06:25:39 TRACK 03 AUDIO TITLE "Track03" PERFORMER "Bombay & Sulamangalam Sisters" INDEX 00 11:50:11 INDEX 01 11:53:25 TRACK 04 AUDIO TITLE "Track04" PERFORMER "Bombay & Sulamangalam Sisters" INDEX 00 16:48:60 INDEX 01 16:51:33 TRACK 05 AUDIO TITLE "Track05" PERFORMER "Bombay & Sulamangalam Sisters" INDEX 00 20:28:02 INDEX 01 20:32:07 TRACK 06 AUDIO TITLE "Track06" PERFORMER "Bombay & Sulamangalam Sisters" INDEX 00 29:43:01 INDEX 01 29:45:28 TRACK 07 AUDIO TITLE "Track07" PERFORMER "Bombay & Sulamangalam Sisters" INDEX 00 33:59:36 INDEX 01 34:01:47 TRACK 08 AUDIO TITLE "Track08" PERFORMER "Bombay & Sulamangalam Sisters" INDEX 00 40:04:32 INDEX 01 40:08:20 TRACK 09 AUDIO TITLE "Track09" PERFORMER "Bombay & Sulamangalam Sisters" INDEX 00 44:35:73 INDEX 01 44:38:28
[doutdess.site].t88160.torrent
Torrent: Registered [ 2015-11-07 01:00 ] · BB024CB19591F1EC4124CF7A27FFEE72F9F622A4

13 KB

Status: checked
Completed: 1 times
Size: 315 MB
(Perumal Devotional, Tamil) Bombay & Sulamangalam Sisters - Namo Namo Venkatesa - 2002, FLAC (image+.cue), lossless скачать торрент бесплатно и без регистрации

[Profile] [PM]
Forum Topic Author Size
Этническая музыка Индии lossless (Perumal Devotional, Tamil) Bombay Sisters - Sri Prasanna Venkatachalapathi - 2007, FLAC (image+.cue), lossless RelizMAN 239 MB
Display posts:    

Current time is: 25-Sep 21:37

All times are UTC + 3



You cannot post new topics in this forum
You cannot reply to topics in this forum
You cannot edit your posts in this forum
You cannot delete your posts in this forum
You cannot vote in polls in this forum
You cannot attach files in this forum
You can download files in this forum