Reply to topic
DL-List and Torrent activity [Update пиров]
Size:  239 MB   |    Registered:  4 years 10 months   |    Completed:  1 time
Seeders:  558  [  0 KB/s  ]   Leechers:  19  [  0 KB/s  ]  
 
     
 
 
Author Message

RelizMAN ®

11

Post 07-Nov-2015 02:05

[Quote]

Bombay Sisters - Sri Prasanna Venkatachalapathi
Жанр: Perumal Devotional, Tamil
Носитель: CD
Страна-производитель диска (релиза): India
Год издания: 2007
Издатель (лейбл): Anand Audio
Аудиокодек: FLAC (*.flac)
Тип рипа: image+.cue
Битрейт аудио: lossless
Продолжительность: 00:45:56
Источник (релизер): собственный рип
Наличие сканов в содержимом раздачи: да
Треклист:
01. Boopalam Paadum Neram
02. Cauveryil Neeradi
03. Azhagu Mayil
04. Manamellam Unn Ninaive
05. Koyil Mani Osai
06. Thirumagal Yenrendrum
07. Thirumalaiyil Vaazhum
08. Gunaseelam Yenmum Oorile
09. Cauverikkaraiyil
10. Mangalam jaya Mangalam

Лог создания рипа

Exact Audio Copy V1.1 from 23. June 2015
Отчёт EAC об извлечении, выполненном 7. ноября 2015, 0:37
Bombay Sisters / Bhakti Malar
Дисковод: MATSHITADVD-RAM UJ8B0 Adapter: 1 ID: 0
Режим чтения : ДостоверностьИспользование точного потока : ДаОтключение кэша аудио : ДаИспользование указателей C2 : Нет
Коррекция смещения при чтении : 0Способность читать области Lead-in и Lead-out : НетЗаполнение пропущенных сэмплов тишиной : ДаУдаление блоков с тишиной в начале и конце : НетПри вычислениях CRC использовались нулевые сэмплы : ДаИнтерфейс : Встроенный Win32-интерфейс для Win NT/2000
Выходной формат : Пользовательский кодировщикВыбранный битрейт : 896 kBit/sКачество : ВысокийДобавление ID3-тега : НетУтилита сжатия : C:\flac.exeДополнительные параметры : -V -8 -T "Date=%year%" -T "Genre=%genre%" %source%
TOC извлечённого CD
Трек | Старт | Длительность | Начальный сектор | Конечный сектор --------------------------------------------------------------------- 1 | 0:00.00 | 3:46.04 | 0 | 16953 2 | 3:46.04 | 4:22.46 | 16954 | 36649 3 | 8:08.50 | 5:30.64 | 36650 | 61463 4 | 13:39.39 | 4:38.04 | 61464 | 82317 5 | 18:17.43 | 4:47.14 | 82318 | 103856 6 | 23:04.57 | 5:10.39 | 103857 | 127145 7 | 28:15.21 | 3:52.68 | 127146 | 144613 8 | 32:08.14 | 4:07.13 | 144614 | 163151 9 | 36:15.27 | 5:25.31 | 163152 | 187557 10 | 41:40.58 | 4:15.36 | 187558 | 206718
Характеристики диапазона извлечения и сообщения об ошибках
Выбранный диапазон
Имя файла C:\Bombay Sisters - Bhakti Malar.wav
Пиковый уровень 98.4 % Скорость извлечения 1.9 X Качество диапазона 99.9 % CRC теста F100A552 CRC копии F100A552 Копирование... OK
Ошибок не произошло
Конец отчёта
==== Контрольная сумма отчёта 804EAFF93214630CF340596DDB76CFE708A089F30C668BD5E7D750EAA88105AA ====

Содержание индексной карты (.CUE)

REM DISCID 890AC40AREM COMMENT "ExactAudioCopy v1.1"PERFORMER "Bombay Sisters"TITLE "Bhakti Malar"FILE "Bombay Sisters - Bhakti Malar.flac" WAVE TRACK 01 AUDIO TITLE "Track01" PERFORMER "Bombay Sisters" INDEX 01 00:00:00 TRACK 02 AUDIO TITLE "Track02" PERFORMER "Bombay Sisters" INDEX 01 03:46:04 TRACK 03 AUDIO TITLE "Track03" PERFORMER "Bombay Sisters" INDEX 00 08:08:24 INDEX 01 08:08:50 TRACK 04 AUDIO TITLE "Track04" PERFORMER "Bombay Sisters" INDEX 01 13:39:39 TRACK 05 AUDIO TITLE "Track05" PERFORMER "Bombay Sisters" INDEX 01 18:17:43 TRACK 06 AUDIO TITLE "Track06" PERFORMER "Bombay Sisters" INDEX 01 23:04:57 TRACK 07 AUDIO TITLE "Track07" PERFORMER "Bombay Sisters" INDEX 01 28:15:21 TRACK 08 AUDIO TITLE "Track08" PERFORMER "Bombay Sisters" INDEX 01 32:08:14 TRACK 09 AUDIO TITLE "Track09" PERFORMER "Bombay Sisters" INDEX 01 36:15:27 TRACK 10 AUDIO TITLE "Track10" PERFORMER "Bombay Sisters" INDEX 01 41:40:58
[doutdess.site].t88170.torrent
Torrent: Registered [ 2015-11-07 02:05 ] · E0532A3126673792920131CEC3780199F5F3B239

19 KB

Status: checked
Completed: 1 times
Size: 239 MB
(Perumal Devotional, Tamil) Bombay Sisters - Sri Prasanna Venkatachalapathi - 2007, FLAC (image+.cue), lossless скачать торрент бесплатно и без регистрации

[Profile] [PM]
Forum Topic Author Size
Этническая музыка Индии lossless (Perumal Devotional, Tamil) Bombay & Sulamangalam Sisters - Namo Namo Venkatesa - 2002, FLAC (image+.cue), lossless RelizMAN 315 MB
Display posts:    

Current time is: 22-Sep 09:54

All times are UTC + 3



You cannot post new topics in this forum
You cannot reply to topics in this forum
You cannot edit your posts in this forum
You cannot delete your posts in this forum
You cannot vote in polls in this forum
You cannot attach files in this forum
You can download files in this forum