Reply to topic
DL-List and Torrent activity [Update пиров]
Size:  736 MB   |    Registered:  4 years 10 months   |    Completed:  0 times
Seeders:  783  [  0 KB/s  ]   Leechers:  6  [  0 KB/s  ]  
 
     
 
 
Author Message

RelizMAN ®

11

Post 04-Nov-2015 01:45

[Quote]

Anup Jalota - Nayee Bhajan Sandhya
Bhakti Pada (Lyrics): Kavi Narayan Agrawal "Das Narayan"
Жанр: Bhajan
Носитель: CD
Страна-производитель диска (релиза): India
Год издания: 2008
Издатель (лейбл): Venus Records
Аудиокодек: FLAC (*.flac)
Тип рипа: image+.cue
Битрейт аудио: lossless
Продолжительность: 02:01:14
Источник (релизер): собственный рип
Наличие сканов в содержимом раздачи: да

CD1

01. Aisi Lagi Agan
02. Maiya Mori
03. Kahe Chadariya
04. Jeevan Mein Shyam
05. Jeevan Kitne Din Ka
06. Sabki Peer Ko
07. Ram Ram Mukh
08. Radharaman (Sankirtan)

Лог создания рипа

Exact Audio Copy V1.1 from 23. June 2015
Отчёт EAC об извлечении, выполненном 3. ноября 2015, 21:36
Anup Jalota & Kavi Narayan Agrawal 'Das Narayan' / Nayee Bhajan Sandhya
Дисковод: MATSHITADVD-RAM UJ8B0 Adapter: 1 ID: 0
Режим чтения : Скоростной
Коррекция смещения при чтении : 0
Способность читать области Lead-in и Lead-out : Нет
Заполнение пропущенных сэмплов тишиной : Да
Удаление блоков с тишиной в начале и конце : Нет
При вычислениях CRC использовались нулевые сэмплы : Да
Интерфейс : Встроенный Win32-интерфейс для Win NT/2000
Выходной формат : Пользовательский кодировщик
Выбранный битрейт : 896 kBit/s
Качество : Высокий
Добавление ID3-тега : Нет
Утилита сжатия : C:\flac.exe
Дополнительные параметры : -V -8 -T "Date=%year%" -T "Genre=%genre%" %source%
TOC извлечённого CD
Трек | Старт | Длительность | Начальный сектор | Конечный сектор
---------------------------------------------------------------------
1 | 0:00.00 | 10:31.54 | 0 | 47378
2 | 10:31.54 | 9:05.64 | 47379 | 88317
3 | 19:37.43 | 7:51.52 | 88318 | 123694
4 | 27:29.20 | 7:17.63 | 123695 | 156532
5 | 34:47.08 | 6:54.14 | 156533 | 187596
6 | 41:41.22 | 8:54.44 | 187597 | 227690
7 | 50:35.66 | 4:14.65 | 227691 | 246805
8 | 54:50.56 | 9:35.03 | 246806 | 289933
Характеристики диапазона извлечения и сообщения об ошибках
Выбранный диапазон
Имя файла C:\Anup Jalota & Kavi Narayan Agrawal 'Das Narayan' - Nayee Bhajan Sandhya.wav
Пиковый уровень 96.6 %
Скорость извлечения 6.9 X
CRC теста 495DAA84
CRC копии 6F584706
Копирование... OK
Ошибок не произошло
Конец отчёта
==== Контрольная сумма отчёта CFC91D75538EDDC05D7DC732691E6C6314BA1D70E7B9BDE2CFD3CE2A09B4772B ====

Содержание индексной карты (.CUE)

REM GENRE hindustani
REM DATE 2008
REM DISCID 670F1908
REM COMMENT "ExactAudioCopy v1.1"
PERFORMER "Anup Jalota & Kavi Narayan Agrawal 'Das Narayan'"
TITLE "Nayee Bhajan Sandhya"
FILE "Anup Jalota & Kavi Narayan Agrawal 'Das Narayan' - Nayee Bhajan Sandhya.flac" WAVE
TRACK 01 AUDIO
TITLE "Aisi Lagi Agan"
PERFORMER "Anup Jalota & Kavi Narayan Agrawal 'Das Narayan'"
INDEX 01 00:00:00
TRACK 02 AUDIO
TITLE "Maiya Mori"
PERFORMER "Anup Jalota & Kavi Narayan Agrawal 'Das Narayan'"
INDEX 01 10:31:54
TRACK 03 AUDIO
TITLE "Kahe Chadariya"
PERFORMER "Anup Jalota & Kavi Narayan Agrawal 'Das Narayan'"
INDEX 01 19:37:43
TRACK 04 AUDIO
TITLE "Jeevan Mein Shyam"
PERFORMER "Anup Jalota & Kavi Narayan Agrawal 'Das Narayan'"
INDEX 01 27:29:20
TRACK 05 AUDIO
TITLE "Jeevan Kitne Din Ka"
PERFORMER "Anup Jalota & Kavi Narayan Agrawal 'Das Narayan'"
INDEX 01 34:47:08
TRACK 06 AUDIO
TITLE "Sabki Peer Ko"
PERFORMER "Anup Jalota & Kavi Narayan Agrawal 'Das Narayan'"
INDEX 01 41:41:22
TRACK 07 AUDIO
TITLE "Ram Ram Mukh"
PERFORMER "Anup Jalota & Kavi Narayan Agrawal 'Das Narayan'"
INDEX 01 50:35:66
TRACK 08 AUDIO
TITLE "Radharaman (Sankirtan)"
PERFORMER "Anup Jalota & Kavi Narayan Agrawal 'Das Narayan'"
INDEX 01 54:50:56

CD2

01. Kan Kan Mein Ram
02. Radha Raas Bihar
03. Yeh Jeevan To
04. Upajat Prem
05. Charanamrit Ka
06. Ab To Daya
07. Bhakti Ka Krishna
08. Jai Ram Ram (Sankirtan)

Лог создания рипа

Exact Audio Copy V1.1 from 23. June 2015
Отчёт EAC об извлечении, выполненном 3. ноября 2015, 22:06
Anup Jalota & Kavi Narayan Agrawal 'Das Narayan' / Nayee Bhajan Sandhya
Дисковод: MATSHITADVD-RAM UJ8B0 Adapter: 1 ID: 0
Режим чтения : Скоростной
Коррекция смещения при чтении : 0
Способность читать области Lead-in и Lead-out : Нет
Заполнение пропущенных сэмплов тишиной : Да
Удаление блоков с тишиной в начале и конце : Нет
При вычислениях CRC использовались нулевые сэмплы : Да
Интерфейс : Встроенный Win32-интерфейс для Win NT/2000
Выходной формат : Пользовательский кодировщик
Выбранный битрейт : 896 kBit/s
Качество : Высокий
Добавление ID3-тега : Нет
Утилита сжатия : C:\flac.exe
Дополнительные параметры : -V -8 -T "Date=%year%" -T "Genre=%genre%" %source%
TOC извлечённого CD
Трек | Старт | Длительность | Начальный сектор | Конечный сектор
---------------------------------------------------------------------
1 | 0:00.00 | 9:18.06 | 0 | 41855
2 | 9:18.06 | 4:16.16 | 41856 | 61071
3 | 13:34.22 | 6:24.26 | 61072 | 89897
4 | 19:58.48 | 8:07.58 | 89898 | 126480
5 | 28:06.31 | 9:01.54 | 126481 | 167109
6 | 37:08.10 | 5:38.72 | 167110 | 192531
7 | 42:47.07 | 7:07.64 | 192532 | 224620
8 | 49:54.71 | 6:53.43 | 224621 | 255638
Характеристики диапазона извлечения и сообщения об ошибках
Выбранный диапазон
Имя файла C:\Anup Jalota & Kavi Narayan Agrawal 'Das Narayan' - Nayee Bhajan Sandhya.wav
Пиковый уровень 96.6 %
Скорость извлечения 6.7 X
CRC теста E54AE3E4
CRC копии 0C7F5FD9
Копирование... OK
Ошибок не произошло
Конец отчёта
==== Контрольная сумма отчёта 0DDCCD8FEA34ECE344893AA33C785C58DEEB8037E9DD1816A3C8E0D3AC7DC74A ====

Содержание индексной карты (.CUE)

REM GENRE hindustani
REM DATE 2008
REM DISCID 6D0D5008
REM COMMENT "ExactAudioCopy v1.1"
PERFORMER "Anup Jalota & Kavi Narayan Agrawal 'Das Narayan'"
TITLE "Nayee Bhajan Sandhya"
FILE "Anup Jalota & Kavi Narayan Agrawal 'Das Narayan' - Nayee Bhajan Sandhya.flac" WAVE
TRACK 01 AUDIO
TITLE "Kan Kan Mein Ram"
PERFORMER "Anup Jalota & Kavi Narayan Agrawal 'Das Narayan'"
INDEX 01 00:00:00
TRACK 02 AUDIO
TITLE "Radha Raas Bihari"
PERFORMER "Anup Jalota & Kavi Narayan Agrawal 'Das Narayan'"
INDEX 01 09:18:06
TRACK 03 AUDIO
TITLE "Yeh Jeevan To"
PERFORMER "Anup Jalota & Kavi Narayan Agrawal 'Das Narayan'"
INDEX 01 13:34:22
TRACK 04 AUDIO
TITLE "Upajat Prem"
PERFORMER "Anup Jalota & Kavi Narayan Agrawal 'Das Narayan'"
INDEX 00 19:58:41
INDEX 01 19:58:48
TRACK 05 AUDIO
TITLE "Charanamrit Ka"
PERFORMER "Anup Jalota & Kavi Narayan Agrawal 'Das Narayan'"
INDEX 00 28:06:30
INDEX 01 28:06:31
TRACK 06 AUDIO
TITLE "Ab To Daya"
PERFORMER "Anup Jalota & Kavi Narayan Agrawal 'Das Narayan'"
INDEX 00 37:08:04
INDEX 01 37:08:10
TRACK 07 AUDIO
TITLE "Bhakti Ka Krishna"
PERFORMER "Anup Jalota & Kavi Narayan Agrawal 'Das Narayan'"
INDEX 00 42:47:00
INDEX 01 42:47:07
TRACK 08 AUDIO
TITLE "Jai Ram Ram (Sankirtan)"
PERFORMER "Anup Jalota & Kavi Narayan Agrawal 'Das Narayan'"
INDEX 01 49:54:71
[doutdess.site].t87609.torrent
Torrent: Registered [ 2015-11-04 01:45 ] · 199C03906AC6F42F930F6A93CEE6D6B5D25733E1

16 KB

Status: checked
Completed: 0 times
Size: 736 MB
(Bhajan) Anup Jalota - Nayee Bhajan Sandhya (2 CD)- 2008, FLAC (image+.cue), lossless скачать торрент бесплатно и без регистрации

[Profile] [PM]
Forum Topic Author Size
Этническая музыка Индии lossless (Bhajan) Anuradha Paudwal - AARTI - 2001, APE (tracks), lossless RelizMAN 431 MB
Display posts:    

Current time is: 20-Sep 16:14

All times are UTC + 3



You cannot post new topics in this forum
You cannot reply to topics in this forum
You cannot edit your posts in this forum
You cannot delete your posts in this forum
You cannot vote in polls in this forum
You cannot attach files in this forum
You can download files in this forum