Reply to topic
DL-List and Torrent activity [Update пиров]
Size:  832 MB   |    Registered:  4 years 10 months   |    Completed:  1 time
Seeders:  621  [  0 KB/s  ]   Leechers:  15  [  0 KB/s  ]  
 
     
 
 
Author Message

Vi$itReal ®

12

Post 03-Nov-2015 20:20

[Quote]


Collection

Жанр: Folk, Acoustic Rock, Trip Rock Носитель: CD
Страна-производитель диска (релиза): Norway, Germany
Год издания: 2008-2015 Страна исполнителя (группы): Norway
Аудиокодек: FLAC (*.flac) Тип рипа: image+.cue
Битрейт аудио: lossless Источник (релизер): My CDs
Наличие сканов в содержимом раздачи: да

2004 (2008): Other People's Stories (Reissued-2008)

Издатель (лейбл): GMR Music Group
Номер по каталогу: GMRCD9010
Продолжительность: 52:47
Треклист:
01. Other People’s Stories
02. Sorrow To My Door Dog Star
03. Cry
04. Dog Star
05. When Lilies Bloom On Winter Days…
06. Push
07. Fishing
08. Ride
09. Carved In Stone
10. Life
11. Orlando
12. The Hurting Game (previously unreleased. Taken from the 2004 Other People's Stories sessions)
13. Dog Star (remix)
1 4. When Lilies Bloom On Winter Days (remix)

Лог создания рипа

Exact Audio Copy V1.1 from 23. June 2015
EAC extraction logfile from 2. November 2015, 20:23
Kari Rueslatten / Other Peoples Stories (2008 Reissued)
Used drive : HP DVD Writer 1170d Adapter: 1 ID: 1
Read mode : SecureUtilize accurate stream : YesDefeat audio cache : YesMake use of C2 pointers : No
Read offset correction : 6Overread into Lead-In and Lead-Out : NoFill up missing offset samples with silence : YesDelete leading and trailing silent blocks : NoNull samples used in CRC calculations : YesUsed interface : Native Win32 interface for Win NT & 2000
Used output format : User Defined EncoderSelected bitrate : 1024 kBit/sQuality : HighAdd ID3 tag : NoCommand line compressor : C:\Program Files (x86)\Exact Audio Copy\FLAC\FLAC.EXEAdditional command line options : -V -8 -T "Date=%year%" -T "Genre=%genre%" -T"COMMENT=Ripped by Ungern666" -8 -V %source%
TOC of the extracted CD
Track | Start | Length | Start sector | End sector --------------------------------------------------------- 1 | 0:00.00 | 3:19.02 | 0 | 14926 2 | 3:19.02 | 3:32.24 | 14927 | 30850 3 | 6:51.26 | 4:00.00 | 30851 | 48850 4 | 10:51.26 | 4:24.39 | 48851 | 68689 5 | 15:15.65 | 3:55.64 | 68690 | 86378 6 | 19:11.54 | 3:35.20 | 86379 | 102523 7 | 22:46.74 | 4:47.06 | 102524 | 124054 8 | 27:34.05 | 4:11.12 | 124055 | 142891 9 | 31:45.17 | 3:45.69 | 142892 | 159835 10 | 35:31.11 | 3:09.65 | 159836 | 174075 11 | 38:41.01 | 1:42.20 | 174076 | 181745 12 | 40:23.21 | 3:52.27 | 181746 | 199172 13 | 44:15.48 | 4:17.23 | 199173 | 218470 14 | 48:32.71 | 4:14.21 | 218471 | 237541
Range status and errors
Selected range
Filename C:\EAC\Ungern666\Kari Rueslatten - Other Peoples Stories (2008 Reissued).wav
Peak level 98.8 % Extraction speed 5.9 X Range quality 100.0 % Test CRC B921989A Copy CRC B921989A Copy OK
No errors occurred
AccurateRip summary
Track 1 accurately ripped (confidence 3) [DA383757] (AR v2)Track 2 accurately ripped (confidence 3) [EB114AE8] (AR v2)Track 3 accurately ripped (confidence 3) [1735BE8E] (AR v2)Track 4 accurately ripped (confidence 3) [8A5EF3B1] (AR v2)Track 5 accurately ripped (confidence 3) [D72FFD00] (AR v2)Track 6 accurately ripped (confidence 3) [C990D619] (AR v2)Track 7 accurately ripped (confidence 3) [674AB7E0] (AR v2)Track 8 accurately ripped (confidence 3) [727B9D4C] (AR v2)Track 9 accurately ripped (confidence 3) [67516C29] (AR v2)Track 10 accurately ripped (confidence 3) [152A0C00] (AR v2)Track 11 accurately ripped (confidence 3) [D65E9799] (AR v2)Track 12 accurately ripped (confidence 3) [BA8AD552] (AR v2)Track 13 accurately ripped (confidence 3) [0665AA36] (AR v2)Track 14 accurately ripped (confidence 3) [3C1A96B3] (AR v2)
All tracks accurately ripped
End of status report
---- CUETools DB Plugin V2.1.6
[CTDB TOCID: zKozdLU2_31xmy0d_1k8DvqCwjw-] foundSubmit result: already submittedTrack | CTDB Status 1 | (4/4) Accurately ripped 2 | (4/4) Accurately ripped 3 | (4/4) Accurately ripped 4 | (4/4) Accurately ripped 5 | (4/4) Accurately ripped 6 | (4/4) Accurately ripped 7 | (4/4) Accurately ripped 8 | (4/4) Accurately ripped 9 | (4/4) Accurately ripped 10 | (4/4) Accurately ripped 11 | (4/4) Accurately ripped 12 | (4/4) Accurately ripped 13 | (4/4) Accurately ripped 14 | (4/4) Accurately ripped
==== Log checksum 150526DC5BAC8FDD9D29B683E4A867FE8042018EB0CEA214AF5723EEBB9489C6 ====

2014: Time To Tell

Издатель (лейбл): Despotz Records
Номер по каталогу: DZCD040
Продолжительность: 39:27
Треклист:
01. Time To Tell
02. Hide Underneath Bridges
03. Hold On
04. Paint The Rainbow Grey
05. Rainy Days Ahead
06. Why So Lonely (featuring Tuomas Holopainen)
07. Shoreline
08. Waltz Across The Sky
09. Wintersong
10. Stay Right Here
11. Only You Know

Лог создания рипа

Exact Audio Copy V1.1 from 23. June 2015
EAC extraction logfile from 2. November 2015, 19:52
Kari Rueslatten / Time To Tell
Used drive : HP DVD Writer 1170d Adapter: 1 ID: 1
Read mode : SecureUtilize accurate stream : YesDefeat audio cache : YesMake use of C2 pointers : No
Read offset correction : 6Overread into Lead-In and Lead-Out : NoFill up missing offset samples with silence : YesDelete leading and trailing silent blocks : NoNull samples used in CRC calculations : YesUsed interface : Native Win32 interface for Win NT & 2000
Used output format : User Defined EncoderSelected bitrate : 1024 kBit/sQuality : HighAdd ID3 tag : NoCommand line compressor : C:\Program Files (x86)\Exact Audio Copy\FLAC\FLAC.EXEAdditional command line options : -V -8 -T "Date=%year%" -T "Genre=%genre%" -T"COMMENT=Ripped by Ungern666" -8 -V %source%
TOC of the extracted CD
Track | Start | Length | Start sector | End sector --------------------------------------------------------- 1 | 0:00.00 | 1:06.55 | 0 | 5004 2 | 1:06.55 | 4:01.10 | 5005 | 23089 3 | 5:07.65 | 4:08.56 | 23090 | 41745 4 | 9:16.46 | 4:16.47 | 41746 | 60992 5 | 13:33.18 | 3:48.21 | 60993 | 78113 6 | 17:21.39 | 3:11.60 | 78114 | 92498 7 | 20:33.24 | 3:43.56 | 92499 | 109279 8 | 24:17.05 | 2:58.26 | 109280 | 122655 9 | 27:15.31 | 3:35.33 | 122656 | 138813 10 | 30:50.64 | 3:39.58 | 138814 | 155296 11 | 34:30.47 | 4:56.49 | 155297 | 177545
Range status and errors
Selected range
Filename C:\EAC\Ungern666\Kari Rueslatten - Time To Tell.wav
Peak level 96.8 % Extraction speed 4.8 X Range quality 99.9 % Test CRC B2B48266 Copy CRC B2B48266 Copy OK
No errors occurred
AccurateRip summary
Track 1 accurately ripped (confidence 6) [28F03494] (AR v2)Track 2 accurately ripped (confidence 6) [5C353CAA] (AR v2)Track 3 accurately ripped (confidence 6) [5DF240C5] (AR v2)Track 4 accurately ripped (confidence 6) [B882B5A9] (AR v2)Track 5 accurately ripped (confidence 6) [BD1FAC0F] (AR v2)Track 6 accurately ripped (confidence 6) [D2255F34] (AR v2)Track 7 accurately ripped (confidence 6) [C7525989] (AR v2)Track 8 accurately ripped (confidence 6) [C70DAE41] (AR v2)Track 9 accurately ripped (confidence 6) [5B586AA3] (AR v2)Track 10 accurately ripped (confidence 6) [016E9713] (AR v2)Track 11 accurately ripped (confidence 5) [FC80E69A] (AR v2)
All tracks accurately ripped
End of status report
---- CUETools DB Plugin V2.1.6
[CTDB TOCID: IWImrtJy.UbkXrEiFl4mihut3FU-] foundSubmit result: IWImrtJy.UbkXrEiFl4mihut3FU- has been confirmedTrack | CTDB Status 1 | (7/7) Accurately ripped 2 | (7/7) Accurately ripped 3 | (7/7) Accurately ripped 4 | (7/7) Accurately ripped 5 | (7/7) Accurately ripped 6 | (7/7) Accurately ripped 7 | (7/7) Accurately ripped 8 | (7/7) Accurately ripped 9 | (7/7) Accurately ripped 10 | (7/7) Accurately ripped 11 | (7/7) Accurately ripped
==== Log checksum C1924011EF889A29B899EA37559663D9B32FACE7CCF488DC9C644364E9F0E5BB ====

2015: To The North

Издатель (лейбл): Despotz Records
Номер по каталогу: DZCD053
Продолжительность: 39:30
Треклист:
01. Battle Forevermore
02. Mary's Song
03. What We Have Lost
04. Three Roses In My Hands
05. Dance With The King
06. Letting Go
07. Arrow In My Heart
08. Turn, Turn, Turn
09. To The North

Лог создания рипа

Exact Audio Copy V1.1 from 23. June 2015
EAC extraction logfile from 2. November 2015, 18:13
Kari Rueslatten / To The North
Used drive : HP DVD Writer 1170d Adapter: 1 ID: 1
Read mode : SecureUtilize accurate stream : YesDefeat audio cache : YesMake use of C2 pointers : No
Read offset correction : 6Overread into Lead-In and Lead-Out : NoFill up missing offset samples with silence : YesDelete leading and trailing silent blocks : NoNull samples used in CRC calculations : YesUsed interface : Native Win32 interface for Win NT & 2000
Used output format : User Defined EncoderSelected bitrate : 1024 kBit/sQuality : HighAdd ID3 tag : NoCommand line compressor : C:\Program Files (x86)\Exact Audio Copy\FLAC\FLAC.EXEAdditional command line options : -V -8 -T "Date=%year%" -T "Genre=%genre%" -T"COMMENT=Ripped by Ungern666" -8 -V %source%
TOC of the extracted CD
Track | Start | Length | Start sector | End sector --------------------------------------------------------- 1 | 0:00.00 | 3:50.37 | 0 | 17286 2 | 3:50.37 | 3:58.10 | 17287 | 35146 3 | 7:48.47 | 4:06.63 | 35147 | 53659 4 | 11:55.35 | 3:03.45 | 53660 | 67429 5 | 14:59.05 | 4:31.61 | 67430 | 87815 6 | 19:30.66 | 4:40.05 | 87816 | 108820 7 | 24:10.71 | 5:05.47 | 108821 | 131742 8 | 29:16.43 | 4:27.35 | 131743 | 151802 9 | 33:44.03 | 5:46.53 | 151803 | 177805
Range status and errors
Selected range
Filename C:\EAC\Ungern666\Kari Rueslatten - To The North.wav
Peak level 97.7 % Extraction speed 6.5 X Range quality 100.0 % Test CRC 5EB93BE4 Copy CRC 5EB93BE4 Copy OK
No errors occurred
AccurateRip summary
Track 1 not present in databaseTrack 2 not present in databaseTrack 3 not present in databaseTrack 4 not present in databaseTrack 5 not present in databaseTrack 6 not present in databaseTrack 7 not present in databaseTrack 8 not present in databaseTrack 9 not present in database
None of the tracks are present in the AccurateRip database
End of status report
---- CUETools DB Plugin V2.1.6
[CTDB TOCID: UwSmddt3EG0Sf3U5VkMylobF3Ps-] foundSubmit result: UwSmddt3EG0Sf3U5VkMylobF3Ps- has been confirmedTrack | CTDB Status 1 | (2/2) Accurately ripped 2 | (2/2) Accurately ripped 3 | (2/2) Accurately ripped 4 | (2/2) Accurately ripped 5 | (2/2) Accurately ripped 6 | (2/2) Accurately ripped 7 | (2/2) Accurately ripped 8 | (2/2) Accurately ripped 9 | (2/2) Accurately ripped
==== Log checksum EEACD4E00BD4FA31671A557EA5BEFCD9D13E1EE53B3089808236B1A127BCF863 ====
Материал предназначен для ознакомления!
[doutdess.site].t87552.torrent
Torrent: Registered [ 2015-11-03 20:20 ] · 95DC715B7C9C4AC7106562FCD703356199067FC5

20 KB

Status: checked
Completed: 1 times
Size: 832 MB
(Folk, Acoustic Rock, Trip Rock) [CD] Kari Rueslåtten (Kari Rueslatten) - Collection - 2004-2015, (3 CDs), FLAC (image+.cue), lossless скачать торрент бесплатно и без регистрации

[Profile] [PM]
Forum Topic Author Size
Фламенко и акустическая гитара lossless (Folk, Acoustic Guitar, Classical Guitar, World) [WEB] Ximo - Poesies. Homenatge a Marius (Màrius) Torres - 2014, FLAC (tracks), lossless RelizMAN 377 MB
Западноевропейский фолк lossy (Folk, Acoustic) Anneke van Giersbergen & Árstíðir - Verloren verleden - 2016, MP3, 320 kbps RelizMAN 87 MB
Фламенко и акустическая гитара lossy (Folk, Acoustic) OqueStrada - Discography - 2009-2014, MP3, 320 kbps Vi$itReal 179 MB
Западноевропейский фолк lossy (Folk, Acoustic, Cello) Tara Fuki - Дискография 2001-2014 (5 релизов), MP3, 256-320 kbps RelizMAN 563 MB
Западноевропейский фолк lossy (Folk, Acoustic, Contemporary Folk, Singer/Songwrit) Steve Tilston (& Peter Finger, Seth Austen, Maggie Boyle, The Durbervilles) - Коллекция 1976-2011 (22 релиза), MP3, 233-320 kbps RelizMAN 3.77 GB
Западноевропейский фолк lossy (Folk, Acoustic, Folk Pop, Indie Pop) Lisa Mitchell - Дискография 2007-2016 (6 релизов), MP3, 192-320 kbps RelizMAN 487 MB
Фламенко и акустическая гитара lossy (Folk, Acoustic, Guitar) Mike Dawes - Era - 2017, MP3, 320 kbps Vi$itReal 121 MB
Западноевропейский фолк lossy (Folk, Acoustic, Pop, Pop-Folk) Damien Leith - Коллекция 2006-2015 (4 альбома), MP3, 320 kbps RelizMAN 449 MB
Display posts:    

Current time is: 20-Sep 12:48

All times are UTC + 3



You cannot post new topics in this forum
You cannot reply to topics in this forum
You cannot edit your posts in this forum
You cannot delete your posts in this forum
You cannot vote in polls in this forum
You cannot attach files in this forum
You can download files in this forum