Reply to topic
DL-List and Torrent activity [Update пиров]
Size:  679 MB   |    Registered:  4 years 10 months   |    Completed:  1 time
Seeders:  133  [  0 KB/s  ]   Leechers:  1  [  0 KB/s  ]  
 
     
 
 
Author Message

Vi$itReal ®

12

Post 08-Nov-2015 21:20

[Quote]

Алла Сумарокова - 2 альбома 2013, 2014
Жанр: Folk
Носитель: CD
Страна-производитель диска (релиза): Russia
Год издания: 2013, 2014
Страна исполнителя (группы): Russia - Arkhangelsk
Аудиокодек: FLAC (*.flac)
Тип рипа: image+.cue
Битрейт аудио: lossless
Продолжительность: 2 часа
Источник (релизер): CD
Наличие сканов в содержимом раздачи: да

Алла Сумарокова - В горнице моей...(2003)

Алла Сумарокова / В горнице моей...
Жанр: Folk
Носитель: CD
Страна-производитель диска (релиза): Russia
Год издания: 2013
Страна исполнителя (группы): Russia - Arkhangelsk
Аудиокодек: FLAC (*.flac)
Тип рипа: image+.cue
Битрейт аудио: lossless
Продолжительность: 57:53
Источник (релизер): CD
Наличие сканов в содержимом раздачи: да
Треклист:
1. В горнице моей...
2. Выйду на улицу
3. Деревня моя
4. Камушки
5. Балалаечка - баллайка
6. Мне без валенок беда
7. В лунном сияньи
8. Белым снегом
9. Мама, ты же сама молодою была...
10. У Катюши муж гуляка
11. Миленький ты мой
12. Осока
13. Виновата ли я
14. По муромской дорожке
15. За окошком света мало
16. Дорогой длинною
17. Ничего я с собой не поделаю
18. Коробейники
19. Восемнадцать лет

Лог создания рипа

Exact Audio Copy V1.0 beta 6 from 9. April 2015
EAC extraction logfile from 8. November 2015, 20:28
Алла Сумарокова / В горнице моей...
Used drive : hp DVDRW SU208FB Adapter: 1 ID: 0
Read mode : Secure
Utilize accurate stream : Yes
Defeat audio cache : Yes
Make use of C2 pointers : No
Read offset correction : 6
Overread into Lead-In and Lead-Out : No
Fill up missing offset samples with silence : Yes
Delete leading and trailing silent blocks : No
Null samples used in CRC calculations : Yes
Used interface : Native Win32 interface for Win NT & 2000
Used output format : Internal WAV Routines
Sample format : 44.100 Hz; 16 Bit; Stereo
TOC of the extracted CD
Track | Start | Length | Start sector | End sector
---------------------------------------------------------
1 | 0:00.00 | 4:21.31 | 0 | 19605
2 | 4:21.31 | 2:54.31 | 19606 | 32686
3 | 7:15.62 | 2:52.59 | 32687 | 45645
4 | 10:08.46 | 3:23.05 | 45646 | 60875
5 | 13:31.51 | 2:27.20 | 60876 | 71920
6 | 15:58.71 | 1:45.06 | 71921 | 79801
7 | 17:44.02 | 3:08.02 | 79802 | 93903
8 | 20:52.04 | 3:36.09 | 93904 | 110112
9 | 24:28.13 | 2:50.72 | 110113 | 122934
10 | 27:19.10 | 1:34.67 | 122935 | 130051
11 | 28:54.02 | 3:05.64 | 130052 | 143990
12 | 31:59.66 | 3:15.65 | 143991 | 158680
13 | 35:15.56 | 1:46.69 | 158681 | 166699
14 | 37:02.50 | 3:15.07 | 166700 | 181331
15 | 40:17.57 | 3:10.36 | 181332 | 195617
16 | 43:28.18 | 3:26.73 | 195618 | 211140
17 | 46:55.16 | 4:07.58 | 211141 | 229723
18 | 51:02.74 | 2:55.42 | 229724 | 242890
19 | 53:58.41 | 3:54.54 | 242891 | 260494
Range status and errors
Selected range
Filename C:\Алла Сумарокова - В горнице моей....wav
Peak level 93.6 %
Extraction speed 3.9 X
Range quality 100.0 %
Test CRC 56ED9CE3
Copy CRC 56ED9CE3
Copy OK
No errors occurred
AccurateRip summary
Track 1 not present in database
Track 2 not present in database
Track 3 not present in database
Track 4 not present in database
Track 5 not present in database
Track 6 not present in database
Track 7 not present in database
Track 8 not present in database
Track 9 not present in database
Track 10 not present in database
Track 11 not present in database
Track 12 not present in database
Track 13 not present in database
Track 14 not present in database
Track 15 not present in database
Track 16 not present in database
Track 17 not present in database
Track 18 not present in database
Track 19 not present in database
None of the tracks are present in the AccurateRip database
End of status report
==== Log checksum C24E3EC969A7454EB5CC5DC63D6BDDC0BBE1E5CCED0616D47D621DDDDCDA6587 ====

Содержание индексной карты (.CUE)

REM GENRE Folk
REM DATE 2003
REM DISCID E20D9113
REM COMMENT "ExactAudioCopy v1.0b6"
PERFORMER "Алла Сумарокова"
TITLE "В горнице моей..."
FILE "Алла Сумарокова - В горнице моей....flac" WAVE
TRACK 01 AUDIO
TITLE "В горнице моей..."
PERFORMER "Алла Сумарокова"
INDEX 01 00:00:00
TRACK 02 AUDIO
TITLE "Выйду на улицу"
PERFORMER "Алла Сумарокова"
INDEX 00 04:19:31
INDEX 01 04:21:31
TRACK 03 AUDIO
TITLE "Деревня моя"
PERFORMER "Алла Сумарокова"
INDEX 00 07:13:62
INDEX 01 07:15:62
TRACK 04 AUDIO
TITLE "Камушки"
PERFORMER "Алла Сумарокова"
INDEX 00 10:06:46
INDEX 01 10:08:46
TRACK 05 AUDIO
TITLE "Балалаечка - баллайка"
PERFORMER "Алла Сумарокова"
INDEX 00 13:29:51
INDEX 01 13:31:51
TRACK 06 AUDIO
TITLE "Мне без валенок беда"
PERFORMER "Алла Сумарокова"
INDEX 00 15:56:71
INDEX 01 15:58:71
TRACK 07 AUDIO
TITLE "В лунном сияньи"
PERFORMER "Алла Сумарокова"
INDEX 00 17:42:02
INDEX 01 17:44:02
TRACK 08 AUDIO
TITLE "Белым снегом"
PERFORMER "Алла Сумарокова"
INDEX 00 20:50:04
INDEX 01 20:52:04
TRACK 09 AUDIO
TITLE "Мама, ты же сама молодою была..."
PERFORMER "Алла Сумарокова"
INDEX 00 24:26:13
INDEX 01 24:28:13
TRACK 10 AUDIO
TITLE "У Катюши муж гуляка"
PERFORMER "Алла Сумарокова"
INDEX 00 27:17:11
INDEX 01 27:19:10
TRACK 11 AUDIO
TITLE "Миленький ты мой"
PERFORMER "Алла Сумарокова"
INDEX 00 28:52:02
INDEX 01 28:54:02
TRACK 12 AUDIO
TITLE "Осока"
PERFORMER "Алла Сумарокова"
INDEX 00 31:57:66
INDEX 01 31:59:66
TRACK 13 AUDIO
TITLE "Виновата ли я"
PERFORMER "Алла Сумарокова"
INDEX 00 35:13:56
INDEX 01 35:15:56
TRACK 14 AUDIO
TITLE "По муромской дорожке"
PERFORMER "Алла Сумарокова"
INDEX 00 37:00:50
INDEX 01 37:02:50
TRACK 15 AUDIO
TITLE "За окошком света мало"
PERFORMER "Алла Сумарокова"
INDEX 00 40:15:57
INDEX 01 40:17:57
TRACK 16 AUDIO
TITLE "Дорогой длинною"
PERFORMER "Алла Сумарокова"
INDEX 00 43:26:18
INDEX 01 43:28:18
TRACK 17 AUDIO
TITLE "Ничего я с собой не поделаю"
PERFORMER "Алла Сумарокова"
INDEX 00 46:53:16
INDEX 01 46:55:16
TRACK 18 AUDIO
TITLE "Коробейники"
PERFORMER "Алла Сумарокова"
INDEX 00 51:01:00
INDEX 01 51:02:74
TRACK 19 AUDIO
TITLE "Восемнадцать лет"
PERFORMER "Алла Сумарокова"
INDEX 00 53:56:41
INDEX 01 53:58:41

Алла Сумарокова - В лунном сиянии... (2004)

Алла Сумарокова / В лунном сиянии...
Жанр: Folk
Носитель: CD
Страна-производитель диска (релиза): Russia
Год издания: 2014
Страна исполнителя (группы): Russia - Arkhangelsk
Аудиокодек: FLAC (*.flac)
Тип рипа: image+.cue
Битрейт аудио: lossless
Продолжительность: 57:52
Источник (релизер): CD
Наличие сканов в содержимом раздачи: да
Треклист:
1. В лунном сиянии...
2. Белой акации гроздья душистые
3. Калитка
4. Любовь - волшебная страна
5. Седина
6. Клен ты мой, опавший
7. Мохнатый шмель
8. Расставаясь, она говорила...
9. Ах, ручеёчек, ручеек
10. Не уходи, побудь со мною
11. Признание...
12. Любовь и разлука
13. Не уезжай, ты мой голубчик...
14. Очи черные
15. А на последок я скажу...
16. Дорогой длинною
17. Гори, гори, моя звезда...

Лог создания рипа

Exact Audio Copy V1.0 beta 6 from 9. April 2015
EAC extraction logfile from 8. November 2015, 19:52
Алла Сумарокова / В лунном сиянии...
Used drive : hp DVDRW SU208FB Adapter: 1 ID: 0
Read mode : Secure
Utilize accurate stream : Yes
Defeat audio cache : Yes
Make use of C2 pointers : No
Read offset correction : 6
Overread into Lead-In and Lead-Out : No
Fill up missing offset samples with silence : Yes
Delete leading and trailing silent blocks : No
Null samples used in CRC calculations : Yes
Used interface : Native Win32 interface for Win NT & 2000
Used output format : Internal WAV Routines
Sample format : 44.100 Hz; 16 Bit; Stereo
TOC of the extracted CD
Track | Start | Length | Start sector | End sector
---------------------------------------------------------
1 | 0:00.00 | 3:07.14 | 0 | 14038
2 | 3:07.14 | 3:52.62 | 14039 | 31500
3 | 7:00.01 | 2:34.49 | 31501 | 43099
4 | 9:34.50 | 3:03.60 | 43100 | 56884
5 | 12:38.35 | 3:40.08 | 56885 | 73392
6 | 16:18.43 | 3:32.74 | 73393 | 89366
7 | 19:51.42 | 3:31.74 | 89367 | 105265
8 | 23:23.41 | 2:58.34 | 105266 | 118649
9 | 26:22.00 | 2:43.13 | 118650 | 130887
10 | 29:05.13 | 3:16.31 | 130888 | 145618
11 | 32:21.44 | 3:45.02 | 145619 | 162495
12 | 36:06.46 | 4:08.18 | 162496 | 181113
13 | 40:14.64 | 2:37.41 | 181114 | 192929
14 | 42:52.30 | 3:28.11 | 192930 | 208540
15 | 46:20.41 | 2:47.10 | 208541 | 221075
16 | 49:07.51 | 3:59.31 | 221076 | 239031
17 | 53:07.07 | 4:44.60 | 239032 | 260391
Range status and errors
Selected range
Filename C:\Алла Сумарокова - В лунном сиянии....wav
Peak level 96.6 %
Extraction speed 3.8 X
Range quality 100.0 %
Test CRC F9D08F49
Copy CRC F9D08F49
Copy OK
No errors occurred
AccurateRip summary
Track 1 not present in database
Track 2 not present in database
Track 3 not present in database
Track 4 not present in database
Track 5 not present in database
Track 6 not present in database
Track 7 not present in database
Track 8 not present in database
Track 9 not present in database
Track 10 not present in database
Track 11 not present in database
Track 12 not present in database
Track 13 not present in database
Track 14 not present in database
Track 15 not present in database
Track 16 not present in database
Track 17 not present in database
None of the tracks are present in the AccurateRip database
End of status report
==== Log checksum F5603A84E8111E56726ACC4EF4A3EB333B691C9E3ADF3998BFA713F8CF41369D ====

Содержание индексной карты (.CUE)

REM GENRE Folk
REM DATE 2004
REM DISCID 0B0D8F11
REM COMMENT "ExactAudioCopy v1.0b6"
PERFORMER "Алла Сумарокова"
TITLE "В лунном сиянии..."
FILE "Алла Сумарокова - В лунном сиянии....flac" WAVE
TRACK 01 AUDIO
TITLE "В лунном сиянии..."
PERFORMER "Алла Сумарокова"
FLAGS DCP
INDEX 01 00:00:00
TRACK 02 AUDIO
TITLE "Белой акации гроздья душистые"
PERFORMER "Алла Сумарокова"
FLAGS DCP
INDEX 00 03:05:14
INDEX 01 03:07:14
TRACK 03 AUDIO
TITLE "Калитка"
PERFORMER "Алла Сумарокова"
FLAGS DCP
INDEX 00 06:58:01
INDEX 01 07:00:01
TRACK 04 AUDIO
TITLE "Любовь - волшебная страна"
PERFORMER "Алла Сумарокова"
FLAGS DCP
INDEX 00 09:32:50
INDEX 01 09:34:50
TRACK 05 AUDIO
TITLE "Седина"
PERFORMER "Алла Сумарокова"
FLAGS DCP
INDEX 00 12:36:35
INDEX 01 12:38:35
TRACK 06 AUDIO
TITLE "Клен ты мой, опавший"
PERFORMER "Алла Сумарокова"
FLAGS DCP
INDEX 00 16:16:43
INDEX 01 16:18:43
TRACK 07 AUDIO
TITLE "Мохнатый шмель"
PERFORMER "Алла Сумарокова"
FLAGS DCP
INDEX 00 19:49:42
INDEX 01 19:51:42
TRACK 08 AUDIO
TITLE "Расставаясь, она говорила..."
PERFORMER "Алла Сумарокова"
FLAGS DCP
INDEX 00 23:21:41
INDEX 01 23:23:41
TRACK 09 AUDIO
TITLE "Ах, ручеёчек, ручеек"
PERFORMER "Алла Сумарокова"
FLAGS DCP
INDEX 00 26:20:00
INDEX 01 26:22:00
TRACK 10 AUDIO
TITLE "Не уходи, побудь со мною"
PERFORMER "Алла Сумарокова"
FLAGS DCP
INDEX 00 29:03:13
INDEX 01 29:05:13
TRACK 11 AUDIO
TITLE "Признание..."
PERFORMER "Алла Сумарокова"
FLAGS DCP
INDEX 00 32:19:44
INDEX 01 32:21:44
TRACK 12 AUDIO
TITLE "Любовь и разлука"
PERFORMER "Алла Сумарокова"
FLAGS DCP
INDEX 00 36:04:46
INDEX 01 36:06:46
TRACK 13 AUDIO
TITLE "Не уезжай, ты мой голубчик..."
PERFORMER "Алла Сумарокова"
FLAGS DCP
INDEX 00 40:12:64
INDEX 01 40:14:64
TRACK 14 AUDIO
TITLE "Очи черные"
PERFORMER "Алла Сумарокова"
FLAGS DCP
INDEX 00 42:50:30
INDEX 01 42:52:30
TRACK 15 AUDIO
TITLE "А на последок я скажу..."
PERFORMER "Алла Сумарокова"
FLAGS DCP
INDEX 00 46:18:41
INDEX 01 46:20:41
TRACK 16 AUDIO
TITLE "Дорогой длинною"
PERFORMER "Алла Сумарокова"
FLAGS DCP
INDEX 00 49:05:51
INDEX 01 49:07:51
TRACK 17 AUDIO
TITLE "Гори, гори, моя звезда..."
PERFORMER "Алла Сумарокова"
FLAGS DCP
INDEX 00 53:05:07
INDEX 01 53:07:07
[doutdess.site].t88468.torrent
Torrent: Registered [ 2015-11-08 21:20 ] · 92FEB8FB5C20A6F89E291954D166C209358A8DD4

16 KB

Status: checked
Completed: 1 times
Size: 679 MB
(Folk) [CD] Алла Сумарокова - 2 альбома 2013, 2014, FLAC (image+.cue), lossless скачать торрент бесплатно и без регистрации

[Profile] [PM]
Forum Topic Author Size
Этническая музыка Африки и Ближнего Востока lossless (Folk) [CDR] Cécile Kayirebwa - Rwanda - 1994, FLAC (tracks+.cue), lossless RelizMAN 408 MB
Восточноевропейский фолк в lossless (Folk) [CDR] Андрей Виноградов - Сокол - 2000, FLAC (image+.cue), lossless Vi$itReal 243 MB
Этническая музыка Сибири, Средней и Восточной Азии lossless (Folk) [CD] 多謀室內樂團 (Multi-commitment Chamber Orchestra) - 古早夜曲 (The Missing Nocturnes of Taiwan) - 2002, FLAC (image+.cue),... RelizMAN 172 MB
Этническая музыка Африки и Ближнего Востока lossless (Folk) [CD] Amadou & Mariam - Dimanche A Bamako - 2004, FLAC (tracks), lossless RelizMAN 389 MB
Западноевропейский фолк в lossless (Folk) [CD] Ambrogio Sparagna - Sparagna - 2004, FLAC (tracks+.cue), lossless Vi$itReal 312 MB
Восточноевропейский фолк в lossless (Folk) [CD] Anatol Stefanet - Moldavie: L\'art du bratsch (Alto) Vol. 1 - 1994, FLAC (tracks+.cue), lossless Vi$itReal 181 MB
Западноевропейский фолк в lossless (Folk) [CD] Ane Brun - Leave Me Breathless - 2017, FLAC (tracks+.cue), lossless Vi$itReal 253 MB
Country, Bluegrass lossless (Folk) [CD] Bob Dylan vs Pete Seeger - The Singer And The Song (2CD) - 2014, FLAC (tracks+.cue), lossless RelizMAN 541 MB
Display posts:    

Current time is: 30-Sep 18:38

All times are UTC + 3



You cannot post new topics in this forum
You cannot reply to topics in this forum
You cannot edit your posts in this forum
You cannot delete your posts in this forum
You cannot vote in polls in this forum
You cannot attach files in this forum
You can download files in this forum