Reply to topic
DL-List and Torrent activity [Update пиров]
Size:  712 MB   |    Registered:  4 years 10 months   |    Completed:  1 time
Seeders:  743  [  0 KB/s  ]   Leechers:  49  [  0 KB/s  ]  
 
     
 
 
Author Message

RelizMAN ®

11

Post 05-Nov-2015 00:20

[Quote]

Emmylou Harris - Wrecking Ball (2CD)

Жанр: Country | Носитель: CD | Год издания: 2014
Издатель (лейбл): Nonesuch Records/WEA | Номер по каталогу: 7559-79822-4
Аудиокодек: FLAC (*.flac) | Тип рипа: tracks+.cue | Битрейт аудио: lossless
Продолжительность: 01:39:56 | Источник (релизер): ruskaval
Наличие сканов в содержимом раздачи: да
 
 

Disc 1

Продолжительность: 53:05
Треклист:
01. Where Will I Be (4:16)
02. Goodbye (4:53)
03. All My Tears (3:42)
04. Wrecking Ball (4:49)
05. Goin' Back To Harlan (4:53)
06. Deeper Well (4:18)
07. Every Grain Of Sand (3:56)
08. Sweet Old World (5:06)
09. May This Be Love (4:45)
10. Orphan Girl (3:15)
11. Blackhawk (4:28)
12. Waltz Across Texas Tonight (4:45)
 

Лог создания рипа

Exact Audio Copy V1.1 from 23. June 2015
EAC extraction logfile from 1. November 2015, 11:18
Emmylou Harris / Wrecking Ball (Disc 1)
Used drive : Optiarc DVD RW AD-7280S Adapter: 1 ID: 0
Read mode : SecureUtilize accurate stream : YesDefeat audio cache : YesMake use of C2 pointers : No
Read offset correction : 48Overread into Lead-In and Lead-Out : NoFill up missing offset samples with silence : YesDelete leading and trailing silent blocks : NoNull samples used in CRC calculations : YesUsed interface : Native Win32 interface for Win NT & 2000Gap handling : Appended to previous track
Used output format : User Defined EncoderSelected bitrate : 1024 kBit/sQuality : HighAdd ID3 tag : NoCommand line compressor : C:\Program Files (x86)\Kodeki za Glasbo\flac v1.3.1\win64\flac.exeAdditional command line options : -8 -V -T "ARTIST=%artist%" -T "TITLE=%title%" -T "ALBUM=%albumtitle%" -T "DATE=%year%" -T "TRACKNUMBER=%tracknr%" -T "TOTALTRACKS=%numtracks%" -T "GENRE=%genre%" -T "ALBUMARTIST=%albumartist%" -T "ALBUM ARTIST=%albumartist%" -T "COMMENT=EAC Secure Mode, Test & Copy, AccurateRip, FLAC -8" %source%
TOC of the extracted CD
Track | Start | Length | Start sector | End sector --------------------------------------------------------- 1 | 0:00.00 | 4:15.73 | 0 | 19197 2 | 4:15.73 | 4:52.45 | 19198 | 41142 3 | 9:08.43 | 3:41.61 | 41143 | 57778 4 | 12:50.29 | 4:49.14 | 57779 | 79467 5 | 17:39.43 | 4:52.43 | 79468 | 101410 6 | 22:32.11 | 4:17.39 | 101411 | 120724 7 | 26:49.50 | 3:55.60 | 120725 | 138409 8 | 30:45.35 | 5:05.62 | 138410 | 161346 9 | 35:51.22 | 4:44.56 | 161347 | 182702 10 | 40:36.03 | 3:14.58 | 182703 | 197310 11 | 43:50.61 | 4:28.28 | 197311 | 217438 12 | 48:19.14 | 4:45.28 | 217439 | 238841
Track 1
Filename K:\4. my rip in preparation\3 - in treatment\Emmylou Harris - Wrecking Ball (2014) [FLAC] {2CD+DVD, Reissue, Deluxe Edition, Nonesuch 7559-79882-4}\CD1\01 - Where Will I Be.wav
Pre-gap length 0:00:02.00
Peak level 98.8 % Extraction speed 2.1 X Track quality 99.9 % Test CRC 46353CFD Copy CRC 46353CFD Accurately ripped (confidence 49) [55BC5C41] (AR v2) Copy OK
Track 2
Filename K:\4. my rip in preparation\3 - in treatment\Emmylou Harris - Wrecking Ball (2014) [FLAC] {2CD+DVD, Reissue, Deluxe Edition, Nonesuch 7559-79882-4}\CD1\02 - Goodbye.wav
Peak level 98.8 % Extraction speed 2.7 X Track quality 100.0 % Test CRC 258CEC9D Copy CRC 258CEC9D Accurately ripped (confidence 49) [02CB77FB] (AR v2) Copy OK
Track 3
Filename K:\4. my rip in preparation\3 - in treatment\Emmylou Harris - Wrecking Ball (2014) [FLAC] {2CD+DVD, Reissue, Deluxe Edition, Nonesuch 7559-79882-4}\CD1\03 - All my Tears.wav
Peak level 98.8 % Extraction speed 2.8 X Track quality 100.0 % Test CRC 01168A46 Copy CRC 01168A46 Accurately ripped (confidence 49) [230FF7ED] (AR v2) Copy OK
Track 4
Filename K:\4. my rip in preparation\3 - in treatment\Emmylou Harris - Wrecking Ball (2014) [FLAC] {2CD+DVD, Reissue, Deluxe Edition, Nonesuch 7559-79882-4}\CD1\04 - Wrecking Ball.wav
Peak level 98.8 % Extraction speed 2.8 X Track quality 99.9 % Test CRC F0838697 Copy CRC F0838697 Accurately ripped (confidence 48) [C0D40C98] (AR v2) Copy OK
Track 5
Filename K:\4. my rip in preparation\3 - in treatment\Emmylou Harris - Wrecking Ball (2014) [FLAC] {2CD+DVD, Reissue, Deluxe Edition, Nonesuch 7559-79882-4}\CD1\05 - Goin' Back to Harlan.wav
Peak level 98.8 % Extraction speed 3.4 X Track quality 100.0 % Test CRC 45A600EC Copy CRC 45A600EC Accurately ripped (confidence 49) [65023DAE] (AR v2) Copy OK
Track 6
Filename K:\4. my rip in preparation\3 - in treatment\Emmylou Harris - Wrecking Ball (2014) [FLAC] {2CD+DVD, Reissue, Deluxe Edition, Nonesuch 7559-79882-4}\CD1\06 - Deeper Well.wav
Peak level 98.8 % Extraction speed 3.5 X Track quality 100.0 % Test CRC C76A84A9 Copy CRC C76A84A9 Accurately ripped (confidence 49) [19A16425] (AR v2) Copy OK
Track 7
Filename K:\4. my rip in preparation\3 - in treatment\Emmylou Harris - Wrecking Ball (2014) [FLAC] {2CD+DVD, Reissue, Deluxe Edition, Nonesuch 7559-79882-4}\CD1\07 - Every Grain of Sand.wav
Peak level 98.8 % Extraction speed 3.7 X Track quality 100.0 % Test CRC 88C75BCB Copy CRC 88C75BCB Accurately ripped (confidence 50) [3B9F5025] (AR v2) Copy OK
Track 8
Filename K:\4. my rip in preparation\3 - in treatment\Emmylou Harris - Wrecking Ball (2014) [FLAC] {2CD+DVD, Reissue, Deluxe Edition, Nonesuch 7559-79882-4}\CD1\08 - Sweet Old World.wav
Peak level 98.8 % Extraction speed 4.0 X Track quality 100.0 % Test CRC 6E220B4C Copy CRC 6E220B4C Accurately ripped (confidence 49) [CFDF5D49] (AR v2) Copy OK
Track 9
Filename K:\4. my rip in preparation\3 - in treatment\Emmylou Harris - Wrecking Ball (2014) [FLAC] {2CD+DVD, Reissue, Deluxe Edition, Nonesuch 7559-79882-4}\CD1\09 - May This be Love.wav
Peak level 98.8 % Extraction speed 4.2 X Track quality 100.0 % Test CRC 8523BD6E Copy CRC 8523BD6E Accurately ripped (confidence 50) [3F9757D4] (AR v2) Copy OK
Track 10
Filename K:\4. my rip in preparation\3 - in treatment\Emmylou Harris - Wrecking Ball (2014) [FLAC] {2CD+DVD, Reissue, Deluxe Edition, Nonesuch 7559-79882-4}\CD1\10 - Orphan Girl.wav
Peak level 98.8 % Extraction speed 4.1 X Track quality 100.0 % Test CRC 1251D6A9 Copy CRC 1251D6A9 Accurately ripped (confidence 50) [8119C5F2] (AR v2) Copy OK
Track 11
Filename K:\4. my rip in preparation\3 - in treatment\Emmylou Harris - Wrecking Ball (2014) [FLAC] {2CD+DVD, Reissue, Deluxe Edition, Nonesuch 7559-79882-4}\CD1\11 - Blackhawk.wav
Peak level 98.8 % Extraction speed 4.4 X Track quality 100.0 % Test CRC E85DBFB5 Copy CRC E85DBFB5 Accurately ripped (confidence 49) [C1936C9C] (AR v2) Copy OK
Track 12
Filename K:\4. my rip in preparation\3 - in treatment\Emmylou Harris - Wrecking Ball (2014) [FLAC] {2CD+DVD, Reissue, Deluxe Edition, Nonesuch 7559-79882-4}\CD1\12 - Waltz Across Texas Tonight.wav
Peak level 98.8 % Extraction speed 4.6 X Track quality 100.0 % Test CRC 5855C830 Copy CRC 5855C830 Accurately ripped (confidence 49) [585060FF] (AR v2) Copy OK
All tracks accurately ripped
No errors occurred
End of status report
---- CUETools DB Plugin V2.1.6
[CTDB TOCID: 1EDBw6aGrKC.rjpkQel2NJnizAQ-] foundSubmit result: 1EDBw6aGrKC.rjpkQel2NJnizAQ- has been confirmedTrack | CTDB Status 1 | (45/45) Accurately ripped 2 | (45/45) Accurately ripped 3 | (45/45) Accurately ripped 4 | (45/45) Accurately ripped 5 | (45/45) Accurately ripped 6 | (45/45) Accurately ripped 7 | (45/45) Accurately ripped 8 | (45/45) Accurately ripped 9 | (45/45) Accurately ripped 10 | (45/45) Accurately ripped 11 | (45/45) Accurately ripped 12 | (44/45) Accurately ripped
==== Log checksum 6E1CC3E802638321FE3B866D5B46FE9D930378E74CF2926AFF486EE4F48A629E ====

Содержание индексной карты (.CUE)

REM GENRE "Folk Rock"REM DATE 2014REM DISCID 910C700CREM COMMENT "ExactAudioCopy v1.1"CATALOG 0075597982244PERFORMER "Emmylou Harris"TITLE "Wrecking Ball (Disc 1)"FILE "01 - Where Will I Be.wav" WAVE TRACK 01 AUDIO TITLE "Where Will I Be" PERFORMER "Emmylou Harris" ISRC USNO11400004 INDEX 01 00:00:00FILE "02 - Goodbye.wav" WAVE TRACK 02 AUDIO TITLE "Goodbye" PERFORMER "Emmylou Harris" ISRC USNO11400005 INDEX 01 00:00:00FILE "03 - All My Tears.wav" WAVE TRACK 03 AUDIO TITLE "All My Tears" PERFORMER "Emmylou Harris" ISRC USNO11400006 INDEX 01 00:00:00FILE "04 - Wrecking Ball.wav" WAVE TRACK 04 AUDIO TITLE "Wrecking Ball" PERFORMER "Emmylou Harris" ISRC USNO11400007 INDEX 01 00:00:00FILE "05 - Goin' Back To Harlan.wav" WAVE TRACK 05 AUDIO TITLE "Goin' Back To Harlan" PERFORMER "Emmylou Harris" ISRC USNO11400008 INDEX 01 00:00:00FILE "06 - Deeper Well.wav" WAVE TRACK 06 AUDIO TITLE "Deeper Well" PERFORMER "Emmylou Harris" ISRC USNO11400009 INDEX 01 00:00:00FILE "07 - Every Grain Of Sand.wav" WAVE TRACK 07 AUDIO TITLE "Every Grain Of Sand" PERFORMER "Emmylou Harris" ISRC USNO11400010 INDEX 01 00:00:00FILE "08 - Sweet Old World.wav" WAVE TRACK 08 AUDIO TITLE "Sweet Old World" PERFORMER "Emmylou Harris" ISRC USNO11400011 INDEX 01 00:00:00FILE "09 - May This Be Love.wav" WAVE TRACK 09 AUDIO TITLE "May This Be Love" PERFORMER "Emmylou Harris" ISRC USNO11400012 INDEX 01 00:00:00FILE "10 - Orphan Girl.wav" WAVE TRACK 10 AUDIO TITLE "Orphan Girl" PERFORMER "Emmylou Harris" ISRC USNO11400013 INDEX 01 00:00:00FILE "11 - Blackhawk.wav" WAVE TRACK 11 AUDIO TITLE "Blackhawk" PERFORMER "Emmylou Harris" ISRC USNO11400014 INDEX 01 00:00:00FILE "12 - Waltz Across Texas Tonight.wav" WAVE TRACK 12 AUDIO TITLE "Waltz Across Texas Tonight" PERFORMER "Emmylou Harris" ISRC USNO11400015 INDEX 01 00:00:00

Disc 2

Продолжительность: 46:51
Треклист:
01. Still Water (3:57)
02. Where Will I Be (4:17)
03. All My Tears (3:23)
04. How Will I Ever Be Simple Again (3:39)
05. Deeper Well (2:21)
06. The Stranger Song (5:24)
07. Sweet Old World (5:30)
08. Gold (3:19)
09. Blackhawk (4:44)
10. May This Be Love (2:18)
11. Goin' Back To Harlan (2:39)
12. Where Will I Be (2:16)
13. Deeper Well (3:06)
 

Лог создания рипа

Exact Audio Copy V1.1 from 23. June 2015
EAC extraction logfile from 1. November 2015, 11:54
Emmylou Harris / Wrecking Ball (Disc 2)
Used drive : Optiarc DVD RW AD-7280S Adapter: 1 ID: 0
Read mode : SecureUtilize accurate stream : YesDefeat audio cache : YesMake use of C2 pointers : No
Read offset correction : 48Overread into Lead-In and Lead-Out : NoFill up missing offset samples with silence : YesDelete leading and trailing silent blocks : NoNull samples used in CRC calculations : YesUsed interface : Native Win32 interface for Win NT & 2000Gap handling : Appended to previous track
Used output format : User Defined EncoderSelected bitrate : 1024 kBit/sQuality : HighAdd ID3 tag : NoCommand line compressor : C:\Program Files (x86)\Kodeki za Glasbo\flac v1.3.1\win64\flac.exeAdditional command line options : -8 -V -T "ARTIST=%artist%" -T "TITLE=%title%" -T "ALBUM=%albumtitle%" -T "DATE=%year%" -T "TRACKNUMBER=%tracknr%" -T "TOTALTRACKS=%numtracks%" -T "GENRE=%genre%" -T "ALBUMARTIST=%albumartist%" -T "ALBUM ARTIST=%albumartist%" -T "COMMENT=EAC Secure Mode, Test & Copy, AccurateRip, FLAC -8" %source%
TOC of the extracted CD
Track | Start | Length | Start sector | End sector --------------------------------------------------------- 1 | 0:00.00 | 3:56.69 | 0 | 17768 2 | 3:56.69 | 4:16.55 | 17769 | 37023 3 | 8:13.49 | 3:23.06 | 37024 | 52254 4 | 11:36.55 | 3:38.39 | 52255 | 68643 5 | 15:15.19 | 2:20.73 | 68644 | 79216 6 | 17:36.17 | 5:23.52 | 79217 | 103493 7 | 22:59.69 | 5:29.46 | 103494 | 128214 8 | 28:29.40 | 3:18.38 | 128215 | 143102 9 | 31:48.03 | 4:43.58 | 143103 | 164385 10 | 36:31.61 | 2:18.11 | 164386 | 174746 11 | 38:49.72 | 2:39.12 | 174747 | 186683 12 | 41:29.09 | 2:16.04 | 186684 | 196887 13 | 43:45.13 | 3:06.05 | 196888 | 210842
Track 1
Filename K:\4. my rip in preparation\3 - in treatment\Emmylou Harris - Wrecking Ball (2014) [FLAC] {2CD+DVD, Reissue, Deluxe Edition, Nonesuch 7559-79882-4}\CD2\01 - Still Water.wav
Pre-gap length 0:00:02.00
Peak level 98.8 % Extraction speed 2.3 X Track quality 100.0 % Test CRC DF7DFE1D Copy CRC DF7DFE1D Accurately ripped (confidence 47) [8ECCFD03] (AR v2) Copy OK
Track 2
Filename K:\4. my rip in preparation\3 - in treatment\Emmylou Harris - Wrecking Ball (2014) [FLAC] {2CD+DVD, Reissue, Deluxe Edition, Nonesuch 7559-79882-4}\CD2\02 - Where Will I Be.wav
Pre-gap length 0:00:01.69
Peak level 98.8 % Extraction speed 2.6 X Track quality 100.0 % Test CRC 1B8D4EEC Copy CRC 1B8D4EEC Accurately ripped (confidence 47) [CA6E6698] (AR v2) Copy OK
Track 3
Filename K:\4. my rip in preparation\3 - in treatment\Emmylou Harris - Wrecking Ball (2014) [FLAC] {2CD+DVD, Reissue, Deluxe Edition, Nonesuch 7559-79882-4}\CD2\03 - All my Tears.wav
Pre-gap length 0:00:02.61
Peak level 98.8 % Extraction speed 2.7 X Track quality 100.0 % Test CRC D83C09E6 Copy CRC D83C09E6 Accurately ripped (confidence 46) [2F694C86] (AR v2) Copy OK
Track 4
Filename K:\4. my rip in preparation\3 - in treatment\Emmylou Harris - Wrecking Ball (2014) [FLAC] {2CD+DVD, Reissue, Deluxe Edition, Nonesuch 7559-79882-4}\CD2\04 - How Will I Ever be Simple Again.wav
Pre-gap length 0:00:01.70
Peak level 98.8 % Extraction speed 3.0 X Track quality 100.0 % Test CRC AD6ACEA0 Copy CRC AD6ACEA0 Accurately ripped (confidence 47) [854CBE56] (AR v2) Copy OK
Track 5
Filename K:\4. my rip in preparation\3 - in treatment\Emmylou Harris - Wrecking Ball (2014) [FLAC] {2CD+DVD, Reissue, Deluxe Edition, Nonesuch 7559-79882-4}\CD2\05 - Deeper Well.wav
Pre-gap length 0:00:02.00
Peak level 98.8 % Extraction speed 2.8 X Track quality 100.0 % Test CRC 3FB83E10 Copy CRC 3FB83E10 Accurately ripped (confidence 47) [E5E76986] (AR v2) Copy OK
Track 6
Filename K:\4. my rip in preparation\3 - in treatment\Emmylou Harris - Wrecking Ball (2014) [FLAC] {2CD+DVD, Reissue, Deluxe Edition, Nonesuch 7559-79882-4}\CD2\06 - The Stranger Song.wav
Pre-gap length 0:00:02.88
Peak level 98.8 % Extraction speed 3.1 X Track quality 99.9 % Test CRC 28A67818 Copy CRC 28A67818 Accurately ripped (confidence 47) [39D10D73] (AR v2) Copy OK
Track 7
Filename K:\4. my rip in preparation\3 - in treatment\Emmylou Harris - Wrecking Ball (2014) [FLAC] {2CD+DVD, Reissue, Deluxe Edition, Nonesuch 7559-79882-4}\CD2\07 - Sweet Old World.wav
Pre-gap length 0:00:01.84
Peak level 98.8 % Extraction speed 3.7 X Track quality 100.0 % Test CRC 4182442C Copy CRC 4182442C Accurately ripped (confidence 47) [852C4D7E] (AR v2) Copy OK
Track 8
Filename K:\4. my rip in preparation\3 - in treatment\Emmylou Harris - Wrecking Ball (2014) [FLAC] {2CD+DVD, Reissue, Deluxe Edition, Nonesuch 7559-79882-4}\CD2\08 - Gold.wav
Pre-gap length 0:00:03.21
Peak level 98.8 % Extraction speed 3.2 X Track quality 99.9 % Test CRC 62C17CE4 Copy CRC 62C17CE4 Accurately ripped (confidence 47) [380DAA26] (AR v2) Copy OK
Track 9
Filename K:\4. my rip in preparation\3 - in treatment\Emmylou Harris - Wrecking Ball (2014) [FLAC] {2CD+DVD, Reissue, Deluxe Edition, Nonesuch 7559-79882-4}\CD2\09 - Blackhawk.wav
Pre-gap length 0:00:02.28
Peak level 88.5 % Extraction speed 4.0 X Track quality 100.0 % Test CRC 1E47EB90 Copy CRC 1E47EB90 Accurately ripped (confidence 48) [5DF08B92] (AR v2) Copy OK
Track 10
Filename K:\4. my rip in preparation\3 - in treatment\Emmylou Harris - Wrecking Ball (2014) [FLAC] {2CD+DVD, Reissue, Deluxe Edition, Nonesuch 7559-79882-4}\CD2\10 - May This be Love.wav
Pre-gap length 0:00:03.02
Peak level 95.6 % Extraction speed 3.6 X Track quality 100.0 % Test CRC 301D7F7D Copy CRC 301D7F7D Accurately ripped (confidence 48) [65F3B0C9] (AR v2) Copy OK
Track 11
Filename K:\4. my rip in preparation\3 - in treatment\Emmylou Harris - Wrecking Ball (2014) [FLAC] {2CD+DVD, Reissue, Deluxe Edition, Nonesuch 7559-79882-4}\CD2\11 - Goin' Back to Harlan.wav
Pre-gap length 0:00:03.20
Peak level 88.0 % Extraction speed 3.9 X Track quality 100.0 % Test CRC 9AC2E7D8 Copy CRC 9AC2E7D8 Accurately ripped (confidence 47) [5EDA042C] (AR v2) Copy OK
Track 12
Filename K:\4. my rip in preparation\3 - in treatment\Emmylou Harris - Wrecking Ball (2014) [FLAC] {2CD+DVD, Reissue, Deluxe Edition, Nonesuch 7559-79882-4}\CD2\12 - Where Will I Be.wav
Pre-gap length 0:00:03.36
Peak level 98.8 % Extraction speed 3.8 X Track quality 100.0 % Test CRC B61DAA1C Copy CRC B61DAA1C Accurately ripped (confidence 48) [69B1DB4A] (AR v2) Copy OK
Track 13
Filename K:\4. my rip in preparation\3 - in treatment\Emmylou Harris - Wrecking Ball (2014) [FLAC] {2CD+DVD, Reissue, Deluxe Edition, Nonesuch 7559-79882-4}\CD2\13 - Deeper Well.wav
Pre-gap length 0:00:02.82
Peak level 98.8 % Extraction speed 4.2 X Track quality 100.0 % Test CRC 88641224 Copy CRC 88641224 Accurately ripped (confidence 47) [C3EA3E62] (AR v2) Copy OK
All tracks accurately ripped
No errors occurred
End of status report
---- CUETools DB Plugin V2.1.6
[CTDB TOCID: MuUAt_ezwAZVl7zHdZIRcGlTToA-] foundSubmit result: MuUAt_ezwAZVl7zHdZIRcGlTToA- has been confirmedTrack | CTDB Status 1 | (42/42) Accurately ripped 2 | (42/42) Accurately ripped 3 | (42/42) Accurately ripped 4 | (42/42) Accurately ripped 5 | (42/42) Accurately ripped 6 | (41/42) Accurately ripped 7 | (42/42) Accurately ripped 8 | (42/42) Accurately ripped 9 | (42/42) Accurately ripped 10 | (42/42) Accurately ripped 11 | (42/42) Accurately ripped 12 | (42/42) Accurately ripped 13 | (42/42) Accurately ripped
==== Log checksum E0F74AC9E1A69DED949AD4949FFE8F68805ADBE55EAB2D04AF62AEED74187D2E ====

Содержание индексной карты (.CUE)

REM GENRE "Folk Rock"REM DATE 2014REM DISCID B20AFB0DREM COMMENT "ExactAudioCopy v1.1"CATALOG 0075597982244PERFORMER "Emmylou Harris"TITLE "Wrecking Ball (Disc 2)"FILE "01 - Still Water.wav" WAVE TRACK 01 AUDIO TITLE "Still Water" PERFORMER "Emmylou Harris" ISRC USNO11200334 INDEX 01 00:00:00 TRACK 02 AUDIO TITLE "Where Will I Be" PERFORMER "Emmylou Harris" ISRC USNO11200335 INDEX 00 03:55:17FILE "02 - Where Will I Be.wav" WAVE INDEX 01 00:00:00 TRACK 03 AUDIO TITLE "All My Tears" PERFORMER "Emmylou Harris" ISRC USNO11200336 INDEX 00 04:14:09FILE "03 - All My Tears.wav" WAVE INDEX 01 00:00:00 TRACK 04 AUDIO TITLE "How Will I Ever Be Simple Again" PERFORMER "Emmylou Harris" ISRC USNO11200337 INDEX 00 03:21:28FILE "04 - How Will I Ever Be Simple Again.wav" WAVE INDEX 01 00:00:00 TRACK 05 AUDIO TITLE "Deeper Well" PERFORMER "Emmylou Harris" ISRC USNO11200338 INDEX 00 03:36:39FILE "05 - Deeper Well.wav" WAVE INDEX 01 00:00:00 TRACK 06 AUDIO TITLE "The Stranger Song" PERFORMER "Emmylou Harris" ISRC USNO11200339 INDEX 00 02:18:07FILE "06 - The Stranger Song.wav" WAVE INDEX 01 00:00:00 TRACK 07 AUDIO TITLE "Sweet Old World" PERFORMER "Emmylou Harris" ISRC USNO11200340 INDEX 00 05:21:64FILE "07 - Sweet Old World.wav" WAVE INDEX 01 00:00:00 TRACK 08 AUDIO TITLE "Gold" PERFORMER "Emmylou Harris" ISRC USNO11200341 INDEX 00 05:26:30FILE "08 - Gold.wav" WAVE INDEX 01 00:00:00 TRACK 09 AUDIO TITLE "Blackhawk" PERFORMER "Emmylou Harris" ISRC USNO11200342 INDEX 00 03:16:17FILE "09 - Blackhawk.wav" WAVE INDEX 01 00:00:00 TRACK 10 AUDIO TITLE "May This Be Love" PERFORMER "Emmylou Harris" ISRC USNO11200343 INDEX 00 04:40:56FILE "10 - May This Be Love.wav" WAVE INDEX 01 00:00:00 TRACK 11 AUDIO TITLE "Goin' Back To Harlan" PERFORMER "Emmylou Harris" ISRC USNO11200344 INDEX 00 02:14:71FILE "11 - Goin' Back To Harlan.wav" WAVE INDEX 01 00:00:00 TRACK 12 AUDIO TITLE "Where Will I Be" PERFORMER "Emmylou Harris" ISRC USNO11200345 INDEX 00 02:35:60FILE "12 - Where Will I Be.wav" WAVE INDEX 01 00:00:00 TRACK 13 AUDIO TITLE "Deeper Well" PERFORMER "Emmylou Harris" ISRC USNO11200346 INDEX 00 02:13:17FILE "13 - Deeper Well.wav" WAVE INDEX 01 00:00:00
[doutdess.site].t87793.torrent
Torrent: Registered [ 2015-11-05 00:20 ] · D4E5773AA34AD69DAB3B5015F134A639533327FF

18 KB

Status: checked
Completed: 1 times
Size: 712 MB
(Country) [CD] Emmylou Harris - Wrecking Ball (2CD) - 2014 {Nonesuch Remastered Deluxe Edition}, FLAC (tracks+.cue), lossless скачать торрент бесплатно и без регистрации

[Profile] [PM]
Forum Topic Author Size
Country, Bluegrass lossy (Country) 1 Uppers - Get Back Rollin\' - 2019, MP3, 320 kbps Vi$itReal 94 MB
Country, Bluegrass lossy (Country) Aaron Goodvin - Aaron Goodvin - 2016, MP3, 320 kbps Vi$itReal 96 MB
Country, Bluegrass lossy (Country) Aaron Watson - Live At The World\'s Biggest Rodeo Show - 2018, MP3, 320 kbps Vi$itReal 127 MB
Country, Bluegrass lossy (Country) Abe Mac Band - A Thousand Pieces - 2017, MP3, 320 kbps Vi$itReal 103 MB
Country, Bluegrass lossy (Country) Adam Brand - Дискография 1999-2016 (14 релизов), MP3, 192-320 kbps Vi$itReal 1.58 GB
Country, Bluegrass lossy (Country) Adam Eckersley, Brooke McClymont - Adam & Brooke - 2018, MP3, 320 kbps Vi$itReal 92 MB
Country, Bluegrass lossy (Country) Adam Hood - Somewhere in Between - 2018, MP3, 320 kbps Vi$itReal 94 MB
Country, Bluegrass lossy (Country) Adam Palm - Morning - 2019, MP3, 320 kbps Vi$itReal 101 MB
Display posts:    

Current time is: 20-Sep 14:24

All times are UTC + 3



You cannot post new topics in this forum
You cannot reply to topics in this forum
You cannot edit your posts in this forum
You cannot delete your posts in this forum
You cannot vote in polls in this forum
You cannot attach files in this forum
You can download files in this forum