Reply to topic
DL-List and Torrent activity [Update пиров]
Size:  382 MB   |    Registered:  4 years 10 months   |    Completed:  1 time
Seeders:  101  [  0 KB/s  ]   Leechers:  43  [  0 KB/s  ]  
 
     
 
 
Author Message

RelizMAN ®

11

Post 06-Nov-2015 21:45

[Quote]

Sudha Raghunathan - Sri Garbarakshambigai
Жанр: Devotional Tamil
Носитель: CD
Страна-производитель диска (релиза): India
Год издания: 2005
Издатель (лейбл): Amutham Music
Аудиокодек: FLAC (*.flac)
Тип рипа: image+.cue
Битрейт аудио: lossless
Продолжительность: 01:00:59
Источник (релизер): собственный рип
Наличие сканов в содержимом раздачи: да
Треклист:
1. Mullaivanam
2. Gayathri
3. Garbhagraha
4. Garbharakshambikai Kavacham
5. 108 Potri
6. Mullai Vanathil
7. Karukakkum
8. Panikkudam

Лог создания рипа

Exact Audio Copy V1.1 from 23. June 2015
Отчёт EAC об извлечении, выполненном 6. ноября 2015, 20:33
Sudha Raghunathan / Sri Garbarakshambigai
Дисковод: MATSHITADVD-RAM UJ8B0 Adapter: 1 ID: 0
Режим чтения : ДостоверностьИспользование точного потока : ДаОтключение кэша аудио : ДаИспользование указателей C2 : Нет
Коррекция смещения при чтении : 0Способность читать области Lead-in и Lead-out : НетЗаполнение пропущенных сэмплов тишиной : ДаУдаление блоков с тишиной в начале и конце : НетПри вычислениях CRC использовались нулевые сэмплы : ДаИнтерфейс : Встроенный Win32-интерфейс для Win NT/2000
Выходной формат : Пользовательский кодировщикВыбранный битрейт : 896 kBit/sКачество : ВысокийДобавление ID3-тега : НетУтилита сжатия : C:\flac.exeДополнительные параметры : -V -8 -T "Date=%year%" -T "Genre=%genre%" %source%
TOC извлечённого CD
Трек | Старт | Длительность | Начальный сектор | Конечный сектор --------------------------------------------------------------------- 1 | 0:00.00 | 9:15.12 | 0 | 41636 2 | 9:15.12 | 5:33.01 | 41637 | 66612 3 | 14:48.13 | 12:52.39 | 66613 | 124551 4 | 27:40.52 | 9:49.27 | 124552 | 168753 5 | 37:30.04 | 6:44.11 | 168754 | 199064 6 | 44:14.15 | 6:08.06 | 199065 | 226670 7 | 50:22.21 | 5:55.59 | 226671 | 253354 8 | 56:18.05 | 4:41.31 | 253355 | 274460
Характеристики диапазона извлечения и сообщения об ошибках
Выбранный диапазон
Имя файла C:\Sudha Raghunathan - Sri Garbarakshambigai.wav
Пиковый уровень 98.8 % Скорость извлечения 2.0 X Качество диапазона 100.0 % CRC теста 25FB78D5 CRC копии 25FB78D5 Копирование... OK
Ошибок не произошло
Конец отчёта
==== Контрольная сумма отчёта 82241B31DFE974010705B5AB928ED893DBFBF1E7DC05189AA3059F899EFB09BA ====

Содержание индексной карты (.CUE)

REM DISCID 680E4B08REM COMMENT "ExactAudioCopy v1.1"PERFORMER "Sudha Raghunathan"TITLE "Sri Garbarakshambigai"FILE "Sudha Raghunathan - Sri Garbarakshambigai.flac" WAVE TRACK 01 AUDIO TITLE "Track01" PERFORMER "Sudha Raghunathan" INDEX 01 00:00:00 TRACK 02 AUDIO TITLE "Track02" PERFORMER "Sudha Raghunathan" INDEX 01 09:15:12 TRACK 03 AUDIO TITLE "Track03" PERFORMER "Sudha Raghunathan" INDEX 00 14:48:06 INDEX 01 14:48:13 TRACK 04 AUDIO TITLE "Track04" PERFORMER "Sudha Raghunathan" INDEX 00 27:40:45 INDEX 01 27:40:52 TRACK 05 AUDIO TITLE "Track05" PERFORMER "Sudha Raghunathan" INDEX 00 37:29:72 INDEX 01 37:30:04 TRACK 06 AUDIO TITLE "Track06" PERFORMER "Sudha Raghunathan" INDEX 00 44:14:09 INDEX 01 44:14:15 TRACK 07 AUDIO TITLE "Track07" PERFORMER "Sudha Raghunathan" INDEX 00 50:22:14 INDEX 01 50:22:21 TRACK 08 AUDIO TITLE "Track08" PERFORMER "Sudha Raghunathan" INDEX 00 56:17:73 INDEX 01 56:18:05
[doutdess.site].t88121.torrent
Torrent: Registered [ 2015-11-06 21:45 ] · C25092CFA1A8F3F9C9BFC35E2C68F0139547C32E

16 KB

Status: checked
Completed: 1 times
Size: 382 MB
(Devotional Tamil) [CD] Sudha Raghunathan - Sri Garbarakshambigai - 2005, FLAC (image+.cue), lossless скачать торрент бесплатно и без регистрации

[Profile] [PM]
Forum Topic Author Size
Этническая музыка Индии lossless (Devotional & Spiritual) [CD] L. Subramaniam & Sri Ganapathy Sachchidananda Swamiji - Inner Healing I - 2004, WavPack (tracks), lossless RelizMAN 263 MB
Этническая музыка Индии lossless (Devotional Sanskrit) Bombay Sisters - Sri Hanuman Chalisa & Other Hanumath Stothras - 2009, FLAC (image+.cue), lossless RelizMAN 326 MB
Этническая музыка Индии lossy (Devotional Sanskrit) Vani Jayaram - Adi Shankaracharya\'s Ananda Lahari - 2009, MP3, 320 kbps Vi$itReal 109 MB
Этническая музыка Индии lossy (Devotional Sanskrit, Telugu Kannada) VA - Namo Srinivasa - 2004, MP3, 128 kbps Vi$itReal 397 MB
Этническая музыка Индии lossy (Devotional Sanskrit, Telugu) SP Balasubrahmanyam - Shrimad Bhagavad-Gita - 2000, MP3, 128 kbps Vi$itReal 85 MB
Этническая музыка Индии lossless (Devotional) [CD] VA - Essential - Hare Krishna (5 CD) - 2012, FLAC (image+.cue), lossless RelizMAN 2.22 GB
Display posts:    

Current time is: 23-Sep 02:24

All times are UTC + 3



You cannot post new topics in this forum
You cannot reply to topics in this forum
You cannot edit your posts in this forum
You cannot delete your posts in this forum
You cannot vote in polls in this forum
You cannot attach files in this forum
You can download files in this forum