Reply to topic
DL-List and Torrent activity [Update пиров]
Size:  230 MB   |    Registered:  4 years 10 months   |    Completed:  1 time
Seeders:  399  [  0 KB/s  ]   Leechers:  54  [  0 KB/s  ]  
 
     
 
 
Author Message

RelizMAN ®

11

Post 05-Nov-2015 22:00

[Quote]

Paco de Lucia, Ricardo Modrego / 12 canciones de Garcia Lorca
Жанр: Acoustic Guitar, Flamenco, Folk
Носитель: CD
Страна-производитель диска (релиза): España
Год издания: 2002
Издатель (лейбл): Universal Music Spain, S.L.
Номер по каталогу: 0042284854221
Страна исполнителя (группы): España
Аудиокодек: FLAC (*.flac)
Тип рипа: image+.cue
Битрейт аудио: lossless
Продолжительность: 37:17
Источник (релизер): собственный рип
Наличие сканов в содержимом раздачи: да
Треклист:
1. "Zorongo Gitano" 2:56
2. "Sevillanas del Siglo XVIII" 3:09
3. "Las Morillas de Jaen" 2:53
4. "Anda Jaleo" 4:00
5. "Los Mozos de Monleon" 3:00
6. "Los Reyes de la Baraja" 2:50
7. "Los Cuatro Muleros" 2:48
8. "Nana de Sevilla" 3:08
9. "Cafe de Chinitas" 3:46
10. "El Vito" 2:51
11. "Los Peregrinitos" 3:30
12. "Las Tres Hojas" 2:26

Лог создания рипа

Exact Audio Copy V1.0 beta 3 from 29. August 2011
Отчёт EAC об извлечении, выполненном 2. ноября 2015, 20:27
12 canciones de Garcia Lorca
Дисковод: HL-DT-STDVDRAM GH60N Adapter: 2 ID: 1
Режим чтения : ДостоверностьИспользование точного потока : ДаОтключение кэша аудио : ДаИспользование указателей C2 : Нет
Коррекция смещения при чтении : 667Способность читать области Lead-in и Lead-out : НетЗаполнение пропущенных сэмплов тишиной : ДаУдаление блоков с тишиной в начале и конце : НетПри вычислениях CRC использовались нулевые сэмплы : ДаИнтерфейс : Встроенный Win32-интерфейс для Win NT/2000
Выходной формат : Пользовательский кодировщикВыбранный битрейт : 768 kBit/sКачество : ВысокийДобавление ID3-тега : НетУтилита сжатия : C:\Program Files\Exact Audio Copy\FLAC\FLAC.EXEДополнительные параметры : -6 -V -T "ARTIST=%artist%" -T "TITLE=%title%" -T "ALBUM=%albumtitle%" -T "DATE=%year%" -T "TRACKNUMBER=%tracknr%" -T "GENRE=%genre%" -T "COMMENT=%comment%" -T "BAND=%albuminterpret%" -T "ALBUMARTIST=%albuminterpret%" -T "COMPOSER=%composer%" %haslyrics%--tag-from-file=LYRICS="%lyricsfile%"%haslyrics% -T "DISCNUMBER=%cdnumber%" -T "TOTALDISCS=%totalcds%" -T "TOTALTRACKS=%numtracks%" %hascover%--picture="%coverfile%"%hascover% %source% -o %dest%
TOC извлечённого CD
Трек | Старт | Длительность | Начальный сектор | Конечный сектор --------------------------------------------------------------------- 1 | 0:00.32 | 2:58.70 | 32 | 13451 2 | 2:59.27 | 3:12.25 | 13452 | 27876 3 | 6:11.52 | 2:56.50 | 27877 | 41126 4 | 9:08.27 | 4:02.35 | 41127 | 59311 5 | 13:10.62 | 3:02.35 | 59312 | 72996 6 | 16:13.22 | 2:52.28 | 72997 | 85924 7 | 19:05.50 | 2:51.00 | 85925 | 98749 8 | 21:56.50 | 3:11.40 | 98750 | 113114 9 | 25:08.15 | 3:48.30 | 113115 | 130244 10 | 28:56.45 | 2:54.07 | 130245 | 143301 11 | 31:50.52 | 3:32.03 | 143302 | 159204 12 | 35:22.55 | 2:25.52 | 159205 | 170131
Характеристики диапазона извлечения и сообщения об ошибках
Выбранный диапазон
Имя файла C:\Documents and Settings\Алексей\Рабочий стол\12 canciones de Garcia Lorca\Unknown Artist - Unknown Title.wav
Пиковый уровень 98.8 % Скорость извлечения 17.0 X Качество диапазона 99.8 % CRC теста 4790ECDF CRC копии 4790ECDF Копирование... OK
Ошибок не произошло
AccurateRip: сводка
Трек 1 : извлечено точно (доверие 7) [9BA4BFB2] (AR v2)Трек 2 : извлечено точно (доверие 8) [7578FD92] (AR v2)Трек 3 : извлечено точно (доверие 8) [B594BB48] (AR v2)Трек 4 : извлечено точно (доверие 8) [4C12A09E] (AR v2)Трек 5 : извлечено точно (доверие 8) [12729813] (AR v2)Трек 6 : извлечено точно (доверие 8) [E7E01F4F] (AR v2)Трек 7 : извлечено точно (доверие 8) [14ADCF02] (AR v2)Трек 8 : извлечено точно (доверие 8) [45AC25BB] (AR v2)Трек 9 : извлечено точно (доверие 8) [B5EA5902] (AR v2)Трек 10 : извлечено точно (доверие 8) [08C5D15F] (AR v2)Трек 11 : извлечено точно (доверие 8) [90FC6FB7] (AR v2)Трек 12 : извлечено точно (доверие 8) [780DC73A] (AR v2)
Все треки извлечены точно
Конец отчёта

Содержание индексной карты (.CUE)

REM DISCID 9408DC0CREM COMMENT "ExactAudioCopy v1.0b3"PERFORMER "12 canciones de Garcia Lorca"TITLE "12 canciones de Garcia Lorca"FILE "12 canciones de Garcia Lorca.flac" WAVE TRACK 01 AUDIO TITLE "Zorongo Gitano" PERFORMER "12 canciones de Garcia Lorca" INDEX 00 00:00:00 INDEX 01 00:00:32 TRACK 02 AUDIO TITLE "Sevillanas del Siglo XVIII" PERFORMER "12 canciones de Garcia Lorca" INDEX 00 02:56:66 INDEX 01 02:59:27 TRACK 03 AUDIO TITLE "Las Morillas de Jaen" PERFORMER "12 canciones de Garcia Lorca" INDEX 00 06:08:40 INDEX 01 06:11:52 TRACK 04 AUDIO TITLE "Anda Jaleo" PERFORMER "12 canciones de Garcia Lorca" INDEX 00 09:05:60 INDEX 01 09:08:27 TRACK 05 AUDIO TITLE "Los Mozos de Monleon" PERFORMER "12 canciones de Garcia Lorca" INDEX 00 13:08:35 INDEX 01 13:10:62 TRACK 06 AUDIO TITLE "Los Reyes de la Baraja" PERFORMER "12 canciones de Garcia Lorca" INDEX 00 16:10:55 INDEX 01 16:13:22 TRACK 07 AUDIO TITLE "Los Cuatro Muleros" PERFORMER "12 canciones de Garcia Lorca" INDEX 00 19:03:22 INDEX 01 19:05:50 TRACK 08 AUDIO TITLE "Nana de Sevilla" PERFORMER "12 canciones de Garcia Lorca" INDEX 00 21:54:05 INDEX 01 21:56:50 TRACK 09 AUDIO TITLE "Cafe de Chinitas" PERFORMER "12 canciones de Garcia Lorca" INDEX 00 25:05:45 INDEX 01 25:08:15 TRACK 10 AUDIO TITLE "El Vito" PERFORMER "12 canciones de Garcia Lorca" INDEX 00 28:53:70 INDEX 01 28:56:45 TRACK 11 AUDIO TITLE "Los Peregrinitos" PERFORMER "12 canciones de Garcia Lorca" INDEX 00 31:47:57 INDEX 01 31:50:52 TRACK 12 AUDIO TITLE "Las Tres Hojas" PERFORMER "12 canciones de Garcia Lorca" INDEX 00 35:20:07 INDEX 01 35:22:55

Доп. информация

This recording dates from 1965, when Paco de Lucía was 16. It is not Flamenco; rather, it is arrangements of Andalusian folk tunes, which is not the same thing.
Lucía at that point had been recognised as a child prodigy (which is why he had a recording contract), but he was not yet what he was to become later; this was eight years before the hit "Entre dos aguas" whose massive success was the pivotal point in his career.
So what he recorded then was dictated by the record company, with the predictable results: albums ranging from tedious pot-boilers to minor masterpieces. Several of them consisted of duets with the guitarist Ricardo Modrego — which is probably the latter's major claim to fame as far as the world outside Spain is concerned. The best of the bunch of Paco's early recordings for my money is Canciones andaluzas para dos guitarras with his brother Ramón de Algeciras, which did (I believe) appear briefly on CD, but now seems to be available only on MP3.
The present album is somewhere in the higher end of the spectrum; the tunes, rescued from obscurity in the 1930's by Spain's best-known poet, are familiar to every Andalusian, and close to the guitarists' native idiom.
Lorca was of course a pianist. The arrangements for two guitars are imaginative and good, aided by possibly the best stereo separation I've heard.
Perhaps surprisingly, and certainly unfortunately, however, on this album Modrego appears the better player. The reason is that Lucía plays a guitar with a rattle on the first string that varies from merely annoying in the lower reaches of the fingerboard to excruciating at the 15th fret (which is used more often than you might think, e.g. on El Vito).
Still, an interesting disc and well worth a listen. The playing time is just under 38 minutes.

Состав

Paco de Lucia – Flamenco guitar
Ricardo Modrego – Flamenco guitar
[doutdess.site].t87928.torrent
Torrent: Registered [ 2015-11-05 22:00 ] · 8639F40363C24E74D6E0489CE1585EDB25A7126A

19 KB

Status: checked
Completed: 1 times
Size: 230 MB
(Acoustic Guitar, Flamenco, Folk) [CD] Paco de Lucia, Ricardo Modrego - 12 canciones de Garcia Lorca - 2002, FLAC (image+.cue), lossless скачать торрент бесплатно и без регистрации

[Profile] [PM]
Forum Topic Author Size
Фламенко и акустическая гитара lossless (Acoustic / Classical Guitar) Joao Bastos - Viagens - 2007, FLAC (image+.cue), lossless RelizMAN 220 MB
Западноевропейский фолк в lossless (Acoustic / Contemporary Folk / Chamber Jazz / World Music) [WEB] Aurélié Dorzée [Aurelie Dorzee] & Tom Theuns ft. Michel Massot - Elixir - 2019, FLAC (tracks), lossless Vi$itReal 321 MB
Фламенко и акустическая гитара lossy (Acoustic / Flamenco / Classical Guitar) Rodrigo Y Gabriela - Mettavolution - 2019 - 2019, MP3 (tracks), 320 kbps Vi$itReal 107 MB
Западноевропейский фолк lossy (Acoustic / Indie / Folk-Rock) Amy Macdonald - Under Stars - 2017, MP3, 320 kbps RelizMAN 152 MB
Авторская песня lossy (Acoustic / Indie / Rock / Electronic) Sita G - Дискография (1 Album + 1 EP + 1 Single) - 2015-2017, MP3, 320 kbps Vi$itReal 157 MB
Фламенко и акустическая гитара lossy (Acoustic / New Age) Pierre Bensusan - Solilai - 1982, MP3, 128 kbps Vi$itReal 38 MB
Отечественный реггей, даб lossy и lossless (Acoustic / Reggae / Dub / Rock) VA - Это не рок-н-ролл: трибьют Олди и Комитету Охраны Тепла - 2013, MP3 (tracks) 320 kbps Vi$itReal 278 MB
Отечественный реггей, даб lossy и lossless (Acoustic / Reggae) Зарисовка - Дискография (4 альбома+сингл) - 2008-2014, MP3 (tracks), 256-320 kbps Vi$itReal 468 MB
Display posts:    

Current time is: 26-Sep 14:52

All times are UTC + 3



You cannot post new topics in this forum
You cannot reply to topics in this forum
You cannot edit your posts in this forum
You cannot delete your posts in this forum
You cannot vote in polls in this forum
You cannot attach files in this forum
You can download files in this forum